  0
SECTION
  2
HEADER
  9
$ACADVER
  1
AC1014
  9
$ACADMAINTVER
 70
     9
  9
$DWGCODEPAGE
  3
ANSI_932
  9
$INSBASE
 10
0.0
 20
0.0
 30
0.0
  9
$EXTMIN
 10
2999.244091671506
 20
1456.430407231751
 30
0.0
  9
$EXTMAX
 10
3800.027625614516
 20
1989.127866627698
 30
0.0
  9
$LIMMIN
 10
0.0
 20
0.0
  9
$LIMMAX
 10
420.0
 20
297.0
  9
$ORTHOMODE
 70
     0
  9
$REGENMODE
 70
     1
  9
$FILLMODE
 70
     1
  9
$QTEXTMODE
 70
     0
  9
$MIRRTEXT
 70
     1
  9
$DRAGMODE
 70
     2
  9
$LTSCALE
 40
1.0
  9
$OSMODE
 70
    37
  9
$ATTMODE
 70
     1
  9
$TEXTSIZE
 40
2.5
  9
$TRACEWID
 40
1.0
  9
$TEXTSTYLE
  7
STANDARD
  9
$CLAYER
  8
SIZE
  9
$CELTYPE
  6
BYLAYER
  9
$CECOLOR
 62
   256
  9
$CELTSCALE
 40
1.0
  9
$DELOBJ
 70
     1
  9
$DISPSILH
 70
     0
  9
$DIMSCALE
 40
1.0
  9
$DIMASZ
 40
2.5
  9
$DIMEXO
 40
0.625
  9
$DIMDLI
 40
3.75
  9
$DIMRND
 40
0.0
  9
$DIMDLE
 40
0.0
  9
$DIMEXE
 40
1.25
  9
$DIMTP
 40
0.0
  9
$DIMTM
 40
0.0
  9
$DIMTXT
 40
2.5
  9
$DIMCEN
 40
2.5
  9
$DIMTSZ
 40
0.0
  9
$DIMTOL
 70
     0
  9
$DIMLIM
 70
     0
  9
$DIMTIH
 70
     0
  9
$DIMTOH
 70
     0
  9
$DIMSE1
 70
     0
  9
$DIMSE2
 70
     0
  9
$DIMTAD
 70
     1
  9
$DIMZIN
 70
     8
  9
$DIMBLK
  1

  9
$DIMASO
 70
     1
  9
$DIMSHO
 70
     1
  9
$DIMPOST
  1

  9
$DIMAPOST
  1

  9
$DIMALT
 70
     0
  9
$DIMALTD
 70
     3
  9
$DIMALTF
 40
0.03937007874016
  9
$DIMLFAC
 40
1.0
  9
$DIMTOFL
 70
     1
  9
$DIMTVP
 40
0.0
  9
$DIMTIX
 70
     0
  9
$DIMSOXD
 70
     0
  9
$DIMSAH
 70
     0
  9
$DIMBLK1
  1

  9
$DIMBLK2
  1

  9
$DIMSTYLE
  2
ISO-25
  9
$DIMCLRD
 70
     0
  9
$DIMCLRE
 70
     0
  9
$DIMCLRT
 70
     0
  9
$DIMTFAC
 40
1.0
  9
$DIMGAP
 40
0.625
  9
$DIMJUST
 70
     0
  9
$DIMSD1
 70
     0
  9
$DIMSD2
 70
     0
  9
$DIMTOLJ
 70
     0
  9
$DIMTZIN
 70
     8
  9
$DIMALTZ
 70
     0
  9
$DIMALTTZ
 70
     0
  9
$DIMFIT
 70
     3
  9
$DIMUPT
 70
     0
  9
$DIMUNIT
 70
     2
  9
$DIMDEC
 70
     2
  9
$DIMTDEC
 70
     2
  9
$DIMALTU
 70
     2
  9
$DIMALTTD
 70
     3
  9
$DIMTXSTY
  7
STANDARD
  9
$DIMAUNIT
 70
     0
  9
$LUNITS
 70
     2
  9
$LUPREC
 70
     4
  9
$SKETCHINC
 40
1.0
  9
$FILLETRAD
 40
10.0
  9
$AUNITS
 70
     0
  9
$AUPREC
 70
     0
  9
$MENU
  1
.
  9
$ELEVATION
 40
0.0
  9
$PELEVATION
 40
0.0
  9
$THICKNESS
 40
0.0
  9
$LIMCHECK
 70
     0
  9
$CHAMFERA
 40
0.0
  9
$CHAMFERB
 40
0.0
  9
$CHAMFERC
 40
0.0
  9
$CHAMFERD
 40
0.0
  9
$SKPOLY
 70
     0
  9
$TDCREATE
 40
2458723.449774352
  9
$TDUPDATE
 40
2458723.449776042
  9
$TDINDWG
 40
0.0000000116
  9
$TDUSRTIMER
 40
0.0000000116
  9
$USRTIMER
 70
     1
  9
$ANGBASE
 50
0.0
  9
$ANGDIR
 70
     0
  9
$PDMODE
 70
     0
  9
$PDSIZE
 40
0.0
  9
$PLINEWID
 40
0.0
  9
$COORDS
 70
     1
  9
$SPLFRAME
 70
     0
  9
$SPLINETYPE
 70
     6
  9
$SPLINESEGS
 70
     8
  9
$ATTDIA
 70
     0
  9
$ATTREQ
 70
     1
  9
$HANDLING
 70
     1
  9
$HANDSEED
  5
66F
  9
$SURFTAB1
 70
     6
  9
$SURFTAB2
 70
     6
  9
$SURFTYPE
 70
     6
  9
$SURFU
 70
     6
  9
$SURFV
 70
     6
  9
$UCSNAME
  2

  9
$UCSORG
 10
0.0
 20
0.0
 30
0.0
  9
$UCSXDIR
 10
1.0
 20
0.0
 30
0.0
  9
$UCSYDIR
 10
0.0
 20
1.0
 30
0.0
  9
$PUCSNAME
  2

  9
$PUCSORG
 10
0.0
 20
0.0
 30
0.0
  9
$PUCSXDIR
 10
1.0
 20
0.0
 30
0.0
  9
$PUCSYDIR
 10
0.0
 20
1.0
 30
0.0
  9
$USERI1
 70
     0
  9
$USERI2
 70
     0
  9
$USERI3
 70
     0
  9
$USERI4
 70
     0
  9
$USERI5
 70
     0
  9
$USERR1
 40
0.0
  9
$USERR2
 40
0.0
  9
$USERR3
 40
0.0
  9
$USERR4
 40
0.0
  9
$USERR5
 40
0.0
  9
$WORLDVIEW
 70
     1
  9
$SHADEDGE
 70
     3
  9
$SHADEDIF
 70
    70
  9
$TILEMODE
 70
     1
  9
$MAXACTVP
 70
    64
  9
$PINSBASE
 10
0.0
 20
0.0
 30
0.0
  9
$PLIMCHECK
 70
     0
  9
$PEXTMIN
 10
1.000000000000000E+20
 20
1.000000000000000E+20
 30
1.000000000000000E+20
  9
$PEXTMAX
 10
-1.000000000000000E+20
 20
-1.000000000000000E+20
 30
-1.000000000000000E+20
  9
$PLIMMIN
 10
0.0
 20
0.0
  9
$PLIMMAX
 10
420.0
 20
297.0
  9
$UNITMODE
 70
     0
  9
$VISRETAIN
 70
     1
  9
$PLINEGEN
 70
     0
  9
$PSLTSCALE
 70
     1
  9
$TREEDEPTH
 70
  3020
  9
$PICKSTYLE
 70
     1
  9
$CMLSTYLE
  2
STANDARD
  9
$CMLJUST
 70
     0
  9
$CMLSCALE
 40
20.0
  9
$PROXYGRAPHICS
 70
     1
  9
$MEASUREMENT
 70
     1
  0
ENDSEC
  0
SECTION
  2
CLASSES
  0
CLASS
  1
ACDBDICTIONARYWDFLT
  2
AcDbDictionaryWithDefault
  3
ObjectDBX Classes
 90
        0
280
     0
281
     0
  0
CLASS
  1
VISUALSTYLE
  2
AcDbVisualStyle
  3
ObjectDBX Classes
 90
     4095
280
     0
281
     0
  0
CLASS
  1
MATERIAL
  2
AcDbMaterial
  3
ObjectDBX Classes
 90
     1153
280
     0
281
     0
  0
CLASS
  1
SCALE
  2
AcDbScale
  3
ObjectDBX Classes
 90
     1153
280
     0
281
     0
  0
CLASS
  1
TABLESTYLE
  2
AcDbTableStyle
  3
ObjectDBX Classes
 90
     4095
280
     0
281
     0
  0
CLASS
  1
MLEADERSTYLE
  2
AcDbMLeaderStyle
  3
ACDB_MLEADERSTYLE_CLASS
 90
     4095
280
     0
281
     0
  0
CLASS
  1
SUN
  2
AcDbSun
  3
SCENEOE
 90
     1153
280
     0
281
     0
  0
CLASS
  1
DICTIONARYVAR
  2
AcDbDictionaryVar
  3
ObjectDBX Classes
 90
        0
280
     0
281
     0
  0
CLASS
  1
XRECORD
  2
AcDbXrecord
  3
ObjectDBX Classes
 90
        0
280
     0
281
     0
  0
CLASS
  1
LWPOLYLINE
  2
AcDbPolyline
  3
ObjectDBX Classes
 90
        0
280
     0
281
     1
  0
CLASS
  1
HATCH
  2
AcDbHatch
  3
ObjectDBX Classes
 90
        0
280
     0
281
     1
  0
CLASS
  1
ACDBPLACEHOLDER
  2
AcDbPlaceHolder
  3
ObjectDBX Classes
 90
        0
280
     0
281
     0
  0
CLASS
  1
LAYOUT
  2
AcDbLayout
  3
ObjectDBX Classes
 90
        0
280
     0
281
     0
  0
ENDSEC
  0
SECTION
  2
TABLES
  0
TABLE
  2
VPORT
  5
8
102
{ACAD_XDICTIONARY
360
664
102
}
330
0
100
AcDbSymbolTable
 70
     1
  0
VPORT
  5
29
330
8
100
AcDbSymbolTableRecord
100
AcDbViewportTableRecord
  2
*ACTIVE
 70
     0
 10
0.0
 20
0.0
 11
1.0
 21
1.0
 12
3399.728184933609
 22
1722.718199189816
 13
0.0
 23
0.0
 14
10.0
 24
10.0
 15
10.0
 25
10.0
 16
0.0
 26
0.0
 36
1.0
 17
0.0
 27
0.0
 37
0.0
 40
532.8193348757648
 41
1.503264116177324
 42
50.0
 43
0.0
 44
0.0
 50
0.0
 51
0.0
 71
     0
 72
  1000
 73
     1
 74
     3
 75
     0
 76
     0
 77
     0
 78
     0
  0
ENDTAB
  0
TABLE
  2
LTYPE
  5
5
330
0
100
AcDbSymbolTable
 70
     6
  0
LTYPE
  5
14
330
5
100
AcDbSymbolTableRecord
100
AcDbLinetypeTableRecord
  2
BYBLOCK
 70
     0
  3

 72
    65
 73
     0
 40
0.0
  0
LTYPE
  5
15
330
5
100
AcDbSymbolTableRecord
100
AcDbLinetypeTableRecord
  2
BYLAYER
 70
     0
  3

 72
    65
 73
     0
 40
0.0
  0
LTYPE
  5
16
330
5
100
AcDbSymbolTableRecord
100
AcDbLinetypeTableRecord
  2
CONTINUOUS
 70
     0
  3
Solid line
 72
    65
 73
     0
 40
0.0
  0
LTYPE
  5
6E
330
5
100
AcDbSymbolTableRecord
100
AcDbLinetypeTableRecord
  2
EXLTYPE0
 70
     0
  3
一点鎖線
 72
    65
 73
     4
 40
25.4
 49
15.875
 74
     0
 49
-3.174999999999999
 74
     0
 49
3.174999999999999
 74
     0
 49
-3.174999999999999
 74
     0
  0
LTYPE
  5
6F
330
5
100
AcDbSymbolTableRecord
100
AcDbLinetypeTableRecord
  2
EXLTYPE1
 70
     0
  3
破線
 72
    65
 73
     2
 40
9.524999999999999
 49
6.35
 74
     0
 49
-3.174999999999999
 74
     0
  0
LTYPE
  5
70
330
5
100
AcDbSymbolTableRecord
100
AcDbLinetypeTableRecord
  2
EXLTYPE2
 70
     0
  3
一点鎖線2
 72
    65
 73
     4
 40
6.399999999999999
 49
5.5
 74
     0
 49
-0.3
 74
     0
 49
0.3
 74
     0
 49
-0.3
 74
     0
  0
LTYPE
  5
71
330
5
100
AcDbSymbolTableRecord
100
AcDbLinetypeTableRecord
  2
EXLTYPE3
 70
     0
  3
破線2
 72
    65
 73
     2
 40
0.675
 49
0.375
 74
     0
 49
-0.3
 74
     0
  0
LTYPE
  5
72
330
5
100
AcDbSymbolTableRecord
100
AcDbLinetypeTableRecord
  2
EXLTYPE4
 70
     0
  3
二点鎖線
 72
    65
 73
     6
 40
31.74999999999999
 49
15.875
 74
     0
 49
-3.174999999999998
 74
     0
 49
3.174999999999998
 74
     0
 49
-3.174999999999998
 74
     0
 49
3.174999999999998
 74
     0
 49
-3.174999999999998
 74
     0
  0
ENDTAB
  0
TABLE
  2
LAYER
  5
2
330
0
100
AcDbSymbolTable
 70
    10
  0
LAYER
  5
10
330
2
100
AcDbSymbolTableRecord
100
AcDbLayerTableRecord
  2
0
 70
     0
 62
     7
  6
CONTINUOUS
  0
LAYER
  5
75
330
2
100
AcDbSymbolTableRecord
100
AcDbLayerTableRecord
  2
DASHED
 70
     0
 62
     2
  6
EXLTYPE1
  0
LAYER
  5
76
330
2
100
AcDbSymbolTableRecord
100
AcDbLayerTableRecord
  2
BODY
 70
     0
 62
     7
  6
CONTINUOUS
  0
LAYER
  5
77
330
2
100
AcDbSymbolTableRecord
100
AcDbLayerTableRecord
  2
CENTER
 70
     0
 62
     1
  6
EXLTYPE0
  0
LAYER
  5
78
330
2
100
AcDbSymbolTableRecord
100
AcDbLayerTableRecord
  2
SIZE
 70
     0
 62
     1
  6
CONTINUOUS
  0
LAYER
  5
79
330
2
100
AcDbSymbolTableRecord
100
AcDbLayerTableRecord
  2
VIWE
 70
     0
 62
     3
  6
CONTINUOUS
  0
LAYER
  5
7A
330
2
100
AcDbSymbolTableRecord
100
AcDbLayerTableRecord
  2
FREAM
 70
     0
 62
     4
  6
CONTINUOUS
  0
LAYER
  5
7B
330
2
100
AcDbSymbolTableRecord
100
AcDbLayerTableRecord
  2
DEFPOINTS
 70
     0
 62
     7
  6
CONTINUOUS
  0
LAYER
  5
7C
330
2
100
AcDbSymbolTableRecord
100
AcDbLayerTableRecord
  2
Ａ２枠_大和建工用
 70
     0
 62
     7
  6
CONTINUOUS
  0
LAYER
  5
7D
330
2
100
AcDbSymbolTableRecord
100
AcDbLayerTableRecord
  2
ロッド
 70
     0
 62
     7
  6
CONTINUOUS
  0
ENDTAB
  0
TABLE
  2
STYLE
  5
3
330
0
100
AcDbSymbolTable
 70
     6
  0
STYLE
  5
11
330
3
100
AcDbSymbolTableRecord
100
AcDbTextStyleTableRecord
  2
STANDARD
 70
     0
 40
0.0
 41
1.0
 50
0.0
 71
     0
 42
2.5
  3
monotxt
  4
extfont
  0
STYLE
  5
73
330
3
100
AcDbSymbolTableRecord
100
AcDbTextStyleTableRecord
  2
EXCADSTD
 70
     0
 40
0.0
 41
1.0
 50
0.0
 71
     0
 42
2.5
  3
monotxt
  4
extfont
  0
STYLE
  5
74
330
3
100
AcDbSymbolTableRecord
100
AcDbTextStyleTableRecord
  2
EXCADVERT
 70
     4
 40
0.0
 41
1.0
 50
0.0
 71
     0
 42
2.5
  3
monotxt
  4
extfont
  0
STYLE
  5
5C7
330
3
100
AcDbSymbolTableRecord
100
AcDbTextStyleTableRecord
  2
EXCADDIM1
 70
     0
 40
0.0
 41
1.0
 50
0.0
 71
     0
 42
2.5
  3
monotxt
  4
extfont
  0
STYLE
  5
632
330
3
100
AcDbSymbolTableRecord
100
AcDbTextStyleTableRecord
  2
EXCADTTF1
 70
     0
 40
0.0
 41
1.0
 50
0.0
 71
     0
 42
2.5
  3
arial.ttf
  4

1001
ACAD
1000
Arial
1071
       34
  0
STYLE
  5
635
330
3
100
AcDbSymbolTableRecord
100
AcDbTextStyleTableRecord
  2
EXCADTTF2
 70
     0
 40
0.0
 41
1.0
 50
0.0
 71
     0
 42
2.5
  3
msgothic.ttc
  4

1001
ACAD
1000
MS PGothic
1071
    32818
  0
ENDTAB
  0
TABLE
  2
VIEW
  5
6
330
0
100
AcDbSymbolTable
 70
     0
  0
ENDTAB
  0
TABLE
  2
UCS
  5
7
330
0
100
AcDbSymbolTable
 70
     0
  0
ENDTAB
  0
TABLE
  2
APPID
  5
9
330
0
100
AcDbSymbolTable
 70
     2
  0
APPID
  5
12
330
9
100
AcDbSymbolTableRecord
100
AcDbRegAppTableRecord
  2
ACAD
 70
     0
  0
APPID
  5
66E
330
9
100
AcDbSymbolTableRecord
100
AcDbRegAppTableRecord
  2
ACAD_MLEADERVER
 70
     0
  0
ENDTAB
  0
TABLE
  2
DIMSTYLE
  5
A
330
0
100
AcDbSymbolTable
 70
     1
  0
DIMSTYLE
105
27
102
{ACAD_REACTORS
330
5C8
330
5D5
330
5E2
330
5EF
330
5FC
330
609
330
616
330
623
102
}
330
A
100
AcDbSymbolTableRecord
100
AcDbDimStyleTableRecord
  2
ISO-25
 70
     0
  3

  4

  5

  6

  7

 40
1.0
 41
2.5
 42
0.625
 43
3.75
 44
1.25
 45
0.0
 46
0.0
 47
0.0
 48
0.0
140
2.5
141
2.5
142
0.0
143
0.03937007874016
144
1.0
145
0.0
146
1.0
147
0.625
 71
     0
 72
     0
 73
     0
 74
     0
 75
     0
 76
     0
 77
     1
 78
     8
170
     0
171
     3
172
     1
173
     0
174
     0
175
     0
176
     0
177
     0
178
     0
270
     2
271
     2
272
     2
273
     2
274
     3
340
11
275
     0
280
     0
281
     0
282
     0
283
     0
284
     8
285
     0
286
     0
287
     5
288
     0
  0
ENDTAB
  0
TABLE
  2
BLOCK_RECORD
  5
1
330
0
100
AcDbSymbolTable
 70
    22
  0
BLOCK_RECORD
  5
1F
330
1
100
AcDbSymbolTableRecord
100
AcDbBlockTableRecord
  2
*MODEL_SPACE
  0
BLOCK_RECORD
  5
1B
330
1
100
AcDbSymbolTableRecord
100
AcDbBlockTableRecord
  2
*PAPER_SPACE
  0
BLOCK_RECORD
  5
7E
330
1
100
AcDbSymbolTableRecord
100
AcDbBlockTableRecord
  2
EX_NORM
  0
BLOCK_RECORD
  5
81
330
1
100
AcDbSymbolTableRecord
100
AcDbBlockTableRecord
  2
EX_BNORM
  0
BLOCK_RECORD
  5
84
330
1
100
AcDbSymbolTableRecord
100
AcDbBlockTableRecord
  2
EX_BCIR
  0
BLOCK_RECORD
  5
87
330
1
100
AcDbSymbolTableRecord
100
AcDbBlockTableRecord
  2
EX_RCIVIL
  0
BLOCK_RECORD
  5
8A
330
1
100
AcDbSymbolTableRecord
100
AcDbBlockTableRecord
  2
EX_SLANT
  0
BLOCK_RECORD
  5
8D
330
1
100
AcDbSymbolTableRecord
100
AcDbBlockTableRecord
  2
EX_NONE
  0
BLOCK_RECORD
  5
90
330
1
100
AcDbSymbolTableRecord
100
AcDbBlockTableRecord
  2
EX_CIVIL
  0
BLOCK_RECORD
  5
93
330
1
100
AcDbSymbolTableRecord
100
AcDbBlockTableRecord
  2
EX_WCIR
  0
BLOCK_RECORD
  5
96
330
1
100
AcDbSymbolTableRecord
100
AcDbBlockTableRecord
  2
EX_WCIR2
  0
BLOCK_RECORD
  5
99
330
1
100
AcDbSymbolTableRecord
100
AcDbBlockTableRecord
  2
EX_WNORM
  0
BLOCK_RECORD
  5
9C
330
1
100
AcDbSymbolTableRecord
100
AcDbBlockTableRecord
  2
EX_NNORM
  0
BLOCK_RECORD
  5
9F
330
1
100
AcDbSymbolTableRecord
100
AcDbBlockTableRecord
  2
EX_BBOX
  0
BLOCK_RECORD
  5
A2
330
1
100
AcDbSymbolTableRecord
100
AcDbBlockTableRecord
  2
EX_WBOX
  0
BLOCK_RECORD
  5
A5
330
1
100
AcDbSymbolTableRecord
100
AcDbBlockTableRecord
  2
EX_INTEGRAL
  0
BLOCK_RECORD
  5
5C9
330
1
100
AcDbSymbolTableRecord
100
AcDbBlockTableRecord
  2
*D15
  0
BLOCK_RECORD
  5
5D6
330
1
100
AcDbSymbolTableRecord
100
AcDbBlockTableRecord
  2
*D16
  0
BLOCK_RECORD
  5
5E3
330
1
100
AcDbSymbolTableRecord
100
AcDbBlockTableRecord
  2
*D17
  0
BLOCK_RECORD
  5
5F0
330
1
100
AcDbSymbolTableRecord
100
AcDbBlockTableRecord
  2
*D18
  0
BLOCK_RECORD
  5
5FD
330
1
100
AcDbSymbolTableRecord
100
AcDbBlockTableRecord
  2
*D19
  0
BLOCK_RECORD
  5
60A
330
1
100
AcDbSymbolTableRecord
100
AcDbBlockTableRecord
  2
*D20
  0
BLOCK_RECORD
  5
617
330
1
100
AcDbSymbolTableRecord
100
AcDbBlockTableRecord
  2
*D21
  0
BLOCK_RECORD
  5
624
330
1
100
AcDbSymbolTableRecord
100
AcDbBlockTableRecord
  2
*D22
  0
ENDTAB
  0
ENDSEC
  0
SECTION
  2
BLOCKS
  0
BLOCK
  5
20
330
1F
100
AcDbEntity
  8
0
100
AcDbBlockBegin
  2
*MODEL_SPACE
 70
     0
 10
0.0
 20
0.0
 30
0.0
  3
*MODEL_SPACE
  1

  0
ENDBLK
  5
21
330
1F
100
AcDbEntity
  8
0
100
AcDbBlockEnd
  0
BLOCK
  5
1C
330
1B
100
AcDbEntity
 67
     1
  8
0
100
AcDbBlockBegin
  2
*PAPER_SPACE
 70
     0
 10
0.0
 20
0.0
 30
0.0
  3
*PAPER_SPACE
  1

  0
ENDBLK
  5
1D
330
1B
100
AcDbEntity
 67
     1
  8
0
100
AcDbBlockEnd
  0
BLOCK
  5
7F
330
7E
100
AcDbEntity
  8
0
100
AcDbBlockBegin
  2
EX_NORM
 70
     0
 10
0.0
 20
0.0
 30
0.0
  3
EX_NORM
  1

  0
LINE
  5
A8
330
7E
100
AcDbEntity
  8
0
  6
CONTINUOUS
 62
     0
100
AcDbLine
 10
0.0
 20
0.0
 30
0.0
 11
-1.0
 21
0.0
 31
0.0
  0
LINE
  5
A9
330
7E
100
AcDbEntity
  8
0
  6
CONTINUOUS
 62
     0
100
AcDbLine
 10
0.0
 20
0.0
 30
0.0
 11
-1.0
 21
0.166666667
 31
0.0
  0
LINE
  5
AA
330
7E
100
AcDbEntity
  8
0
  6
CONTINUOUS
 62
     0
100
AcDbLine
 10
0.0
 20
0.0
 30
0.0
 11
-1.0
 21
-0.166666667
 31
0.0
  0
ENDBLK
  5
80
330
7E
100
AcDbEntity
  8
0
100
AcDbBlockEnd
  0
BLOCK
  5
82
330
81
100
AcDbEntity
  8
0
100
AcDbBlockBegin
  2
EX_BNORM
 70
     0
 10
0.0
 20
0.0
 30
0.0
  3
EX_BNORM
  1

  0
LINE
  5
AB
330
81
100
AcDbEntity
  8
0
  6
CONTINUOUS
 62
     0
100
AcDbLine
 10
0.0
 20
0.0
 30
0.0
 11
-1.0
 21
0.0
 31
0.0
  0
LINE
  5
AC
330
81
100
AcDbEntity
  8
0
  6
CONTINUOUS
 62
     0
100
AcDbLine
 10
0.0
 20
0.0
 30
0.0
 11
-1.0
 21
0.166666667
 31
0.0
  0
LINE
  5
AD
330
81
100
AcDbEntity
  8
0
  6
CONTINUOUS
 62
     0
100
AcDbLine
 10
0.0
 20
0.0
 30
0.0
 11
-1.0
 21
-0.166666667
 31
0.0
  0
LINE
  5
AE
330
81
100
AcDbEntity
  8
0
  6
CONTINUOUS
 62
     0
100
AcDbLine
 10
0.0
 20
0.0
 30
0.0
 11
-1.0
 21
0.083333333
 31
0.0
  0
LINE
  5
AF
330
81
100
AcDbEntity
  8
0
  6
CONTINUOUS
 62
     0
100
AcDbLine
 10
0.0
 20
0.0
 30
0.0
 11
-1.0
 21
-0.083333333
 31
0.0
  0
LINE
  5
B0
330
81
100
AcDbEntity
  8
0
  6
CONTINUOUS
 62
     0
100
AcDbLine
 10
-1.0
 20
0.166666667
 30
0.0
 11
-1.0
 21
-0.166666667
 31
0.0
  0
ENDBLK
  5
83
330
81
100
AcDbEntity
  8
0
100
AcDbBlockEnd
  0
BLOCK
  5
85
330
84
100
AcDbEntity
  8
0
100
AcDbBlockBegin
  2
EX_BCIR
 70
     0
 10
0.0
 20
0.0
 30
0.0
  3
EX_BCIR
  1

  0
LINE
  5
B1
330
84
100
AcDbEntity
  8
0
  6
CONTINUOUS
 62
     0
100
AcDbLine
 10
0.0
 20
0.0
 30
0.0
 11
-1.0
 21
0.0
 31
0.0
  0
CIRCLE
  5
B2
330
84
100
AcDbEntity
  8
0
  6
CONTINUOUS
 62
     0
100
AcDbCircle
 10
0.0
 20
0.0
 30
0.0
 40
0.5
  0
CIRCLE
  5
B3
330
84
100
AcDbEntity
  8
0
  6
CONTINUOUS
 62
     0
100
AcDbCircle
 10
0.0
 20
0.0
 30
0.0
 40
0.25
  0
ENDBLK
  5
86
330
84
100
AcDbEntity
  8
0
100
AcDbBlockEnd
  0
BLOCK
  5
88
330
87
100
AcDbEntity
  8
0
100
AcDbBlockBegin
  2
EX_RCIVIL
 70
     0
 10
0.0
 20
0.0
 30
0.0
  3
EX_RCIVIL
  1

  0
LINE
  5
B4
330
87
100
AcDbEntity
  8
0
  6
CONTINUOUS
 62
     0
100
AcDbLine
 10
0.0
 20
0.0
 30
0.0
 11
-1.0
 21
0.0
 31
0.0
  0
LINE
  5
B5
330
87
100
AcDbEntity
  8
0
  6
CONTINUOUS
 62
     0
100
AcDbLine
 10
-1.0
 20
-0.25
 30
0.0
 11
0.0
 21
-0.25
 31
0.0
  0
LINE
  5
B6
330
87
100
AcDbEntity
  8
0
  6
CONTINUOUS
 62
     0
100
AcDbLine
 10
-1.0
 20
-0.125
 30
0.0
 11
0.0
 21
-0.125
 31
0.0
  0
ENDBLK
  5
89
330
87
100
AcDbEntity
  8
0
100
AcDbBlockEnd
  0
BLOCK
  5
8B
330
8A
100
AcDbEntity
  8
0
100
AcDbBlockBegin
  2
EX_SLANT
 70
     0
 10
0.0
 20
0.0
 30
0.0
  3
EX_SLANT
  1

  0
LINE
  5
B7
330
8A
100
AcDbEntity
  8
0
  6
CONTINUOUS
 62
     0
100
AcDbLine
 10
0.0
 20
0.0
 30
0.0
 11
-1.0
 21
0.0
 31
0.0
  0
LINE
  5
B8
330
8A
100
AcDbEntity
  8
0
  6
CONTINUOUS
 62
     0
100
AcDbLine
 10
0.707106781
 20
0.707106781
 30
0.0
 11
-0.707106781
 21
-0.707106781
 31
0.0
  0
ENDBLK
  5
8C
330
8A
100
AcDbEntity
  8
0
100
AcDbBlockEnd
  0
BLOCK
  5
8E
330
8D
100
AcDbEntity
  8
0
100
AcDbBlockBegin
  2
EX_NONE
 70
     0
 10
0.0
 20
0.0
 30
0.0
  3
EX_NONE
  1

  0
LINE
  5
B9
330
8D
100
AcDbEntity
  8
0
  6
CONTINUOUS
 62
     0
100
AcDbLine
 10
0.0
 20
0.0
 30
0.0
 11
-1.0
 21
0.0
 31
0.0
  0
ENDBLK
  5
8F
330
8D
100
AcDbEntity
  8
0
100
AcDbBlockEnd
  0
BLOCK
  5
91
330
90
100
AcDbEntity
  8
0
100
AcDbBlockBegin
  2
EX_CIVIL
 70
     0
 10
0.0
 20
0.0
 30
0.0
  3
EX_CIVIL
  1

  0
LINE
  5
BA
330
90
100
AcDbEntity
  8
0
  6
CONTINUOUS
 62
     0
100
AcDbLine
 10
0.0
 20
0.0
 30
0.0
 11
-1.0
 21
0.0
 31
0.0
  0
LINE
  5
BB
330
90
100
AcDbEntity
  8
0
  6
CONTINUOUS
 62
     0
100
AcDbLine
 10
-1.0
 20
0.25
 30
0.0
 11
0.0
 21
0.25
 31
0.0
  0
LINE
  5
BC
330
90
100
AcDbEntity
  8
0
  6
CONTINUOUS
 62
     0
100
AcDbLine
 10
-1.0
 20
0.125
 30
0.0
 11
0.0
 21
0.125
 31
0.0
  0
ENDBLK
  5
92
330
90
100
AcDbEntity
  8
0
100
AcDbBlockEnd
  0
BLOCK
  5
94
330
93
100
AcDbEntity
  8
0
100
AcDbBlockBegin
  2
EX_WCIR
 70
     0
 10
0.0
 20
0.0
 30
0.0
  3
EX_WCIR
  1

  0
LINE
  5
BD
330
93
100
AcDbEntity
  8
0
  6
CONTINUOUS
 62
     0
100
AcDbLine
 10
0.0
 20
0.0
 30
0.0
 11
-1.0
 21
0.0
 31
0.0
  0
CIRCLE
  5
BE
330
93
100
AcDbEntity
  8
0
  6
CONTINUOUS
 62
     0
100
AcDbCircle
 10
0.0
 20
0.0
 30
0.0
 40
0.5
  0
ENDBLK
  5
95
330
93
100
AcDbEntity
  8
0
100
AcDbBlockEnd
  0
BLOCK
  5
97
330
96
100
AcDbEntity
  8
0
100
AcDbBlockBegin
  2
EX_WCIR2
 70
     0
 10
0.0
 20
0.0
 30
0.0
  3
EX_WCIR2
  1

  0
LINE
  5
BF
330
96
100
AcDbEntity
  8
0
  6
CONTINUOUS
 62
     0
100
AcDbLine
 10
-0.5
 20
0.0
 30
0.0
 11
-1.0
 21
0.0
 31
0.0
  0
CIRCLE
  5
C0
330
96
100
AcDbEntity
  8
0
  6
CONTINUOUS
 62
     0
100
AcDbCircle
 10
0.0
 20
0.0
 30
0.0
 40
0.5
  0
ENDBLK
  5
98
330
96
100
AcDbEntity
  8
0
100
AcDbBlockEnd
  0
BLOCK
  5
9A
330
99
100
AcDbEntity
  8
0
100
AcDbBlockBegin
  2
EX_WNORM
 70
     0
 10
0.0
 20
0.0
 30
0.0
  3
EX_WNORM
  1

  0
LINE
  5
C1
330
99
100
AcDbEntity
  8
0
  6
CONTINUOUS
 62
     0
100
AcDbLine
 10
-1.0
 20
0.0
 30
0.0
 11
-1.0
 21
0.0
 31
0.0
  0
LINE
  5
C2
330
99
100
AcDbEntity
  8
0
  6
CONTINUOUS
 62
     0
100
AcDbLine
 10
0.0
 20
0.0
 30
0.0
 11
-1.0
 21
0.166666667
 31
0.0
  0
LINE
  5
C3
330
99
100
AcDbEntity
  8
0
  6
CONTINUOUS
 62
     0
100
AcDbLine
 10
0.0
 20
0.0
 30
0.0
 11
-1.0
 21
-0.166666667
 31
0.0
  0
LINE
  5
C4
330
99
100
AcDbEntity
  8
0
  6
CONTINUOUS
 62
     0
100
AcDbLine
 10
-1.0
 20
0.166666667
 30
0.0
 11
-1.0
 21
-0.166666667
 31
0.0
  0
ENDBLK
  5
9B
330
99
100
AcDbEntity
  8
0
100
AcDbBlockEnd
  0
BLOCK
  5
9D
330
9C
100
AcDbEntity
  8
0
100
AcDbBlockBegin
  2
EX_NNORM
 70
     0
 10
0.0
 20
0.0
 30
0.0
  3
EX_NNORM
  1

  0
LINE
  5
C5
330
9C
100
AcDbEntity
  8
0
  6
CONTINUOUS
 62
     0
100
AcDbLine
 10
0.0
 20
0.0
 30
0.0
 11
-1.0
 21
0.0
 31
0.0
  0
LINE
  5
C6
330
9C
100
AcDbEntity
  8
0
  6
CONTINUOUS
 62
     0
100
AcDbLine
 10
0.0
 20
0.0
 30
0.0
 11
-1.0
 21
0.166666667
 31
0.0
  0
LINE
  5
C7
330
9C
100
AcDbEntity
  8
0
  6
CONTINUOUS
 62
     0
100
AcDbLine
 10
0.0
 20
0.0
 30
0.0
 11
-1.0
 21
-0.166666667
 31
0.0
  0
LINE
  5
C8
330
9C
100
AcDbEntity
  8
0
  6
CONTINUOUS
 62
     0
100
AcDbLine
 10
-1.0
 20
0.166666667
 30
0.0
 11
-1.0
 21
-0.166666667
 31
0.0
  0
ENDBLK
  5
9E
330
9C
100
AcDbEntity
  8
0
100
AcDbBlockEnd
  0
BLOCK
  5
A0
330
9F
100
AcDbEntity
  8
0
100
AcDbBlockBegin
  2
EX_BBOX
 70
     0
 10
0.0
 20
0.0
 30
0.0
  3
EX_BBOX
  1

  0
LINE
  5
C9
330
9F
100
AcDbEntity
  8
0
  6
CONTINUOUS
 62
     0
100
AcDbLine
 10
0.0
 20
0.0
 30
0.0
 11
-1.0
 21
0.0
 31
0.0
  0
LINE
  5
CA
330
9F
100
AcDbEntity
  8
0
  6
CONTINUOUS
 62
     0
100
AcDbLine
 10
-0.5
 20
0.5
 30
0.0
 11
0.5
 21
0.5
 31
0.0
  0
LINE
  5
CB
330
9F
100
AcDbEntity
  8
0
  6
CONTINUOUS
 62
     0
100
AcDbLine
 10
0.5
 20
0.5
 30
0.0
 11
0.5
 21
-0.5
 31
0.0
  0
LINE
  5
CC
330
9F
100
AcDbEntity
  8
0
  6
CONTINUOUS
 62
     0
100
AcDbLine
 10
0.5
 20
-0.5
 30
0.0
 11
-0.5
 21
-0.5
 31
0.0
  0
LINE
  5
CD
330
9F
100
AcDbEntity
  8
0
  6
CONTINUOUS
 62
     0
100
AcDbLine
 10
-0.5
 20
-0.5
 30
0.0
 11
-0.5
 21
0.5
 31
0.0
  0
LINE
  5
CE
330
9F
100
AcDbEntity
  8
0
  6
CONTINUOUS
 62
     0
100
AcDbLine
 10
-0.25
 20
0.25
 30
0.0
 11
0.25
 21
0.25
 31
0.0
  0
LINE
  5
CF
330
9F
100
AcDbEntity
  8
0
  6
CONTINUOUS
 62
     0
100
AcDbLine
 10
0.25
 20
0.25
 30
0.0
 11
0.25
 21
-0.25
 31
0.0
  0
LINE
  5
D0
330
9F
100
AcDbEntity
  8
0
  6
CONTINUOUS
 62
     0
100
AcDbLine
 10
0.25
 20
-0.25
 30
0.0
 11
-0.25
 21
-0.25
 31
0.0
  0
LINE
  5
D1
330
9F
100
AcDbEntity
  8
0
  6
CONTINUOUS
 62
     0
100
AcDbLine
 10
-0.25
 20
-0.25
 30
0.0
 11
-0.25
 21
0.25
 31
0.0
  0
ENDBLK
  5
A1
330
9F
100
AcDbEntity
  8
0
100
AcDbBlockEnd
  0
BLOCK
  5
A3
330
A2
100
AcDbEntity
  8
0
100
AcDbBlockBegin
  2
EX_WBOX
 70
     0
 10
0.0
 20
0.0
 30
0.0
  3
EX_WBOX
  1

  0
LINE
  5
D2
330
A2
100
AcDbEntity
  8
0
  6
CONTINUOUS
 62
     0
100
AcDbLine
 10
-0.5
 20
0.0
 30
0.0
 11
-1.0
 21
0.0
 31
0.0
  0
LINE
  5
D3
330
A2
100
AcDbEntity
  8
0
  6
CONTINUOUS
 62
     0
100
AcDbLine
 10
-0.5
 20
0.5
 30
0.0
 11
0.5
 21
0.5
 31
0.0
  0
LINE
  5
D4
330
A2
100
AcDbEntity
  8
0
  6
CONTINUOUS
 62
     0
100
AcDbLine
 10
0.5
 20
0.5
 30
0.0
 11
0.5
 21
-0.5
 31
0.0
  0
LINE
  5
D5
330
A2
100
AcDbEntity
  8
0
  6
CONTINUOUS
 62
     0
100
AcDbLine
 10
0.5
 20
-0.5
 30
0.0
 11
-0.5
 21
-0.5
 31
0.0
  0
LINE
  5
D6
330
A2
100
AcDbEntity
  8
0
  6
CONTINUOUS
 62
     0
100
AcDbLine
 10
-0.5
 20
-0.5
 30
0.0
 11
-0.5
 21
0.5
 31
0.0
  0
ENDBLK
  5
A4
330
A2
100
AcDbEntity
  8
0
100
AcDbBlockEnd
  0
BLOCK
  5
A6
330
A5
100
AcDbEntity
  8
0
100
AcDbBlockBegin
  2
EX_INTEGRAL
 70
     0
 10
0.0
 20
0.0
 30
0.0
  3
EX_INTEGRAL
  1

  0
LINE
  5
D7
330
A5
100
AcDbEntity
  8
0
  6
CONTINUOUS
 62
     0
100
AcDbLine
 10
0.0
 20
0.0
 30
0.0
 11
-1.0
 21
0.0
 31
0.0
  0
ARC
  5
D8
330
A5
100
AcDbEntity
  8
0
  6
CONTINUOUS
 62
     0
100
AcDbCircle
 10
0.542115
 20
0.164992
 30
0.0
 40
0.56667
100
AcDbArc
 50
73.07249033629006
 51
196.9275130221199
  0
ARC
  5
D9
330
A5
100
AcDbEntity
  8
0
  6
CONTINUOUS
 62
     0
100
AcDbCircle
 10
-0.542115
 20
-0.164992
 30
0.0
 40
0.56667
100
AcDbArc
 50
253.0724869220464
 51
16.9275130559125
  0
ENDBLK
  5
A7
330
A5
100
AcDbEntity
  8
0
100
AcDbBlockEnd
  0
BLOCK
  5
5CA
330
5C9
100
AcDbEntity
  8
0
100
AcDbBlockBegin
  2
*D15
 70
     1
 10
0.0
 20
0.0
 30
0.0
  3
*D15
  1

  0
LINE
  5
5CC
330
5C9
100
AcDbEntity
  8
SIZE
  6
CONTINUOUS
 62
     1
100
AcDbLine
 10
3372.156209098227
 20
1779.491327781837
 30
0.0
 11
3372.156209098227
 21
1472.772700648558
 31
0.0
  0
LINE
  5
5CD
330
5C9
100
AcDbEntity
  8
SIZE
  6
CONTINUOUS
 62
     1
100
AcDbLine
 10
3115.156735341516
 20
1577.64770100296
 30
0.0
 11
3115.156735341516
 21
1472.772700648558
 31
0.0
  0
LINE
  5
5CE
330
5C9
100
AcDbEntity
  8
SIZE
  6
CONTINUOUS
 62
     1
100
AcDbLine
 10
3364.656209098227
 20
1476.522700648558
 30
0.0
 11
3122.656735341516
 21
1476.522700648558
 31
0.0
  0
INSERT
  5
5CF
330
5C9
100
AcDbEntity
  8
SIZE
 62
     1
100
AcDbBlockReference
  2
EX_BNORM
 10
3372.156209098227
 20
1476.522700648558
 30
0.0
 41
7.5
 42
7.5
 43
7.5
  0
INSERT
  5
5D0
330
5C9
100
AcDbEntity
  8
SIZE
 62
     1
100
AcDbBlockReference
  2
EX_BNORM
 10
3115.156735341516
 20
1476.522700648558
 30
0.0
 41
7.5
 42
7.5
 43
7.5
 50
180.0
  0
MTEXT
  5
5D1
330
5C9
100
AcDbEntity
  8
SIZE
 62
     1
100
AcDbMText
 10
3243.656472219872
 20
1483.647700648558
 30
0.0
 40
10.49999983062744
 41
0.0
 71
     5
 72
     1
  1
約257
  7
EXCADDIM1
  0
POINT
  5
5D2
330
5C9
100
AcDbEntity
  8
DEFPOINTS
 62
     0
100
AcDbPoint
 10
3372.156209098227
 20
1781.366327781837
 30
0.0
  0
POINT
  5
5D3
330
5C9
100
AcDbEntity
  8
DEFPOINTS
 62
     0
100
AcDbPoint
 10
3115.156735341516
 20
1579.52270100296
 30
0.0
  0
POINT
  5
5D4
330
5C9
100
AcDbEntity
  8
DEFPOINTS
 62
     0
100
AcDbPoint
 10
3115.156735341516
 20
1476.522700648558
 30
0.0
  0
ENDBLK
  5
5CB
330
5C9
100
AcDbEntity
  8
0
100
AcDbBlockEnd
  0
BLOCK
  5
5D7
330
5D6
100
AcDbEntity
  8
0
100
AcDbBlockBegin
  2
*D16
 70
     1
 10
0.0
 20
0.0
 30
0.0
  3
*D16
  1

  0
LINE
  5
5D9
330
5D6
100
AcDbEntity
  8
SIZE
  6
CONTINUOUS
 62
     1
100
AcDbLine
 10
3115.156735342401
 20
1577.647641497117
 30
0.0
 11
3115.156735342401
 21
1502.772700648558
 31
0.0
  0
LINE
  5
5DA
330
5D6
100
AcDbEntity
  8
SIZE
  6
CONTINUOUS
 62
     1
100
AcDbLine
 10
3315.156209098277
 20
1585.647697730138
 30
0.0
 11
3315.156209098277
 21
1502.772700648558
 31
0.0
  0
LINE
  5
5DB
330
5D6
100
AcDbEntity
  8
SIZE
  6
CONTINUOUS
 62
     1
100
AcDbLine
 10
3122.656735342401
 20
1506.522700648558
 30
0.0
 11
3307.656209098277
 21
1506.522700648558
 31
0.0
  0
INSERT
  5
5DC
330
5D6
100
AcDbEntity
  8
SIZE
 62
     1
100
AcDbBlockReference
  2
EX_BNORM
 10
3115.156735342401
 20
1506.522700648558
 30
0.0
 41
7.5
 42
7.5
 43
7.5
 50
180.0
  0
INSERT
  5
5DD
330
5D6
100
AcDbEntity
  8
SIZE
 62
     1
100
AcDbBlockReference
  2
EX_BNORM
 10
3315.156209098277
 20
1506.522700648558
 30
0.0
 41
7.5
 42
7.5
 43
7.5
  0
MTEXT
  5
5DE
330
5D6
100
AcDbEntity
  8
SIZE
 62
     1
100
AcDbMText
 10
3215.15647222034
 20
1513.647700648558
 30
0.0
 40
10.49999983062744
 41
0.0
 71
     5
 72
     1
  1
200
  7
EXCADDIM1
  0
POINT
  5
5DF
330
5D6
100
AcDbEntity
  8
DEFPOINTS
 62
     0
100
AcDbPoint
 10
3115.156735342401
 20
1579.522641497117
 30
0.0
  0
POINT
  5
5E0
330
5D6
100
AcDbEntity
  8
DEFPOINTS
 62
     0
100
AcDbPoint
 10
3315.156209098277
 20
1587.522697730138
 30
0.0
  0
POINT
  5
5E1
330
5D6
100
AcDbEntity
  8
DEFPOINTS
 62
     0
100
AcDbPoint
 10
3315.156209098277
 20
1506.522700648558
 30
0.0
  0
ENDBLK
  5
5D8
330
5D6
100
AcDbEntity
  8
0
100
AcDbBlockEnd
  0
BLOCK
  5
5E4
330
5E3
100
AcDbEntity
  8
0
100
AcDbBlockBegin
  2
*D17
 70
     1
 10
0.0
 20
0.0
 30
0.0
  3
*D17
  1

  0
LINE
  5
5E6
330
5E3
100
AcDbEntity
  8
SIZE
  6
CONTINUOUS
 62
     1
100
AcDbLine
 10
3135.158847904899
 20
1570.647700648562
 30
0.0
 11
3135.158847904899
 21
1532.772700648558
 31
0.0
  0
LINE
  5
5E7
330
5E3
100
AcDbEntity
  8
SIZE
  6
CONTINUOUS
 62
     1
100
AcDbLine
 10
3295.156209098277
 20
1570.647700648562
 30
0.0
 11
3295.156209098277
 21
1532.772700648558
 31
0.0
  0
LINE
  5
5E8
330
5E3
100
AcDbEntity
  8
SIZE
  6
CONTINUOUS
 62
     1
100
AcDbLine
 10
3142.658847904899
 20
1536.522700648558
 30
0.0
 11
3287.656209098277
 21
1536.522700648558
 31
0.0
  0
INSERT
  5
5E9
330
5E3
100
AcDbEntity
  8
SIZE
 62
     1
100
AcDbBlockReference
  2
EX_BNORM
 10
3135.158847904899
 20
1536.522700648558
 30
0.0
 41
7.5
 42
7.5
 43
7.5
 50
180.0
  0
INSERT
  5
5EA
330
5E3
100
AcDbEntity
  8
SIZE
 62
     1
100
AcDbBlockReference
  2
EX_BNORM
 10
3295.156209098277
 20
1536.522700648558
 30
0.0
 41
7.5
 42
7.5
 43
7.5
  0
MTEXT
  5
5EB
330
5E3
100
AcDbEntity
  8
SIZE
 62
     1
100
AcDbMText
 10
3215.157528501588
 20
1543.647700648558
 30
0.0
 40
10.49999983062744
 41
0.0
 71
     5
 72
     1
  1
160
  7
EXCADDIM1
  0
POINT
  5
5EC
330
5E3
100
AcDbEntity
  8
DEFPOINTS
 62
     0
100
AcDbPoint
 10
3135.158847904899
 20
1572.522700648562
 30
0.0
  0
POINT
  5
5ED
330
5E3
100
AcDbEntity
  8
DEFPOINTS
 62
     0
100
AcDbPoint
 10
3295.156209098277
 20
1572.522700648562
 30
0.0
  0
POINT
  5
5EE
330
5E3
100
AcDbEntity
  8
DEFPOINTS
 62
     0
100
AcDbPoint
 10
3295.156209098277
 20
1536.522700648558
 30
0.0
  0
ENDBLK
  5
5E5
330
5E3
100
AcDbEntity
  8
0
100
AcDbBlockEnd
  0
BLOCK
  5
5F1
330
5F0
100
AcDbEntity
  8
0
100
AcDbBlockBegin
  2
*D18
 70
     1
 10
0.0
 20
0.0
 30
0.0
  3
*D18
  1

  0
LINE
  5
5F3
330
5F0
100
AcDbEntity
  8
SIZE
  6
CONTINUOUS
 62
     1
100
AcDbLine
 10
3308.531209098227
 20
1703.522697730138
 30
0.0
 11
3405.906209098228
 21
1703.522697730138
 31
0.0
  0
LINE
  5
5F4
330
5F0
100
AcDbEntity
  8
SIZE
  6
CONTINUOUS
 62
     1
100
AcDbLine
 10
3304.031209098277
 20
1572.522700648562
 30
0.0
 11
3405.906209098228
 21
1572.522700648562
 31
0.0
  0
LINE
  5
5F5
330
5F0
100
AcDbEntity
  8
SIZE
  6
CONTINUOUS
 62
     1
100
AcDbLine
 10
3402.156209098228
 20
1696.022697730138
 30
0.0
 11
3402.156209098228
 21
1580.022700648562
 31
0.0
  0
INSERT
  5
5F6
330
5F0
100
AcDbEntity
  8
SIZE
 62
     1
100
AcDbBlockReference
  2
EX_BNORM
 10
3402.156209098228
 20
1703.522697730138
 30
0.0
 41
7.5
 42
7.5
 43
7.5
 50
90.0
  0
INSERT
  5
5F7
330
5F0
100
AcDbEntity
  8
SIZE
 62
     1
100
AcDbBlockReference
  2
EX_BNORM
 10
3402.156209098228
 20
1572.522700648562
 30
0.0
 41
7.5
 42
7.5
 43
7.5
 50
270.0
  0
MTEXT
  5
5F8
330
5F0
100
AcDbEntity
  8
SIZE
 62
     1
100
AcDbMText
 10
3395.031209098227
 20
1638.02269918935
 30
0.0
 40
10.49999983062744
 41
0.0
 71
     5
 72
     1
  1
約131
  7
EXCADDIM1
 11
0.0
 21
1.0
 31
0.0
  0
POINT
  5
5F9
330
5F0
100
AcDbEntity
  8
DEFPOINTS
 62
     0
100
AcDbPoint
 10
3306.656209098227
 20
1703.522697730138
 30
0.0
  0
POINT
  5
5FA
330
5F0
100
AcDbEntity
  8
DEFPOINTS
 62
     0
100
AcDbPoint
 10
3302.156209098277
 20
1572.522700648562
 30
0.0
  0
POINT
  5
5FB
330
5F0
100
AcDbEntity
  8
DEFPOINTS
 62
     0
100
AcDbPoint
 10
3402.156209098228
 20
1572.522700648562
 30
0.0
  0
ENDBLK
  5
5F2
330
5F0
100
AcDbEntity
  8
0
100
AcDbBlockEnd
  0
BLOCK
  5
5FE
330
5FD
100
AcDbEntity
  8
0
100
AcDbBlockBegin
  2
*D19
 70
     1
 10
0.0
 20
0.0
 30
0.0
  3
*D19
  1

  0
LINE
  5
600
330
5FD
100
AcDbEntity
  8
SIZE
  6
CONTINUOUS
 62
     1
100
AcDbLine
 10
3266.031209098278
 20
1966.022697730138
 30
0.0
 11
3435.906209098228
 21
1966.022697730138
 31
0.0
  0
LINE
  5
601
330
5FD
100
AcDbEntity
  8
SIZE
  6
CONTINUOUS
 62
     1
100
AcDbLine
 10
3304.031209098277
 20
1572.522700648562
 30
0.0
 11
3435.906209098228
 21
1572.522700648562
 31
0.0
  0
LINE
  5
602
330
5FD
100
AcDbEntity
  8
SIZE
  6
CONTINUOUS
 62
     1
100
AcDbLine
 10
3432.156209098228
 20
1958.522697730138
 30
0.0
 11
3432.156209098228
 21
1580.022700648562
 31
0.0
  0
INSERT
  5
603
330
5FD
100
AcDbEntity
  8
SIZE
 62
     1
100
AcDbBlockReference
  2
EX_BNORM
 10
3432.156209098228
 20
1966.022697730138
 30
0.0
 41
7.5
 42
7.5
 43
7.5
 50
90.0
  0
INSERT
  5
604
330
5FD
100
AcDbEntity
  8
SIZE
 62
     1
100
AcDbBlockReference
  2
EX_BNORM
 10
3432.156209098228
 20
1572.522700648562
 30
0.0
 41
7.5
 42
7.5
 43
7.5
 50
270.0
  0
MTEXT
  5
605
330
5FD
100
AcDbEntity
  8
SIZE
 62
     1
100
AcDbMText
 10
3425.031209098228
 20
1769.27269918935
 30
0.0
 40
10.49999983062744
 41
0.0
 71
     5
 72
     1
  1
約393
  7
EXCADDIM1
 11
0.0
 21
1.0
 31
0.0
  0
POINT
  5
606
330
5FD
100
AcDbEntity
  8
DEFPOINTS
 62
     0
100
AcDbPoint
 10
3264.156209098278
 20
1966.022697730138
 30
0.0
  0
POINT
  5
607
330
5FD
100
AcDbEntity
  8
DEFPOINTS
 62
     0
100
AcDbPoint
 10
3302.156209098277
 20
1572.522700648562
 30
0.0
  0
POINT
  5
608
330
5FD
100
AcDbEntity
  8
DEFPOINTS
 62
     0
100
AcDbPoint
 10
3432.156209098228
 20
1572.522700648562
 30
0.0
  0
ENDBLK
  5
5FF
330
5FD
100
AcDbEntity
  8
0
100
AcDbBlockEnd
  0
BLOCK
  5
60B
330
60A
100
AcDbEntity
  8
0
100
AcDbBlockBegin
  2
*D20
 70
     1
 10
0.0
 20
0.0
 30
0.0
  3
*D20
  1

  0
LINE
  5
60D
330
60A
100
AcDbEntity
  8
SIZE
  6
CONTINUOUS
 62
     1
100
AcDbLine
 10
3307.025181927403
 20
1679.522697730137
 30
0.0
 11
3345.906209098227
 21
1679.522697730137
 31
0.0
  0
LINE
  5
60E
330
60A
100
AcDbEntity
  8
SIZE
  6
CONTINUOUS
 62
     1
100
AcDbLine
 10
3304.031209098277
 20
1572.522700648562
 30
0.0
 11
3345.906209098227
 21
1572.522700648562
 31
0.0
  0
LINE
  5
60F
330
60A
100
AcDbEntity
  8
SIZE
  6
CONTINUOUS
 62
     1
100
AcDbLine
 10
3342.156209098227
 20
1672.022697730137
 30
0.0
 11
3342.156209098227
 21
1580.022700648562
 31
0.0
  0
INSERT
  5
610
330
60A
100
AcDbEntity
  8
SIZE
 62
     1
100
AcDbBlockReference
  2
EX_BNORM
 10
3342.156209098227
 20
1679.522697730137
 30
0.0
 41
7.5
 42
7.5
 43
7.5
 50
90.0
  0
INSERT
  5
611
330
60A
100
AcDbEntity
  8
SIZE
 62
     1
100
AcDbBlockReference
  2
EX_BNORM
 10
3342.156209098227
 20
1572.522700648562
 30
0.0
 41
7.5
 42
7.5
 43
7.5
 50
270.0
  0
MTEXT
  5
612
330
60A
100
AcDbEntity
  8
SIZE
 62
     1
100
AcDbMText
 10
3335.031209098227
 20
1626.02269918935
 30
0.0
 40
10.49999983062744
 41
0.0
 71
     5
 72
     1
  1
107
  7
EXCADDIM1
 11
0.0
 21
1.0
 31
0.0
  0
POINT
  5
613
330
60A
100
AcDbEntity
  8
DEFPOINTS
 62
     0
100
AcDbPoint
 10
3305.150181927403
 20
1679.522697730137
 30
0.0
  0
POINT
  5
614
330
60A
100
AcDbEntity
  8
DEFPOINTS
 62
     0
100
AcDbPoint
 10
3302.156209098277
 20
1572.522700648562
 30
0.0
  0
POINT
  5
615
330
60A
100
AcDbEntity
  8
DEFPOINTS
 62
     0
100
AcDbPoint
 10
3342.156209098227
 20
1572.522700648562
 30
0.0
  0
ENDBLK
  5
60C
330
60A
100
AcDbEntity
  8
0
100
AcDbBlockEnd
  0
BLOCK
  5
618
330
617
100
AcDbEntity
  8
0
100
AcDbBlockBegin
  2
*D21
 70
     1
 10
0.0
 20
0.0
 30
0.0
  3
*D21
  1

  0
LINE
  5
61A
330
617
100
AcDbEntity
  8
SIZE
  6
CONTINUOUS
 62
     1
100
AcDbLine
 10
3700.156209098228
 20
1585.647697730137
 30
0.0
 11
3700.156209098228
 21
1502.772700648558
 31
0.0
  0
LINE
  5
61B
330
617
100
AcDbEntity
  8
SIZE
  6
CONTINUOUS
 62
     1
100
AcDbLine
 10
3530.156209098227
 20
1585.647697730137
 30
0.0
 11
3530.156209098227
 21
1502.772700648558
 31
0.0
  0
LINE
  5
61C
330
617
100
AcDbEntity
  8
SIZE
  6
CONTINUOUS
 62
     1
100
AcDbLine
 10
3692.656209098228
 20
1506.522700648558
 30
0.0
 11
3537.656209098227
 21
1506.522700648558
 31
0.0
  0
INSERT
  5
61D
330
617
100
AcDbEntity
  8
SIZE
 62
     1
100
AcDbBlockReference
  2
EX_BNORM
 10
3700.156209098228
 20
1506.522700648558
 30
0.0
 41
7.5
 42
7.5
 43
7.5
  0
INSERT
  5
61E
330
617
100
AcDbEntity
  8
SIZE
 62
     1
100
AcDbBlockReference
  2
EX_BNORM
 10
3530.156209098227
 20
1506.522700648558
 30
0.0
 41
7.5
 42
7.5
 43
7.5
 50
180.0
  0
MTEXT
  5
61F
330
617
100
AcDbEntity
  8
SIZE
 62
     1
100
AcDbMText
 10
3615.156209098227
 20
1513.647700648558
 30
0.0
 40
10.49999983062744
 41
0.0
 71
     5
 72
     1
  1
170
  7
EXCADDIM1
  0
POINT
  5
620
330
617
100
AcDbEntity
  8
DEFPOINTS
 62
     0
100
AcDbPoint
 10
3700.156209098228
 20
1587.522697730137
 30
0.0
  0
POINT
  5
621
330
617
100
AcDbEntity
  8
DEFPOINTS
 62
     0
100
AcDbPoint
 10
3530.156209098227
 20
1587.522697730137
 30
0.0
  0
POINT
  5
622
330
617
100
AcDbEntity
  8
DEFPOINTS
 62
     0
100
AcDbPoint
 10
3530.156209098227
 20
1506.522700648558
 30
0.0
  0
ENDBLK
  5
619
330
617
100
AcDbEntity
  8
0
100
AcDbBlockEnd
  0
BLOCK
  5
625
330
624
100
AcDbEntity
  8
0
100
AcDbBlockBegin
  2
*D22
 70
     1
 10
0.0
 20
0.0
 30
0.0
  3
*D22
  1

  0
LINE
  5
627
330
624
100
AcDbEntity
  8
SIZE
  6
CONTINUOUS
 62
     1
100
AcDbLine
 10
3550.156209098227
 20
1570.647700648558
 30
0.0
 11
3550.156209098227
 21
1532.772700648558
 31
0.0
  0
LINE
  5
628
330
624
100
AcDbEntity
  8
SIZE
  6
CONTINUOUS
 62
     1
100
AcDbLine
 10
3680.156209098228
 20
1570.647700648557
 30
0.0
 11
3680.156209098228
 21
1532.772700648558
 31
0.0
  0
LINE
  5
629
330
624
100
AcDbEntity
  8
SIZE
  6
CONTINUOUS
 62
     1
100
AcDbLine
 10
3557.656209098227
 20
1536.522700648558
 30
0.0
 11
3672.656209098228
 21
1536.522700648558
 31
0.0
  0
INSERT
  5
62A
330
624
100
AcDbEntity
  8
SIZE
 62
     1
100
AcDbBlockReference
  2
EX_BNORM
 10
3550.156209098227
 20
1536.522700648558
 30
0.0
 41
7.5
 42
7.5
 43
7.5
 50
180.0
  0
INSERT
  5
62B
330
624
100
AcDbEntity
  8
SIZE
 62
     1
100
AcDbBlockReference
  2
EX_BNORM
 10
3680.156209098228
 20
1536.522700648558
 30
0.0
 41
7.5
 42
7.5
 43
7.5
  0
MTEXT
  5
62C
330
624
100
AcDbEntity
  8
SIZE
 62
     1
100
AcDbMText
 10
3615.156209098227
 20
1543.647700648558
 30
0.0
 40
10.49999983062744
 41
0.0
 71
     5
 72
     1
  1
130
  7
EXCADDIM1
  0
POINT
  5
62D
330
624
100
AcDbEntity
  8
DEFPOINTS
 62
     0
100
AcDbPoint
 10
3550.156209098227
 20
1572.522700648558
 30
0.0
  0
POINT
  5
62E
330
624
100
AcDbEntity
  8
DEFPOINTS
 62
     0
100
AcDbPoint
 10
3680.156209098228
 20
1572.522700648557
 30
0.0
  0
POINT
  5
62F
330
624
100
AcDbEntity
  8
DEFPOINTS
 62
     0
100
AcDbPoint
 10
3680.156209098228
 20
1536.522700648558
 30
0.0
  0
ENDBLK
  5
626
330
624
100
AcDbEntity
  8
0
100
AcDbBlockEnd
  0
ENDSEC
  0
SECTION
  2
ENTITIES
  0
LINE
  5
DA
330
1F
100
AcDbEntity
  8
BODY
  6
CONTINUOUS
 62
     7
100
AcDbLine
 10
3143.175084307874
 20
1574.522697730138
 30
0.0
 11
3127.131771819867
 21
1574.522697730138
 31
0.0
  0
LINE
  5
DB
330
1F
100
AcDbEntity
  8
BODY
  6
CONTINUOUS
 62
     7
100
AcDbLine
 10
3665.156209098228
 20
1774.422697730137
 30
0.0
 11
3665.156209098228
 21
1832.522697730138
 31
0.0
  0
LINE
  5
DC
330
1F
100
AcDbEntity
  8
BODY
  6
CONTINUOUS
 62
     7
100
AcDbLine
 10
3664.656209098227
 20
1722.522697730138
 30
0.0
 11
3665.156209098228
 21
1722.522697730138
 31
0.0
  0
LINE
  5
DD
330
1F
100
AcDbEntity
  8
BODY
  6
CONTINUOUS
 62
     7
100
AcDbLine
 10
3668.656209098227
 20
1734.522697730137
 30
0.0
 11
3671.167316097228
 21
1735.972486031938
 31
0.0
  0
ARC
  5
DE
330
1F
100
AcDbEntity
  8
BODY
  6
CONTINUOUS
 62
     7
100
AcDbCircle
 10
3666.742435258129
 20
1739.194600564438
 30
0.0
 40
4.719999999999997
100
AcDbArc
 50
229.2556620463111
 51
261.8135454425977
  0
ARC
  5
DF
330
1F
100
AcDbEntity
  8
BODY
  6
CONTINUOUS
 62
     7
100
AcDbCircle
 10
3666.656209098227
 20
1732.522697730138
 30
0.0
 40
2.0
100
AcDbArc
 50
90.0
 51
180.0
  0
LINE
  5
E0
330
1F
100
AcDbEntity
  8
BODY
  6
CONTINUOUS
 62
     7
100
AcDbLine
 10
3671.167316097228
 20
1735.972486031938
 30
0.0
 11
3671.167316097228
 21
1758.072909428438
 31
0.0
  0
LINE
  5
E1
330
1F
100
AcDbEntity
  8
BODY
  6
CONTINUOUS
 62
     7
100
AcDbLine
 10
3663.661762597728
 20
1735.618589384538
 30
0.0
 11
3663.661762597728
 21
1758.426806075837
 31
0.0
  0
LINE
  5
E2
330
1F
100
AcDbEntity
  8
BODY
  6
CONTINUOUS
 62
     7
100
AcDbLine
 10
3671.167316097228
 20
1758.072909428438
 30
0.0
 11
3668.656209098227
 21
1759.522697730137
 31
0.0
  0
ARC
  5
E3
330
1F
100
AcDbEntity
  8
BODY
  6
CONTINUOUS
 62
     7
100
AcDbCircle
 10
3666.742435258129
 20
1754.850794895838
 30
0.0
 40
4.719999999999997
100
AcDbArc
 50
98.18645455740213
 51
130.7443379536889
  0
LINE
  5
E4
330
1F
100
AcDbEntity
  8
BODY
  6
CONTINUOUS
 62
     7
100
AcDbLine
 10
3665.156209098228
 20
1761.422697730137
 30
0.0
 11
3665.156209098228
 21
1764.422697730138
 31
0.0
  0
LINE
  5
E5
330
1F
100
AcDbEntity
  8
BODY
  6
CONTINUOUS
 62
     7
100
AcDbLine
 10
3665.156209098228
 20
1761.422697730137
 30
0.0
 11
3665.156209098228
 21
1759.522697730137
 31
0.0
  0
LINE
  5
E6
330
1F
100
AcDbEntity
  8
BODY
  6
CONTINUOUS
 62
     7
100
AcDbLine
 10
3666.633709098227
 20
1759.522697730137
 30
0.0
 11
3666.633709098227
 21
1759.945197730138
 31
0.0
  0
LINE
  5
E7
330
1F
100
AcDbEntity
  8
BODY
  6
CONTINUOUS
 62
     7
100
AcDbLine
 10
3665.156209098228
 20
1761.422697730137
 30
0.0
 11
3666.633709098227
 21
1759.945197730138
 31
0.0
  0
ARC
  5
E8
330
1F
100
AcDbEntity
  8
BODY
  6
CONTINUOUS
 62
     7
100
AcDbCircle
 10
3665.443684450828
 20
1768.422697730138
 30
0.0
 40
4.0
100
AcDbArc
 50
228.5484248664037
 51
270.0
  0
LINE
  5
E9
330
1F
100
AcDbEntity
  8
BODY
  6
CONTINUOUS
 62
     7
100
AcDbLine
 10
3669.435265289628
 20
1765.762014127638
 30
0.0
 11
3667.115501241827
 21
1764.422697730138
 31
0.0
  0
LINE
  5
EA
330
1F
100
AcDbEntity
  8
BODY
  6
CONTINUOUS
 62
     7
100
AcDbLine
 10
3669.435265289628
 20
1773.083381332738
 30
0.0
 11
3669.435265289628
 21
1765.762014127638
 31
0.0
  0
LINE
  5
EB
330
1F
100
AcDbEntity
  8
BODY
  6
CONTINUOUS
 62
     7
100
AcDbLine
 10
3662.795737193928
 20
1773.420759658337
 30
0.0
 11
3662.795737193928
 21
1765.424635802038
 31
0.0
  0
ARC
  5
EC
330
1F
100
AcDbEntity
  8
BODY
  6
CONTINUOUS
 62
     7
100
AcDbCircle
 10
3665.443684450828
 20
1770.422697730137
 30
0.0
 40
4.0
100
AcDbArc
 50
90.0
 51
131.4515751335963
  0
LINE
  5
ED
330
1F
100
AcDbEntity
  8
BODY
  6
CONTINUOUS
 62
     7
100
AcDbLine
 10
3667.115501241827
 20
1774.422697730137
 30
0.0
 11
3669.435265289628
 21
1773.083381332738
 31
0.0
  0
LINE
  5
EE
330
1F
100
AcDbEntity
  8
BODY
  6
CONTINUOUS
 62
     7
100
AcDbLine
 10
3649.516681002629
 20
1773.420759658337
 30
0.0
 11
3649.516681002629
 21
1765.424635802038
 31
0.0
  0
LINE
  5
EF
330
1F
100
AcDbEntity
  8
BODY
  6
CONTINUOUS
 62
     7
100
AcDbLine
 10
3647.156209098227
 20
1761.422697730137
 30
0.0
 11
3645.678709098227
 21
1759.945197730138
 31
0.0
  0
LINE
  5
F0
330
1F
100
AcDbEntity
  8
BODY
  6
CONTINUOUS
 62
     7
100
AcDbLine
 10
3643.656209098227
 20
1759.522697730137
 30
0.0
 11
3641.145102099328
 21
1758.072909428438
 31
0.0
  0
LINE
  5
F1
330
1F
100
AcDbEntity
  8
BODY
  6
CONTINUOUS
 62
     7
100
AcDbLine
 10
3645.678709098227
 20
1759.522697730137
 30
0.0
 11
3645.678709098227
 21
1759.945197730138
 31
0.0
  0
LINE
  5
F2
330
1F
100
AcDbEntity
  8
BODY
  6
CONTINUOUS
 62
     7
100
AcDbLine
 10
3645.196916954728
 20
1764.422697730138
 30
0.0
 11
3642.877152906927
 21
1765.762014127638
 31
0.0
  0
LINE
  5
F3
330
1F
100
AcDbEntity
  8
BODY
  6
CONTINUOUS
 62
     7
100
AcDbLine
 10
3642.877152906927
 20
1765.762014127638
 30
0.0
 11
3642.877152906927
 21
1773.083381332738
 31
0.0
  0
LINE
  5
F4
330
1F
100
AcDbEntity
  8
BODY
  6
CONTINUOUS
 62
     7
100
AcDbLine
 10
3647.156209098227
 20
1761.422697730137
 30
0.0
 11
3647.156209098227
 21
1764.422697730138
 31
0.0
  0
LINE
  5
F5
330
1F
100
AcDbEntity
  8
BODY
  6
CONTINUOUS
 62
     7
100
AcDbLine
 10
3647.156209098227
 20
1761.422697730137
 30
0.0
 11
3647.156209098227
 21
1759.522697730137
 31
0.0
  0
ARC
  5
F6
330
1F
100
AcDbEntity
  8
BODY
  6
CONTINUOUS
 62
     7
100
AcDbCircle
 10
3645.569982938429
 20
1754.850794895838
 30
0.0
 40
4.719999999999997
100
AcDbArc
 50
49.25566204631113
 51
81.8135454425979
  0
ARC
  5
F7
330
1F
100
AcDbEntity
  8
BODY
  6
CONTINUOUS
 62
     7
100
AcDbCircle
 10
3646.868733745727
 20
1768.422697730138
 30
0.0
 40
4.0
100
AcDbArc
 50
270.0
 51
311.4515751335964
  0
LINE
  5
F8
330
1F
100
AcDbEntity
  8
BODY
  6
CONTINUOUS
 62
     7
100
AcDbLine
 10
3642.877152906927
 20
1773.083381332738
 30
0.0
 11
3645.196916954728
 21
1774.422697730137
 31
0.0
  0
ARC
  5
F9
330
1F
100
AcDbEntity
  8
BODY
  6
CONTINUOUS
 62
     7
100
AcDbCircle
 10
3646.868733745727
 20
1770.422697730137
 30
0.0
 40
4.0
100
AcDbArc
 50
48.54842486640365
 51
90.0
  0
LINE
  5
FA
330
1F
100
AcDbEntity
  8
BODY
  6
CONTINUOUS
 62
     7
100
AcDbLine
 10
3643.656209098227
 20
1759.522697730137
 30
0.0
 11
3668.656209098227
 21
1759.522697730137
 31
0.0
  0
LINE
  5
FB
330
1F
100
AcDbEntity
  8
BODY
  6
CONTINUOUS
 62
     7
100
AcDbLine
 10
3645.678709098227
 20
1759.945197730138
 30
0.0
 11
3666.633709098227
 21
1759.945197730138
 31
0.0
  0
LINE
  5
FC
330
1F
100
AcDbEntity
  8
BODY
  6
CONTINUOUS
 62
     7
100
AcDbLine
 10
3667.115501241827
 20
1764.422697730138
 30
0.0
 11
3645.196916954728
 21
1764.422697730138
 31
0.0
  0
LINE
  5
FD
330
1F
100
AcDbEntity
  8
BODY
  6
CONTINUOUS
 62
     7
100
AcDbLine
 10
3667.115501241827
 20
1774.422697730137
 30
0.0
 11
3645.196916954728
 21
1774.422697730137
 31
0.0
  0
ARC
  5
FE
330
1F
100
AcDbEntity
  8
BODY
  6
CONTINUOUS
 62
     7
100
AcDbCircle
 10
3656.156209098227
 20
1751.922697730138
 30
0.0
 40
22.5
100
AcDbArc
 50
72.83705750710398
 51
107.162942492896
  0
ARC
  5
FF
330
1F
100
AcDbEntity
  8
BODY
  6
CONTINUOUS
 62
     7
100
AcDbCircle
 10
3656.156209098227
 20
1733.272697730138
 30
0.0
 40
26.25
100
AcDbArc
 50
73.38580111128256
 51
106.6141988887174
  0
LINE
  5
100
330
1F
100
AcDbEntity
  8
BODY
  6
CONTINUOUS
 62
     7
100
AcDbLine
 10
3665.156209098228
 20
1761.422697730137
 30
0.0
 11
3647.156209098227
 21
1761.422697730137
 31
0.0
  0
ARC
  5
101
330
1F
100
AcDbEntity
  8
BODY
  6
CONTINUOUS
 62
     7
100
AcDbCircle
 10
3656.156209098227
 20
1786.922697730137
 30
0.0
 40
22.5
100
AcDbArc
 50
252.837057507104
 51
287.162942492896
  0
ARC
  5
102
330
1F
100
AcDbEntity
  8
BODY
  6
CONTINUOUS
 62
     7
100
AcDbCircle
 10
3645.569982938429
 20
1739.194600564438
 30
0.0
 40
4.719999999999997
100
AcDbArc
 50
278.1864545574022
 51
310.7443379536889
  0
ARC
  5
103
330
1F
100
AcDbEntity
  8
BODY
  6
CONTINUOUS
 62
     7
100
AcDbCircle
 10
3645.656209098227
 20
1732.522697730138
 30
0.0
 40
2.0
100
AcDbArc
 50
0.0
 51
90.0
  0
LINE
  5
104
330
1F
100
AcDbEntity
  8
BODY
  6
CONTINUOUS
 62
     7
100
AcDbLine
 10
3668.656209098227
 20
1734.522697730137
 30
0.0
 11
3644.656209098227
 21
1734.522697730137
 31
0.0
  0
ARC
  5
105
330
1F
100
AcDbEntity
  8
BODY
  6
CONTINUOUS
 62
     7
100
AcDbCircle
 10
3656.156209098227
 20
1760.772697730138
 30
0.0
 40
26.25
100
AcDbArc
 50
253.3858011112826
 51
286.6141988887175
  0
LINE
  5
106
330
1F
100
AcDbEntity
  8
BODY
  6
CONTINUOUS
 62
     7
100
AcDbLine
 10
3641.145102099328
 20
1753.522697730138
 30
0.0
 11
3641.145102099328
 21
1758.072909428438
 31
0.0
  0
LINE
  5
107
330
1F
100
AcDbEntity
  8
BODY
  6
CONTINUOUS
 62
     7
100
AcDbLine
 10
3648.650655598827
 20
1735.618589384538
 30
0.0
 11
3648.650655598827
 21
1758.426806075837
 31
0.0
  0
LINE
  5
108
330
1F
100
AcDbEntity
  8
BODY
  6
CONTINUOUS
 62
     7
100
AcDbLine
 10
3663.807780421929
 20
1691.522697730137
 30
0.0
 11
3664.663780421927
 21
1693.005333221438
 31
0.0
  0
LINE
  5
109
330
1F
100
AcDbEntity
  8
BODY
  6
CONTINUOUS
 62
     7
100
AcDbLine
 10
3663.682774175128
 20
1687.522697730138
 30
0.0
 11
3663.807780421929
 21
1691.522697730137
 31
0.0
  0
LINE
  5
10A
330
1F
100
AcDbEntity
  8
BODY
  6
CONTINUOUS
 62
     7
100
AcDbLine
 10
3664.538774175129
 20
1687.522697730138
 30
0.0
 11
3664.656209098228
 21
1691.280427479048
 31
0.0
  0
LINE
  5
10B
330
1F
100
AcDbEntity
  8
BODY
  6
CONTINUOUS
 62
     7
100
AcDbLine
 10
3664.656209098228
 20
1732.522697730138
 30
0.0
 11
3664.656209098228
 21
1691.280427479048
 31
0.0
  0
LINE
  5
10C
330
1F
100
AcDbEntity
  8
BODY
  6
CONTINUOUS
 62
     7
100
AcDbLine
 10
3648.504637774628
 20
1691.522697730137
 30
0.0
 11
3647.648637774628
 21
1693.005333221438
 31
0.0
  0
LINE
  5
10D
330
1F
100
AcDbEntity
  8
BODY
  6
CONTINUOUS
 62
     7
100
AcDbLine
 10
3647.656209098228
 20
1691.522697730137
 30
0.0
 11
3664.656209098228
 21
1691.522697730137
 31
0.0
  0
LINE
  5
10E
330
1F
100
AcDbEntity
  8
BODY
  6
CONTINUOUS
 62
     7
100
AcDbLine
 10
3648.629644021428
 20
1687.522697730138
 30
0.0
 11
3648.504637774628
 21
1691.522697730137
 31
0.0
  0
LINE
  5
10F
330
1F
100
AcDbEntity
  8
BODY
  6
CONTINUOUS
 62
     7
100
AcDbLine
 10
3647.773644021427
 20
1687.522697730138
 30
0.0
 11
3647.656209098228
 21
1691.280427482247
 31
0.0
  0
LINE
  5
110
330
1F
100
AcDbEntity
  8
BODY
  6
CONTINUOUS
 62
     7
100
AcDbLine
 10
3647.656209098228
 20
1732.522697730138
 30
0.0
 11
3647.656209098228
 21
1691.280427482247
 31
0.0
  0
LINE
  5
111
330
1F
100
AcDbEntity
  8
BODY
  6
CONTINUOUS
 62
     7
100
AcDbLine
 10
3581.745277299027
 20
1687.522697693937
 30
0.0
 11
3581.854657764228
 21
1691.022697675138
 31
0.0
  0
LINE
  5
112
330
1F
100
AcDbEntity
  8
BODY
  6
CONTINUOUS
 62
     7
100
AcDbLine
 10
3565.601760432227
 20
1691.022697675138
 30
0.0
 11
3582.710657764228
 21
1691.022697675138
 31
0.0
  0
LINE
  5
113
330
1F
100
AcDbEntity
  8
BODY
  6
CONTINUOUS
 62
     7
100
AcDbLine
 10
3565.552774165229
 20
1692.590179868138
 30
0.0
 11
3566.457760432228
 21
1691.022697675138
 31
0.0
  0
LINE
  5
114
330
1F
100
AcDbEntity
  8
BODY
  6
CONTINUOUS
 62
     7
100
AcDbLine
 10
3565.524084370527
 20
1693.508207421437
 30
0.0
 11
3565.509594020529
 21
1693.522697771538
 31
0.0
  0
LINE
  5
115
330
1F
100
AcDbEntity
  8
BODY
  6
CONTINUOUS
 62
     7
100
AcDbLine
 10
3565.523631524528
 20
1693.522697771438
 30
0.0
 11
3565.711140894928
 21
1687.522697770537
 31
0.0
  0
LINE
  5
116
330
1F
100
AcDbEntity
  8
BODY
  6
CONTINUOUS
 62
     7
100
AcDbLine
 10
3566.457760432228
 20
1691.022697675138
 30
0.0
 11
3566.567140895328
 21
1687.522697766438
 31
0.0
  0
ARC
  5
117
330
1F
100
AcDbEntity
  8
BODY
  6
CONTINUOUS
 62
     7
100
AcDbCircle
 10
3568.406209067229
 20
1710.130736150138
 30
0.0
 40
16.608038393
100
AcDbArc
 50
249.7438417249955
 51
290.2561577259951
  0
LINE
  5
118
330
1F
100
AcDbEntity
  8
BODY
  6
CONTINUOUS
 62
     7
100
AcDbLine
 10
3585.656209098228
 20
1703.522697619138
 30
0.0
 11
3585.656208988228
 21
1693.522697675138
 31
0.0
  0
LINE
  5
119
330
1F
100
AcDbEntity
  8
BODY
  6
CONTINUOUS
 62
     7
100
AcDbLine
 10
3581.854657764228
 20
1691.022697675138
 30
0.0
 11
3582.759644031229
 21
1692.590179868138
 31
0.0
  0
ARC
  5
11A
330
1F
100
AcDbEntity
  8
BODY
  6
CONTINUOUS
 62
     7
100
AcDbCircle
 10
3579.906209067229
 20
1710.130736095138
 30
0.0
 40
16.608038393
100
AcDbArc
 50
249.7438417249955
 51
290.2561577259951
  0
LINE
  5
11B
330
1F
100
AcDbEntity
  8
BODY
  6
CONTINUOUS
 62
     7
100
AcDbLine
 10
3582.601277299028
 20
1687.522697689837
 30
0.0
 11
3582.788786669429
 21
1693.522697688938
 31
0.0
  0
LINE
  5
11C
330
1F
100
AcDbEntity
  8
BODY
  6
CONTINUOUS
 62
     7
100
AcDbLine
 10
3585.656208988228
 20
1693.522697675138
 30
0.0
 11
3562.656208988228
 21
1693.522697785137
 31
0.0
  0
LINE
  5
11D
330
1F
100
AcDbEntity
  8
BODY
  6
CONTINUOUS
 62
     7
100
AcDbLine
 10
3585.156209098228
 20
1708.522697675137
 30
0.0
 11
3585.156209098228
 21
1704.522697675137
 31
0.0
  0
LINE
  5
11E
330
1F
100
AcDbEntity
  8
BODY
  6
CONTINUOUS
 62
     7
100
AcDbLine
 10
3582.156209098228
 20
1704.522697675137
 30
0.0
 11
3582.156209098228
 21
1703.522697675138
 31
0.0
  0
ARC
  5
11F
330
1F
100
AcDbEntity
  8
BODY
  6
CONTINUOUS
 62
     7
100
AcDbCircle
 10
3579.906209018228
 20
1686.914659254138
 30
0.0
 40
16.608038393
100
AcDbArc
 50
69.74384172499543
 51
110.2561577259951
  0
LINE
  5
120
330
1F
100
AcDbEntity
  8
BODY
  6
CONTINUOUS
 62
     7
100
AcDbLine
 10
3566.156209098228
 20
1704.522697675137
 30
0.0
 11
3566.156209098228
 21
1703.522697675138
 31
0.0
  0
LINE
  5
121
330
1F
100
AcDbEntity
  8
BODY
  6
CONTINUOUS
 62
     7
100
AcDbLine
 10
3562.656208988228
 20
1693.522697785137
 30
0.0
 11
3562.656209098228
 21
1703.522697730138
 31
0.0
  0
ARC
  5
122
330
1F
100
AcDbEntity
  8
BODY
  6
CONTINUOUS
 62
     7
100
AcDbCircle
 10
3568.406209018229
 20
1686.914659309138
 30
0.0
 40
16.608038393
100
AcDbArc
 50
69.74384172499543
 51
110.2561577259951
  0
LINE
  5
123
330
1F
100
AcDbEntity
  8
BODY
  6
CONTINUOUS
 62
     7
100
AcDbLine
 10
3563.156209098228
 20
1704.522697675137
 30
0.0
 11
3585.156209098228
 21
1704.522697675137
 31
0.0
  0
LINE
  5
124
330
1F
100
AcDbEntity
  8
BODY
  6
CONTINUOUS
 62
     7
100
AcDbLine
 10
3562.656209098228
 20
1703.522697730138
 30
0.0
 11
3585.656209098228
 21
1703.522697619138
 31
0.0
  0
LINE
  5
125
330
1F
100
AcDbEntity
  8
BODY
  6
CONTINUOUS
 62
     7
100
AcDbLine
 10
3559.156209098228
 20
1709.522697675138
 30
0.0
 11
3560.156209098227
 21
1708.522697675137
 31
0.0
  0
LINE
  5
126
330
1F
100
AcDbEntity
  8
BODY
  6
CONTINUOUS
 62
     7
100
AcDbLine
 10
3563.156209098228
 20
1708.522697675137
 30
0.0
 11
3563.156209098228
 21
1704.522697675137
 31
0.0
  0
LINE
  5
127
330
1F
100
AcDbEntity
  8
BODY
  6
CONTINUOUS
 62
     7
100
AcDbLine
 10
3560.156209098227
 20
1708.522697675137
 30
0.0
 11
3585.656209098228
 21
1708.522697675137
 31
0.0
  0
LINE
  5
128
330
1F
100
AcDbEntity
  8
BODY
  6
CONTINUOUS
 62
     7
100
AcDbLine
 10
3559.156209098228
 20
1709.522697675138
 30
0.0
 11
3585.656209098228
 21
1709.522697675138
 31
0.0
  0
LINE
  5
129
330
1F
100
AcDbEntity
  8
BODY
  6
CONTINUOUS
 62
     7
100
AcDbLine
 10
3557.156209098228
 20
1725.522697675137
 30
0.0
 11
3557.156209098228
 21
1728.522697675138
 31
0.0
  0
LINE
  5
12A
330
1F
100
AcDbEntity
  8
BODY
  6
CONTINUOUS
 62
     7
100
AcDbLine
 10
3555.656209098228
 20
1732.522697675138
 30
0.0
 11
3556.656209098228
 21
1728.522697675138
 31
0.0
  0
LINE
  5
12B
330
1F
100
AcDbEntity
  8
BODY
  6
CONTINUOUS
 62
     7
100
AcDbLine
 10
3556.656209098228
 20
1725.522697675137
 30
0.0
 11
3585.656209098228
 21
1725.522697675137
 31
0.0
  0
LINE
  5
12C
330
1F
100
AcDbEntity
  8
BODY
  6
CONTINUOUS
 62
     7
100
AcDbLine
 10
3556.656209098228
 20
1728.522697675138
 30
0.0
 11
3585.656209098228
 21
1728.522697675138
 31
0.0
  0
LINE
  5
12D
330
1F
100
AcDbEntity
  8
BODY
  6
CONTINUOUS
 62
     7
100
AcDbLine
 10
3559.156209098228
 20
1717.522697675137
 30
0.0
 11
3559.156209098228
 21
1709.522697675138
 31
0.0
  0
LINE
  5
12E
330
1F
100
AcDbEntity
  8
BODY
  6
CONTINUOUS
 62
     7
100
AcDbLine
 10
3585.656209098228
 20
1717.522697675137
 30
0.0
 11
3556.656209098228
 21
1717.522697675137
 31
0.0
  0
LINE
  5
12F
330
1F
100
AcDbEntity
  8
BODY
  6
CONTINUOUS
 62
     7
100
AcDbLine
 10
3556.656209098228
 20
1717.522697675137
 30
0.0
 11
3556.656209098228
 21
1725.522697675137
 31
0.0
  0
LINE
  5
130
330
1F
100
AcDbEntity
  8
BODY
  6
CONTINUOUS
 62
     7
100
AcDbLine
 10
3570.156209098228
 20
1777.522697675138
 30
0.0
 11
3578.156209098228
 21
1777.522697675138
 31
0.0
  0
LINE
  5
131
330
1F
100
AcDbEntity
  8
BODY
  6
CONTINUOUS
 62
     7
100
AcDbLine
 10
3577.156209098228
 20
1777.522697675138
 30
0.0
 11
3577.156209098228
 21
1790.277452710737
 31
0.0
  0
LINE
  5
132
330
1F
100
AcDbEntity
  8
BODY
  6
CONTINUOUS
 62
     7
100
AcDbLine
 10
3571.156209098228
 20
1777.522697675138
 30
0.0
 11
3571.156209098228
 21
1789.752520729537
 31
0.0
  0
ARC
  5
133
330
1F
100
AcDbEntity
  8
BODY
  6
CONTINUOUS
 62
     7
100
AcDbCircle
 10
3591.656209098228
 20
1760.522697675138
 30
0.0
 40
1.0
100
AcDbArc
 50
0.0
 51
90.0
  0
LINE
  5
134
330
1F
100
AcDbEntity
  8
BODY
  6
CONTINUOUS
 62
     7
100
AcDbLine
 10
3590.656209098227
 20
1761.522697675138
 30
0.0
 11
3590.656209098227
 21
1762.522697675137
 31
0.0
  0
LINE
  5
135
330
1F
100
AcDbEntity
  8
BODY
  6
CONTINUOUS
 62
     7
100
AcDbLine
 10
3592.156209098227
 20
1762.522697675137
 30
0.0
 11
3592.156209098227
 21
1764.522697675138
 31
0.0
  0
ARC
  5
136
330
1F
100
AcDbEntity
  8
BODY
  6
CONTINUOUS
 62
     7
100
AcDbCircle
 10
3588.156209098228
 20
1770.522697675138
 30
0.0
 40
1.0
100
AcDbArc
 50
0.0
 51
90.0
  0
LINE
  5
137
330
1F
100
AcDbEntity
  8
BODY
  6
CONTINUOUS
 62
     7
100
AcDbLine
 10
3589.156209098228
 20
1770.522697675138
 30
0.0
 11
3589.156209098228
 21
1766.522697675138
 31
0.0
  0
LINE
  5
138
330
1F
100
AcDbEntity
  8
BODY
  6
CONTINUOUS
 62
     7
100
AcDbLine
 10
3592.156209098227
 20
1764.522697675138
 30
0.0
 11
3589.156209098228
 21
1766.522697675138
 31
0.0
  0
LINE
  5
139
330
1F
100
AcDbEntity
  8
BODY
  6
CONTINUOUS
 62
     7
100
AcDbLine
 10
3581.606209098229
 20
1771.522697675138
 30
0.0
 11
3579.606209098229
 21
1773.522697675138
 31
0.0
  0
LINE
  5
13A
330
1F
100
AcDbEntity
  8
BODY
  6
CONTINUOUS
 62
     7
100
AcDbLine
 10
3570.156209098228
 20
1773.522697675138
 30
0.0
 11
3570.156209098228
 21
1777.522697675138
 31
0.0
  0
LINE
  5
13B
330
1F
100
AcDbEntity
  8
BODY
  6
CONTINUOUS
 62
     7
100
AcDbLine
 10
3578.156209098228
 20
1777.522697675138
 30
0.0
 11
3578.156209098228
 21
1773.522697675138
 31
0.0
  0
LINE
  5
13C
330
1F
100
AcDbEntity
  8
BODY
  6
CONTINUOUS
 62
     7
100
AcDbLine
 10
3586.515818212228
 20
1747.522697730138
 30
0.0
 11
3586.515818212228
 21
1752.522697675138
 31
0.0
  0
LINE
  5
13D
330
1F
100
AcDbEntity
  8
BODY
  6
CONTINUOUS
 62
     7
100
AcDbLine
 10
3583.515818212229
 20
1739.522697675138
 30
0.0
 11
3583.515818212229
 21
1752.522697675138
 31
0.0
  0
LINE
  5
13E
330
1F
100
AcDbEntity
  8
BODY
  6
CONTINUOUS
 62
     7
100
AcDbLine
 10
3580.515818212229
 20
1739.522697675138
 30
0.0
 11
3580.515818212229
 21
1752.522697675138
 31
0.0
  0
LINE
  5
13F
330
1F
100
AcDbEntity
  8
BODY
  6
CONTINUOUS
 62
     7
100
AcDbLine
 10
3577.515818212229
 20
1739.522697675138
 30
0.0
 11
3577.515818212229
 21
1752.522697675138
 31
0.0
  0
LINE
  5
140
330
1F
100
AcDbEntity
  8
BODY
  6
CONTINUOUS
 62
     7
100
AcDbLine
 10
3574.515818212228
 20
1739.522697675138
 30
0.0
 11
3574.515818212228
 21
1752.522697675138
 31
0.0
  0
LINE
  5
141
330
1F
100
AcDbEntity
  8
BODY
  6
CONTINUOUS
 62
     7
100
AcDbLine
 10
3571.515818212228
 20
1739.522697675138
 30
0.0
 11
3571.515818212228
 21
1752.522697675138
 31
0.0
  0
LINE
  5
142
330
1F
100
AcDbEntity
  8
BODY
  6
CONTINUOUS
 62
     7
100
AcDbLine
 10
3592.656209098227
 20
1760.522697675138
 30
0.0
 11
3592.656209098227
 21
1753.522697675138
 31
0.0
  0
LINE
  5
143
330
1F
100
AcDbEntity
  8
BODY
  6
CONTINUOUS
 62
     7
100
AcDbLine
 10
3559.156209098228
 20
1766.522697675138
 30
0.0
 11
3556.156209098228
 21
1764.522697675138
 31
0.0
  0
ARC
  5
144
330
1F
100
AcDbEntity
  8
BODY
  6
CONTINUOUS
 62
     7
100
AcDbCircle
 10
3556.656209098228
 20
1760.522697675138
 30
0.0
 40
1.0
100
AcDbArc
 50
90.0
 51
180.0
  0
LINE
  5
145
330
1F
100
AcDbEntity
  8
BODY
  6
CONTINUOUS
 62
     7
100
AcDbLine
 10
3557.656209098228
 20
1762.522697675137
 30
0.0
 11
3557.656209098228
 21
1761.522697675138
 31
0.0
  0
LINE
  5
146
330
1F
100
AcDbEntity
  8
BODY
  6
CONTINUOUS
 62
     7
100
AcDbLine
 10
3556.156209098228
 20
1764.522697675138
 30
0.0
 11
3556.156209098228
 21
1762.522697675137
 31
0.0
  0
ARC
  5
147
330
1F
100
AcDbEntity
  8
BODY
  6
CONTINUOUS
 62
     7
100
AcDbCircle
 10
3560.156209098227
 20
1770.522697675138
 30
0.0
 40
1.0
100
AcDbArc
 50
90.0
 51
180.0
  0
LINE
  5
148
330
1F
100
AcDbEntity
  8
BODY
  6
CONTINUOUS
 62
     7
100
AcDbLine
 10
3568.656209098228
 20
1773.522697675138
 30
0.0
 11
3566.656209098229
 21
1771.522697675138
 31
0.0
  0
LINE
  5
149
330
1F
100
AcDbEntity
  8
BODY
  6
CONTINUOUS
 62
     7
100
AcDbLine
 10
3559.156209098228
 20
1766.522697675138
 30
0.0
 11
3559.156209098228
 21
1770.522697675138
 31
0.0
  0
LINE
  5
14A
330
1F
100
AcDbEntity
  8
BODY
  6
CONTINUOUS
 62
     7
100
AcDbLine
 10
3554.906209098228
 20
1752.522697675138
 30
0.0
 11
3555.656209098228
 21
1753.522697675138
 31
0.0
  0
LINE
  5
14B
330
1F
100
AcDbEntity
  8
BODY
  6
CONTINUOUS
 62
     7
100
AcDbLine
 10
3555.656209098228
 20
1738.522697675138
 30
0.0
 11
3555.656209098228
 21
1732.522697675138
 31
0.0
  0
LINE
  5
14C
330
1F
100
AcDbEntity
  8
BODY
  6
CONTINUOUS
 62
     7
100
AcDbLine
 10
3555.656209098228
 20
1738.522697675138
 30
0.0
 11
3554.906209098228
 21
1739.522697675138
 31
0.0
  0
LINE
  5
14D
330
1F
100
AcDbEntity
  8
BODY
  6
CONTINUOUS
 62
     7
100
AcDbLine
 10
3554.906209098228
 20
1752.522697675138
 30
0.0
 11
3554.906209098228
 21
1739.522697675138
 31
0.0
  0
LINE
  5
14E
330
1F
100
AcDbEntity
  8
BODY
  6
CONTINUOUS
 62
     7
100
AcDbLine
 10
3568.515818212228
 20
1739.522697675138
 30
0.0
 11
3568.515818212228
 21
1752.522697675138
 31
0.0
  0
LINE
  5
14F
330
1F
100
AcDbEntity
  8
BODY
  6
CONTINUOUS
 62
     7
100
AcDbLine
 10
3565.515818212229
 20
1739.522697675138
 30
0.0
 11
3565.515818212229
 21
1752.522697675138
 31
0.0
  0
LINE
  5
150
330
1F
100
AcDbEntity
  8
BODY
  6
CONTINUOUS
 62
     7
100
AcDbLine
 10
3562.515818212228
 20
1739.522697675138
 30
0.0
 11
3562.515818212228
 21
1752.522697675138
 31
0.0
  0
LINE
  5
151
330
1F
100
AcDbEntity
  8
BODY
  6
CONTINUOUS
 62
     7
100
AcDbLine
 10
3559.515818212228
 20
1739.522697675138
 30
0.0
 11
3559.515818212228
 21
1752.522697675138
 31
0.0
  0
LINE
  5
152
330
1F
100
AcDbEntity
  8
BODY
  6
CONTINUOUS
 62
     7
100
AcDbLine
 10
3556.515818212228
 20
1739.522697675138
 30
0.0
 11
3556.515818212228
 21
1752.522697675138
 31
0.0
  0
LINE
  5
153
330
1F
100
AcDbEntity
  8
BODY
  6
CONTINUOUS
 62
     7
100
AcDbLine
 10
3555.656209098228
 20
1753.522697675138
 30
0.0
 11
3555.656209098228
 21
1760.522697675138
 31
0.0
  0
LINE
  5
154
330
1F
100
AcDbEntity
  8
BODY
  6
CONTINUOUS
 62
     7
100
AcDbLine
 10
3554.906209098228
 20
1739.522697675138
 30
0.0
 11
3585.656209098228
 21
1739.522697675138
 31
0.0
  0
LINE
  5
155
330
1F
100
AcDbEntity
  8
BODY
  6
CONTINUOUS
 62
     7
100
AcDbLine
 10
3585.656209098228
 20
1738.522697675138
 30
0.0
 11
3555.656209098228
 21
1738.522697675138
 31
0.0
  0
LINE
  5
156
330
1F
100
AcDbEntity
  8
BODY
  6
CONTINUOUS
 62
     7
100
AcDbLine
 10
3587.156209098228
 20
1752.522697675138
 30
0.0
 11
3554.906209098228
 21
1752.522697675138
 31
0.0
  0
LINE
  5
157
330
1F
100
AcDbEntity
  8
BODY
  6
CONTINUOUS
 62
     7
100
AcDbLine
 10
3555.656209098228
 20
1753.522697675138
 30
0.0
 11
3592.656209098227
 21
1753.522697675138
 31
0.0
  0
LINE
  5
158
330
1F
100
AcDbEntity
  8
BODY
  6
CONTINUOUS
 62
     7
100
AcDbLine
 10
3556.656209098228
 20
1761.522697675138
 30
0.0
 11
3591.656209098228
 21
1761.522697675138
 31
0.0
  0
LINE
  5
159
330
1F
100
AcDbEntity
  8
BODY
  6
CONTINUOUS
 62
     7
100
AcDbLine
 10
3556.156209098228
 20
1764.522697675138
 30
0.0
 11
3592.156209098227
 21
1764.522697675138
 31
0.0
  0
LINE
  5
15A
330
1F
100
AcDbEntity
  8
BODY
  6
CONTINUOUS
 62
     7
100
AcDbLine
 10
3589.156209098228
 20
1766.522697675138
 30
0.0
 11
3559.156209098228
 21
1766.522697675138
 31
0.0
  0
LINE
  5
15B
330
1F
100
AcDbEntity
  8
BODY
  6
CONTINUOUS
 62
     7
100
AcDbLine
 10
3556.156209098228
 20
1762.522697675137
 30
0.0
 11
3592.156209098227
 21
1762.522697675137
 31
0.0
  0
LINE
  5
15C
330
1F
100
AcDbEntity
  8
BODY
  6
CONTINUOUS
 62
     7
100
AcDbLine
 10
3560.156209098227
 20
1771.522697675138
 30
0.0
 11
3588.156209098228
 21
1771.522697675138
 31
0.0
  0
LINE
  5
15D
330
1F
100
AcDbEntity
  8
BODY
  6
CONTINUOUS
 62
     7
100
AcDbLine
 10
3579.606209098229
 20
1773.522697675138
 30
0.0
 11
3568.656209098228
 21
1773.522697675138
 31
0.0
  0
LINE
  5
15E
330
1F
100
AcDbEntity
  8
BODY
  6
CONTINUOUS
 62
     7
100
AcDbLine
 10
3569.414908163429
 20
1789.600176637938
 30
0.0
 11
3579.024346732828
 21
1790.440893575638
 31
0.0
  0
LINE
  5
15F
330
1F
100
AcDbEntity
  8
BODY
  6
CONTINUOUS
 62
     7
100
AcDbLine
 10
3555.656209098228
 20
1732.522697675138
 30
0.0
 11
3585.656209098228
 21
1732.522697675138
 31
0.0
  0
LINE
  5
160
330
1F
100
AcDbEntity
  8
BODY
  6
CONTINUOUS
 62
     7
100
AcDbLine
 10
3241.856209098277
 20
1688.022697730138
 30
0.0
 11
3235.156209098277
 21
1688.022697730138
 31
0.0
  0
LINE
  5
161
330
1F
100
AcDbEntity
  8
BODY
  6
CONTINUOUS
 62
     7
100
AcDbLine
 10
3236.156209098327
 20
1764.522697730137
 30
0.0
 11
3272.156209098327
 21
1764.522697730137
 31
0.0
  0
LINE
  5
162
330
1F
100
AcDbEntity
  8
BODY
  6
CONTINUOUS
 62
     7
100
AcDbLine
 10
3240.156209098329
 20
1771.522697730137
 30
0.0
 11
3268.156209098327
 21
1771.522697730137
 31
0.0
  0
LINE
  5
163
330
1F
100
AcDbEntity
  8
BODY
  6
CONTINUOUS
 62
     7
100
AcDbLine
 10
3269.156209098327
 20
1766.522697730137
 30
0.0
 11
3239.156209098327
 21
1766.522697730137
 31
0.0
  0
LINE
  5
164
330
1F
100
AcDbEntity
  8
BODY
  6
CONTINUOUS
 62
     7
100
AcDbLine
 10
3236.156209098327
 20
1762.522697730138
 30
0.0
 11
3272.156209098327
 21
1762.522697730138
 31
0.0
  0
LINE
  5
165
330
1F
100
AcDbEntity
  8
BODY
  6
CONTINUOUS
 62
     7
100
AcDbLine
 10
3236.656209098327
 20
1761.522697730137
 30
0.0
 11
3271.656209098328
 21
1761.522697730137
 31
0.0
  0
LINE
  5
166
330
1F
100
AcDbEntity
  8
BODY
  6
CONTINUOUS
 62
     7
100
AcDbLine
 10
3235.656209098328
 20
1753.522697730138
 30
0.0
 11
3235.656209098328
 21
1760.522697730137
 31
0.0
  0
LINE
  5
167
330
1F
100
AcDbEntity
  8
BODY
  6
CONTINUOUS
 62
     7
100
AcDbLine
 10
3239.156209098327
 20
1766.522697730137
 30
0.0
 11
3239.156209098327
 21
1770.522697730137
 31
0.0
  0
LINE
  5
168
330
1F
100
AcDbEntity
  8
BODY
  6
CONTINUOUS
 62
     7
100
AcDbLine
 10
3239.156209098327
 20
1766.522697730137
 30
0.0
 11
3236.156209098327
 21
1764.522697730137
 31
0.0
  0
ARC
  5
169
330
1F
100
AcDbEntity
  8
BODY
  6
CONTINUOUS
 62
     7
100
AcDbCircle
 10
3240.156209098329
 20
1770.522697730137
 30
0.0
 40
1.0
100
AcDbArc
 50
90.0
 51
180.0
  0
LINE
  5
16A
330
1F
100
AcDbEntity
  8
BODY
  6
CONTINUOUS
 62
     7
100
AcDbLine
 10
3237.656209098327
 20
1762.522697730138
 30
0.0
 11
3237.656209098327
 21
1761.522697730137
 31
0.0
  0
ARC
  5
16B
330
1F
100
AcDbEntity
  8
BODY
  6
CONTINUOUS
 62
     7
100
AcDbCircle
 10
3236.656209098327
 20
1760.522697730137
 30
0.0
 40
1.0
100
AcDbArc
 50
90.0
 51
180.0
  0
LINE
  5
16C
330
1F
100
AcDbEntity
  8
BODY
  6
CONTINUOUS
 62
     7
100
AcDbLine
 10
3236.156209098327
 20
1764.522697730137
 30
0.0
 11
3236.156209098327
 21
1762.522697730138
 31
0.0
  0
LINE
  5
16D
330
1F
100
AcDbEntity
  8
BODY
  6
CONTINUOUS
 62
     7
100
AcDbLine
 10
3251.156209098327
 20
1777.522697730137
 30
0.0
 11
3251.156209098327
 21
1791.484361730137
 31
0.0
  0
LINE
  5
16E
330
1F
100
AcDbEntity
  8
BODY
  6
CONTINUOUS
 62
     7
100
AcDbLine
 10
3257.156209098327
 20
1777.522697730137
 30
0.0
 11
3257.156209098327
 21
1792.009293730137
 31
0.0
  0
LINE
  5
16F
330
1F
100
AcDbEntity
  8
BODY
  6
CONTINUOUS
 62
     7
100
AcDbLine
 10
3258.156209098327
 20
1777.522697730137
 30
0.0
 11
3258.156209098327
 21
1773.522697730137
 31
0.0
  0
LINE
  5
170
330
1F
100
AcDbEntity
  8
BODY
  6
CONTINUOUS
 62
     7
100
AcDbLine
 10
3250.156209098327
 20
1773.522697730137
 30
0.0
 11
3250.156209098327
 21
1777.522697730137
 31
0.0
  0
LINE
  5
171
330
1F
100
AcDbEntity
  8
BODY
  6
CONTINUOUS
 62
     7
100
AcDbLine
 10
3259.606209098327
 20
1773.522697730137
 30
0.0
 11
3248.656209098327
 21
1773.522697730137
 31
0.0
  0
LINE
  5
172
330
1F
100
AcDbEntity
  8
BODY
  6
CONTINUOUS
 62
     7
100
AcDbLine
 10
3261.606209098327
 20
1771.522697730137
 30
0.0
 11
3259.606209098327
 21
1773.522697730137
 31
0.0
  0
LINE
  5
173
330
1F
100
AcDbEntity
  8
BODY
  6
CONTINUOUS
 62
     7
100
AcDbLine
 10
3250.156209098327
 20
1777.522697730137
 30
0.0
 11
3258.156209098327
 21
1777.522697730137
 31
0.0
  0
LINE
  5
174
330
1F
100
AcDbEntity
  8
BODY
  6
CONTINUOUS
 62
     7
100
AcDbLine
 10
3246.735983098327
 20
1791.097642730137
 30
0.0
 11
3260.926710098328
 21
1792.339169730137
 31
0.0
  0
LINE
  5
175
330
1F
100
AcDbEntity
  8
BODY
  6
CONTINUOUS
 62
     7
100
AcDbLine
 10
3269.156209098327
 20
1770.522697730137
 30
0.0
 11
3269.156209098327
 21
1766.522697730137
 31
0.0
  0
ARC
  5
176
330
1F
100
AcDbEntity
  8
BODY
  6
CONTINUOUS
 62
     7
100
AcDbCircle
 10
3268.156209098327
 20
1770.522697730137
 30
0.0
 40
1.0
100
AcDbArc
 50
0.0
 51
90.0
  0
LINE
  5
177
330
1F
100
AcDbEntity
  8
BODY
  6
CONTINUOUS
 62
     7
100
AcDbLine
 10
3272.656209098327
 20
1760.522697730137
 30
0.0
 11
3272.656209098327
 21
1753.522697730138
 31
0.0
  0
LINE
  5
178
330
1F
100
AcDbEntity
  8
BODY
  6
CONTINUOUS
 62
     7
100
AcDbLine
 10
3272.156209098327
 20
1764.522697730137
 30
0.0
 11
3269.156209098327
 21
1766.522697730137
 31
0.0
  0
LINE
  5
179
330
1F
100
AcDbEntity
  8
BODY
  6
CONTINUOUS
 62
     7
100
AcDbLine
 10
3270.656209098327
 20
1761.522697730137
 30
0.0
 11
3270.656209098327
 21
1762.522697730138
 31
0.0
  0
ARC
  5
17A
330
1F
100
AcDbEntity
  8
BODY
  6
CONTINUOUS
 62
     7
100
AcDbCircle
 10
3271.656209098328
 20
1760.522697730137
 30
0.0
 40
1.0
100
AcDbArc
 50
0.0
 51
90.0
  0
LINE
  5
17B
330
1F
100
AcDbEntity
  8
BODY
  6
CONTINUOUS
 62
     7
100
AcDbLine
 10
3272.156209098327
 20
1762.522697730138
 30
0.0
 11
3272.156209098327
 21
1764.522697730137
 31
0.0
  0
LINE
  5
17C
330
1F
100
AcDbEntity
  8
BODY
  6
CONTINUOUS
 62
     7
100
AcDbLine
 10
3235.462891098328
 20
1739.522697730137
 30
0.0
 11
3235.462891098328
 21
1752.522697730137
 31
0.0
  0
LINE
  5
17D
330
1F
100
AcDbEntity
  8
BODY
  6
CONTINUOUS
 62
     7
100
AcDbLine
 10
3238.462891098328
 20
1739.522697730137
 30
0.0
 11
3238.462891098328
 21
1752.522697730137
 31
0.0
  0
LINE
  5
17E
330
1F
100
AcDbEntity
  8
BODY
  6
CONTINUOUS
 62
     7
100
AcDbLine
 10
3265.462891098329
 20
1739.522697730137
 30
0.0
 11
3265.462891098329
 21
1752.522697730137
 31
0.0
  0
LINE
  5
17F
330
1F
100
AcDbEntity
  8
BODY
  6
CONTINUOUS
 62
     7
100
AcDbLine
 10
3268.462891098328
 20
1739.522697730137
 30
0.0
 11
3268.462891098328
 21
1752.522697730137
 31
0.0
  0
LINE
  5
180
330
1F
100
AcDbEntity
  8
BODY
  6
CONTINUOUS
 62
     7
100
AcDbLine
 10
3256.462891098327
 20
1739.522697730137
 30
0.0
 11
3256.462891098327
 21
1752.522697730137
 31
0.0
  0
LINE
  5
181
330
1F
100
AcDbEntity
  8
BODY
  6
CONTINUOUS
 62
     7
100
AcDbLine
 10
3259.462891098328
 20
1739.522697730137
 30
0.0
 11
3259.462891098328
 21
1752.522697730137
 31
0.0
  0
LINE
  5
182
330
1F
100
AcDbEntity
  8
BODY
  6
CONTINUOUS
 62
     7
100
AcDbLine
 10
3262.462891098328
 20
1739.522697730137
 30
0.0
 11
3262.462891098328
 21
1752.522697730137
 31
0.0
  0
LINE
  5
183
330
1F
100
AcDbEntity
  8
BODY
  6
CONTINUOUS
 62
     7
100
AcDbLine
 10
3250.462891098327
 20
1739.522697730137
 30
0.0
 11
3250.462891098327
 21
1752.522697730137
 31
0.0
  0
LINE
  5
184
330
1F
100
AcDbEntity
  8
BODY
  6
CONTINUOUS
 62
     7
100
AcDbLine
 10
3253.462891098327
 20
1739.522697730137
 30
0.0
 11
3253.462891098327
 21
1752.522697730137
 31
0.0
  0
LINE
  5
185
330
1F
100
AcDbEntity
  8
BODY
  6
CONTINUOUS
 62
     7
100
AcDbLine
 10
3241.462891098328
 20
1739.522697730137
 30
0.0
 11
3241.462891098328
 21
1752.522697730137
 31
0.0
  0
LINE
  5
186
330
1F
100
AcDbEntity
  8
BODY
  6
CONTINUOUS
 62
     7
100
AcDbLine
 10
3244.462891098328
 20
1739.522697730137
 30
0.0
 11
3244.462891098328
 21
1752.522697730137
 31
0.0
  0
LINE
  5
187
330
1F
100
AcDbEntity
  8
BODY
  6
CONTINUOUS
 62
     7
100
AcDbLine
 10
3247.462891098328
 20
1739.522697730137
 30
0.0
 11
3247.462891098328
 21
1752.522697730137
 31
0.0
  0
LINE
  5
188
330
1F
100
AcDbEntity
  8
BODY
  6
CONTINUOUS
 62
     7
100
AcDbLine
 10
3272.656209098327
 20
1738.522697730137
 30
0.0
 11
3235.656209098328
 21
1738.522697730137
 31
0.0
  0
LINE
  5
189
330
1F
100
AcDbEntity
  8
BODY
  6
CONTINUOUS
 62
     7
100
AcDbLine
 10
3271.462891098327
 20
1739.522697730137
 30
0.0
 11
3271.462891098327
 21
1752.522697730137
 31
0.0
  0
LINE
  5
18A
330
1F
100
AcDbEntity
  8
BODY
  6
CONTINUOUS
 62
     7
100
AcDbLine
 10
3272.656209098327
 20
1732.522697730138
 30
0.0
 11
3272.656209098327
 21
1738.522697730137
 31
0.0
  0
LINE
  5
18B
330
1F
100
AcDbEntity
  8
BODY
  6
CONTINUOUS
 62
     7
100
AcDbLine
 10
3272.656209098327
 20
1738.522697730137
 30
0.0
 11
3273.406209098328
 21
1739.522697730137
 31
0.0
  0
LINE
  5
18C
330
1F
100
AcDbEntity
  8
BODY
  6
CONTINUOUS
 62
     7
100
AcDbLine
 10
3273.406209098328
 20
1739.522697730137
 30
0.0
 11
3273.406209098328
 21
1752.522697730137
 31
0.0
  0
LINE
  5
18D
330
1F
100
AcDbEntity
  8
BODY
  6
CONTINUOUS
 62
     7
100
AcDbLine
 10
3235.656209098328
 20
1753.522697730138
 30
0.0
 11
3272.656209098327
 21
1753.522697730138
 31
0.0
  0
LINE
  5
18E
330
1F
100
AcDbEntity
  8
BODY
  6
CONTINUOUS
 62
     7
100
AcDbLine
 10
3272.656209098327
 20
1753.522697730138
 30
0.0
 11
3273.406209098328
 21
1752.522697730137
 31
0.0
  0
LINE
  5
18F
330
1F
100
AcDbEntity
  8
BODY
  6
CONTINUOUS
 62
     7
100
AcDbLine
 10
3235.656209098328
 20
1732.522697730138
 30
0.0
 11
3272.656209098327
 21
1732.522697730138
 31
0.0
  0
LINE
  5
190
330
1F
100
AcDbEntity
  8
BODY
  6
CONTINUOUS
 62
     7
100
AcDbLine
 10
3236.656209098327
 20
1728.522697730138
 30
0.0
 11
3271.656209098328
 21
1728.522697730138
 31
0.0
  0
LINE
  5
191
330
1F
100
AcDbEntity
  8
BODY
  6
CONTINUOUS
 62
     7
100
AcDbLine
 10
3236.656209098327
 20
1725.522697730137
 30
0.0
 11
3271.656209098328
 21
1725.522697730137
 31
0.0
  0
LINE
  5
192
330
1F
100
AcDbEntity
  8
BODY
  6
CONTINUOUS
 62
     7
100
AcDbLine
 10
3236.656209098327
 20
1717.522697730137
 30
0.0
 11
3236.656209098327
 21
1725.522697730137
 31
0.0
  0
LINE
  5
193
330
1F
100
AcDbEntity
  8
BODY
  6
CONTINUOUS
 62
     7
100
AcDbLine
 10
3235.656209098328
 20
1738.522697730137
 30
0.0
 11
3235.656209098328
 21
1732.522697730138
 31
0.0
  0
LINE
  5
194
330
1F
100
AcDbEntity
  8
BODY
  6
CONTINUOUS
 62
     7
100
AcDbLine
 10
3235.656209098328
 20
1732.522697730138
 30
0.0
 11
3236.656209098327
 21
1728.522697730138
 31
0.0
  0
LINE
  5
195
330
1F
100
AcDbEntity
  8
BODY
  6
CONTINUOUS
 62
     7
100
AcDbLine
 10
3237.156209098327
 20
1725.522697730137
 30
0.0
 11
3237.156209098327
 21
1728.522697730138
 31
0.0
  0
LINE
  5
196
330
1F
100
AcDbEntity
  8
BODY
  6
CONTINUOUS
 62
     7
100
AcDbLine
 10
3240.156209098329
 20
1708.522697730138
 30
0.0
 11
3268.156209098327
 21
1708.522697730138
 31
0.0
  0
LINE
  5
197
330
1F
100
AcDbEntity
  8
BODY
  6
CONTINUOUS
 62
     7
100
AcDbLine
 10
3239.156209098327
 20
1709.522697730137
 30
0.0
 11
3269.156209098327
 21
1709.522697730137
 31
0.0
  0
LINE
  5
198
330
1F
100
AcDbEntity
  8
BODY
  6
CONTINUOUS
 62
     7
100
AcDbLine
 10
3271.656209098328
 20
1717.522697730137
 30
0.0
 11
3236.656209098327
 21
1717.522697730137
 31
0.0
  0
LINE
  5
199
330
1F
100
AcDbEntity
  8
BODY
  6
CONTINUOUS
 62
     7
100
AcDbLine
 10
3239.156209098327
 20
1717.522697730137
 30
0.0
 11
3239.156209098327
 21
1709.522697730137
 31
0.0
  0
LINE
  5
19A
330
1F
100
AcDbEntity
  8
BODY
  6
CONTINUOUS
 62
     7
100
AcDbLine
 10
3239.156209098327
 20
1709.522697730137
 30
0.0
 11
3240.156209098329
 21
1708.522697730138
 31
0.0
  0
LINE
  5
19B
330
1F
100
AcDbEntity
  8
BODY
  6
CONTINUOUS
 62
     7
100
AcDbLine
 10
3269.156209098327
 20
1709.522697730137
 30
0.0
 11
3269.156209098327
 21
1717.522697730137
 31
0.0
  0
LINE
  5
19C
330
1F
100
AcDbEntity
  8
BODY
  6
CONTINUOUS
 62
     7
100
AcDbLine
 10
3271.656209098328
 20
1725.522697730137
 30
0.0
 11
3271.656209098328
 21
1717.522697730137
 31
0.0
  0
LINE
  5
19D
330
1F
100
AcDbEntity
  8
BODY
  6
CONTINUOUS
 62
     7
100
AcDbLine
 10
3271.156209098327
 20
1728.522697730138
 30
0.0
 11
3271.156209098327
 21
1725.522697730137
 31
0.0
  0
LINE
  5
19E
330
1F
100
AcDbEntity
  8
BODY
  6
CONTINUOUS
 62
     7
100
AcDbLine
 10
3271.656209098328
 20
1728.522697730138
 30
0.0
 11
3272.656209098327
 21
1732.522697730138
 31
0.0
  0
ARC
  5
19F
330
1F
100
AcDbEntity
  8
BODY
  6
CONTINUOUS
 62
     7
100
AcDbCircle
 10
3254.156209098327
 20
1681.549836730138
 30
0.0
 40
21.972861
100
AcDbArc
 50
72.41204599999399
 51
107.587954000006
  0
LINE
  5
1A0
330
1F
100
AcDbEntity
  8
BODY
  6
CONTINUOUS
 62
     7
100
AcDbLine
 10
3243.156209098327
 20
1704.522697730137
 30
0.0
 11
3265.156209098329
 21
1704.522697730137
 31
0.0
  0
LINE
  5
1A1
330
1F
100
AcDbEntity
  8
BODY
  6
CONTINUOUS
 62
     7
100
AcDbLine
 10
3244.196917098328
 20
1703.522697730138
 30
0.0
 11
3264.115557098327
 21
1703.522697730138
 31
0.0
  0
LINE
  5
1A2
330
1F
100
AcDbEntity
  8
BODY
  6
CONTINUOUS
 62
     7
100
AcDbLine
 10
3260.795737098327
 20
1694.549836730137
 30
0.0
 11
3260.795737098327
 21
1702.495559730138
 31
0.0
  0
LINE
  5
1A3
330
1F
100
AcDbEntity
  8
BODY
  6
CONTINUOUS
 62
     7
100
AcDbLine
 10
3262.156209098327
 20
1704.522697730137
 30
0.0
 11
3262.156209098327
 21
1703.522697730138
 31
0.0
  0
ARC
  5
1A4
330
1F
100
AcDbEntity
  8
BODY
  6
CONTINUOUS
 62
     7
100
AcDbCircle
 10
3264.115501098328
 20
1697.644305730138
 30
0.0
 40
5.878391999999997
100
AcDbArc
 50
55.61575299999812
 51
124.3842470000019
  0
LINE
  5
1A5
330
1F
100
AcDbEntity
  8
BODY
  6
CONTINUOUS
 62
     7
100
AcDbLine
 10
3243.156209098327
 20
1708.522697730138
 30
0.0
 11
3243.156209098327
 21
1704.522697730137
 31
0.0
  0
LINE
  5
1A6
330
1F
100
AcDbEntity
  8
BODY
  6
CONTINUOUS
 62
     7
100
AcDbLine
 10
3247.516681098328
 20
1694.549836730137
 30
0.0
 11
3247.516681098328
 21
1702.495559730138
 31
0.0
  0
LINE
  5
1A7
330
1F
100
AcDbEntity
  8
BODY
  6
CONTINUOUS
 62
     7
100
AcDbLine
 10
3246.156209098327
 20
1704.522697730137
 30
0.0
 11
3246.156209098327
 21
1703.522697730138
 31
0.0
  0
ARC
  5
1A8
330
1F
100
AcDbEntity
  8
BODY
  6
CONTINUOUS
 62
     7
100
AcDbCircle
 10
3244.196917098328
 20
1697.644305730138
 30
0.0
 40
5.878391999999997
100
AcDbArc
 50
55.61575299999812
 51
124.3842470000019
  0
LINE
  5
1A9
330
1F
100
AcDbEntity
  8
BODY
  6
CONTINUOUS
 62
     7
100
AcDbLine
 10
3240.877153098328
 20
1694.549836730137
 30
0.0
 11
3240.877153098328
 21
1702.495559730138
 31
0.0
  0
LINE
  5
1AA
330
1F
100
AcDbEntity
  8
BODY
  6
CONTINUOUS
 62
     7
100
AcDbLine
 10
3245.523631098328
 20
1693.522697730137
 30
0.0
 11
3245.711141098328
 21
1687.522697730138
 31
0.0
  0
ARC
  5
1AB
330
1F
100
AcDbEntity
  8
BODY
  6
CONTINUOUS
 62
     7
100
AcDbCircle
 10
3254.156209098327
 20
1715.495559730138
 30
0.0
 40
21.972861
100
AcDbArc
 50
252.412045999994
 51
287.587954000006
  0
LINE
  5
1AC
330
1F
100
AcDbEntity
  8
BODY
  6
CONTINUOUS
 62
     7
100
AcDbLine
 10
3264.115501098328
 20
1693.522697730137
 30
0.0
 11
3244.196861098327
 21
1693.522697730137
 31
0.0
  0
LINE
  5
1AD
330
1F
100
AcDbEntity
  8
BODY
  6
CONTINUOUS
 62
     7
100
AcDbLine
 10
3245.552774098327
 20
1692.590179730137
 30
0.0
 11
3246.457760098327
 21
1691.022697730138
 31
0.0
  0
ARC
  5
1AE
330
1F
100
AcDbEntity
  8
BODY
  6
CONTINUOUS
 62
     7
100
AcDbCircle
 10
3244.196917098328
 20
1699.401089730137
 30
0.0
 40
5.878391999999997
100
AcDbArc
 50
235.6157529999981
 51
304.3842470000019
  0
LINE
  5
1AF
330
1F
100
AcDbEntity
  8
BODY
  6
CONTINUOUS
 62
     7
100
AcDbLine
 10
3262.601277098327
 20
1687.522697730138
 30
0.0
 11
3262.788786098329
 21
1693.522697730137
 31
0.0
  0
LINE
  5
1B0
330
1F
100
AcDbEntity
  8
BODY
  6
CONTINUOUS
 62
     7
100
AcDbLine
 10
3261.854658098328
 20
1691.022697730138
 30
0.0
 11
3262.759644098327
 21
1692.590179730137
 31
0.0
  0
ARC
  5
1B1
330
1F
100
AcDbEntity
  8
BODY
  6
CONTINUOUS
 62
     7
100
AcDbCircle
 10
3264.115501098328
 20
1699.401089730137
 30
0.0
 40
5.878391999999997
100
AcDbArc
 50
235.6157529999981
 51
304.3842470000019
  0
LINE
  5
1B2
330
1F
100
AcDbEntity
  8
BODY
  6
CONTINUOUS
 62
     7
100
AcDbLine
 10
3267.435265098328
 20
1694.549836730137
 30
0.0
 11
3267.435265098328
 21
1702.495559730138
 31
0.0
  0
LINE
  5
1B3
330
1F
100
AcDbEntity
  8
BODY
  6
CONTINUOUS
 62
     7
100
AcDbLine
 10
3261.745277098327
 20
1687.522697730138
 30
0.0
 11
3261.854658098328
 21
1691.022697730138
 31
0.0
  0
LINE
  5
1B4
330
1F
100
AcDbEntity
  8
BODY
  6
CONTINUOUS
 62
     7
100
AcDbLine
 10
3245.601760098327
 20
1691.022697730138
 30
0.0
 11
3262.710658098328
 21
1691.022697730138
 31
0.0
  0
LINE
  5
1B5
330
1F
100
AcDbEntity
  8
BODY
  6
CONTINUOUS
 62
     7
100
AcDbLine
 10
3246.457760098327
 20
1691.022697730138
 30
0.0
 11
3246.567141098327
 21
1687.522697730138
 31
0.0
  0
LINE
  5
1B6
330
1F
100
AcDbEntity
  8
BODY
  6
CONTINUOUS
 62
     7
100
AcDbLine
 10
3246.706209098328
 20
1771.522697730137
 30
0.0
 11
3248.706209098327
 21
1773.522697730137
 31
0.0
  0
LINE
  5
1B7
330
1F
100
AcDbEntity
  8
BODY
  6
CONTINUOUS
 62
     7
100
AcDbLine
 10
3268.156209098327
 20
1708.522697730138
 30
0.0
 11
3269.156209098327
 21
1709.522697730137
 31
0.0
  0
LINE
  5
1B8
330
1F
100
AcDbEntity
  8
BODY
  6
CONTINUOUS
 62
     7
100
AcDbLine
 10
3265.156209098329
 20
1704.522697730137
 30
0.0
 11
3265.156209098329
 21
1708.522697730138
 31
0.0
  0
LINE
  5
1B9
330
1F
100
AcDbEntity
  8
BODY
  6
CONTINUOUS
 62
     7
100
AcDbLine
 10
3247.656209098328
 20
1687.522697730138
 30
0.0
 11
3305.150181927403
 21
1687.522697730138
 31
0.0
  0
LINE
  5
1BA
330
1F
100
AcDbEntity
  8
BODY
  6
CONTINUOUS
 62
     7
100
AcDbLine
 10
3560.156209098227
 20
1687.022697730138
 30
0.0
 11
3560.156209098227
 21
1687.522697730138
 31
0.0
  0
LINE
  5
1BB
330
1F
100
AcDbEntity
  8
BODY
  6
CONTINUOUS
 62
     7
100
AcDbLine
 10
3687.156209098228
 20
1572.522700648557
 30
0.0
 11
3687.156209098228
 21
1574.522700648557
 31
0.0
  0
LINE
  5
1BC
330
1F
100
AcDbEntity
  8
BODY
  6
CONTINUOUS
 62
     7
100
AcDbLine
 10
3673.156209098228
 20
1572.522700648557
 30
0.0
 11
3673.156209098228
 21
1574.522700648557
 31
0.0
  0
LINE
  5
1BD
330
1F
100
AcDbEntity
  8
BODY
  6
CONTINUOUS
 62
     7
100
AcDbLine
 10
3687.156209098228
 20
1572.522700648557
 30
0.0
 11
3673.156209098228
 21
1572.522700648557
 31
0.0
  0
LINE
  5
1BE
330
1F
100
AcDbEntity
  8
BODY
  6
CONTINUOUS
 62
     7
100
AcDbLine
 10
3557.156209098227
 20
1572.522700648558
 30
0.0
 11
3557.156209098227
 21
1574.522700648558
 31
0.0
  0
LINE
  5
1BF
330
1F
100
AcDbEntity
  8
BODY
  6
CONTINUOUS
 62
     7
100
AcDbLine
 10
3543.156209098227
 20
1572.522700648558
 30
0.0
 11
3543.156209098227
 21
1574.522700648558
 31
0.0
  0
LINE
  5
1C0
330
1F
100
AcDbEntity
  8
BODY
  6
CONTINUOUS
 62
     7
100
AcDbLine
 10
3557.156209098227
 20
1572.522700648558
 30
0.0
 11
3543.156209098227
 21
1572.522700648558
 31
0.0
  0
LINE
  5
1C1
330
1F
100
AcDbEntity
  8
BODY
  6
CONTINUOUS
 62
     7
100
AcDbLine
 10
3540.156209098228
 20
1684.022697730138
 30
0.0
 11
3540.156209098228
 21
1679.522697730137
 31
0.0
  0
LINE
  5
1C2
330
1F
100
AcDbEntity
  8
BODY
  6
CONTINUOUS
 62
     7
100
AcDbLine
 10
3678.156209098227
 20
1687.022697730138
 30
0.0
 11
3678.156209098227
 21
1687.522697730138
 31
0.0
  0
LINE
  5
1C3
330
1F
100
AcDbEntity
  8
BODY
  6
CONTINUOUS
 62
     7
100
AcDbLine
 10
3688.156209098228
 20
1690.422697730137
 30
0.0
 11
3688.156209098228
 21
1685.522697730138
 31
0.0
  0
LINE
  5
1C4
330
1F
100
AcDbEntity
  8
BODY
  6
CONTINUOUS
 62
     7
100
AcDbLine
 10
3678.156209098227
 20
1687.022697730138
 30
0.0
 11
3678.156209098227
 21
1687.522697730138
 31
0.0
  0
ARC
  5
1C5
330
1F
100
AcDbEntity
  8
BODY
  6
CONTINUOUS
 62
     7
100
AcDbCircle
 10
3679.656209098228
 20
1687.022697730138
 30
0.0
 40
1.5
100
AcDbArc
 50
180.0
 51
270.0
  0
LINE
  5
1C6
330
1F
100
AcDbEntity
  8
BODY
  6
CONTINUOUS
 62
     7
100
AcDbLine
 10
3678.156209098227
 20
1690.422697730137
 30
0.0
 11
3688.156209098228
 21
1690.422697730137
 31
0.0
  0
LINE
  5
1C7
330
1F
100
AcDbEntity
  8
BODY
  6
CONTINUOUS
 62
     7
100
AcDbLine
 10
3687.116978613728
 20
1691.022697730138
 30
0.0
 11
3679.195439582828
 21
1691.022697730138
 31
0.0
  0
LINE
  5
1C8
330
1F
100
AcDbEntity
  8
BODY
  6
CONTINUOUS
 62
     7
100
AcDbLine
 10
3678.156209098227
 20
1690.422697730137
 30
0.0
 11
3679.195439582828
 21
1691.022697730138
 31
0.0
  0
LINE
  5
1C9
330
1F
100
AcDbEntity
  8
BODY
  6
CONTINUOUS
 62
     7
100
AcDbLine
 10
3678.156209098227
 20
1690.422697730137
 30
0.0
 11
3678.156209098227
 21
1687.522697730138
 31
0.0
  0
LINE
  5
1CA
330
1F
100
AcDbEntity
  8
BODY
  6
CONTINUOUS
 62
     7
100
AcDbLine
 10
3688.156209098228
 20
1690.422697730137
 30
0.0
 11
3687.116978613728
 21
1691.022697730138
 31
0.0
  0
LINE
  5
1CB
330
1F
100
AcDbEntity
  8
BODY
  6
CONTINUOUS
 62
     7
100
AcDbLine
 10
3686.156209098228
 20
1690.522697730138
 30
0.0
 11
3678.156209098228
 21
1690.522697730138
 31
0.0
  0
LINE
  5
1CC
330
1F
100
AcDbEntity
  8
BODY
  6
CONTINUOUS
 62
     7
100
AcDbLine
 10
3674.156209098228
 20
1690.522697730138
 30
0.0
 11
3680.156209098228
 21
1686.022697730138
 31
0.0
  0
LINE
  5
1CD
330
1F
100
AcDbEntity
  8
BODY
  6
CONTINUOUS
 62
     7
100
AcDbLine
 10
3674.156209098228
 20
1681.522697730138
 30
0.0
 11
3674.156209098228
 21
1690.522697730138
 31
0.0
  0
LINE
  5
1CE
330
1F
100
AcDbEntity
  8
BODY
  6
CONTINUOUS
 62
     7
100
AcDbLine
 10
3680.156209098228
 20
1686.022697730138
 30
0.0
 11
3674.156209098228
 21
1681.522697730138
 31
0.0
  0
LINE
  5
1CF
330
1F
100
AcDbEntity
  8
BODY
  6
CONTINUOUS
 62
     7
100
AcDbLine
 10
3680.156209098228
 20
1686.022697730138
 30
0.0
 11
3686.156209098228
 21
1681.522697730138
 31
0.0
  0
LINE
  5
1D0
330
1F
100
AcDbEntity
  8
BODY
  6
CONTINUOUS
 62
     7
100
AcDbLine
 10
3686.156209098228
 20
1687.522697730138
 30
0.0
 11
3686.156209098228
 21
1681.522697730138
 31
0.0
  0
LINE
  5
1D1
330
1F
100
AcDbEntity
  8
BODY
  6
CONTINUOUS
 62
     7
100
AcDbLine
 10
3686.156209098228
 20
1687.522697730138
 30
0.0
 11
3686.156209098228
 21
1690.522697730138
 31
0.0
  0
LINE
  5
1D2
330
1F
100
AcDbEntity
  8
BODY
  6
CONTINUOUS
 62
     7
100
AcDbLine
 10
3678.156209098228
 20
1690.522697730138
 30
0.0
 11
3674.156209098228
 21
1690.522697730138
 31
0.0
  0
LINE
  5
1D3
330
1F
100
AcDbEntity
  8
BODY
  6
CONTINUOUS
 62
     7
100
AcDbLine
 10
3686.156209098228
 20
1690.522697730138
 30
0.0
 11
3680.156209098228
 21
1686.022697730138
 31
0.0
  0
ARC
  5
1D4
330
1F
100
AcDbEntity
  8
BODY
  6
CONTINUOUS
 62
     7
100
AcDbCircle
 10
3688.656209098228
 20
1684.022697730138
 30
0.0
 40
1.5
100
AcDbArc
 50
0.0
 51
90.0
  0
LINE
  5
1D5
330
1F
100
AcDbEntity
  8
BODY
  6
CONTINUOUS
 62
     7
100
AcDbLine
 10
3690.156209098228
 20
1684.022697730138
 30
0.0
 11
3690.156209098228
 21
1679.522697730137
 31
0.0
  0
LINE
  5
1D6
330
1F
100
AcDbEntity
  8
BODY
  6
CONTINUOUS
 62
     7
100
AcDbLine
 10
3540.156209098228
 20
1679.522697730137
 30
0.0
 11
3690.156209098228
 21
1679.522697730137
 31
0.0
  0
LINE
  5
1D7
330
1F
100
AcDbEntity
  8
BODY
  6
CONTINUOUS
 62
     7
100
AcDbLine
 10
3650.156209098228
 20
1685.522697730138
 30
0.0
 11
3688.656209098228
 21
1685.522697730138
 31
0.0
  0
ARC
  5
1D8
330
1F
100
AcDbEntity
  8
BODY
  6
CONTINUOUS
 62
     7
100
AcDbCircle
 10
3650.156209098228
 20
1687.522697730138
 30
0.0
 40
2.0
100
AcDbArc
 50
180.0
 51
270.0
  0
LINE
  5
1D9
330
1F
100
AcDbEntity
  8
BODY
  6
CONTINUOUS
 62
     7
100
AcDbLine
 10
3552.156209098228
 20
1687.522697730138
 30
0.0
 11
3678.156209098227
 21
1687.522697730138
 31
0.0
  0
ARC
  5
1DA
330
1F
100
AcDbEntity
  8
BODY
  6
CONTINUOUS
 62
     7
100
AcDbCircle
 10
3580.156209098228
 20
1687.522697730138
 30
0.0
 40
2.0
100
AcDbArc
 50
270.0
 51
0.0
  0
LINE
  5
1DB
330
1F
100
AcDbEntity
  8
BODY
  6
CONTINUOUS
 62
     7
100
AcDbLine
 10
3580.156209098228
 20
1685.522697730138
 30
0.0
 11
3541.656209098228
 21
1685.522697730138
 31
0.0
  0
ARC
  5
1DC
330
1F
100
AcDbEntity
  8
BODY
  6
CONTINUOUS
 62
     7
100
AcDbCircle
 10
3558.656209098227
 20
1687.022697730138
 30
0.0
 40
1.5
100
AcDbArc
 50
270.0
 51
0.0
  0
LINE
  5
1DD
330
1F
100
AcDbEntity
  8
BODY
  6
CONTINUOUS
 62
     7
100
AcDbLine
 10
3552.156209098228
 20
1690.422697730137
 30
0.0
 11
3552.156209098228
 21
1685.522697730138
 31
0.0
  0
LINE
  5
1DE
330
1F
100
AcDbEntity
  8
BODY
  6
CONTINUOUS
 62
     7
100
AcDbLine
 10
3552.156209098228
 20
1690.422697730137
 30
0.0
 11
3551.116978613728
 21
1691.022697730138
 31
0.0
  0
LINE
  5
1DF
330
1F
100
AcDbEntity
  8
BODY
  6
CONTINUOUS
 62
     7
100
AcDbLine
 10
3552.156209098228
 20
1690.422697730137
 30
0.0
 11
3542.156209098228
 21
1690.422697730137
 31
0.0
  0
LINE
  5
1E0
330
1F
100
AcDbEntity
  8
BODY
  6
CONTINUOUS
 62
     7
100
AcDbLine
 10
3543.195439582828
 20
1691.022697730138
 30
0.0
 11
3551.116978613728
 21
1691.022697730138
 31
0.0
  0
LINE
  5
1E1
330
1F
100
AcDbEntity
  8
BODY
  6
CONTINUOUS
 62
     7
100
AcDbLine
 10
3542.156209098228
 20
1690.422697730137
 30
0.0
 11
3543.195439582828
 21
1691.022697730138
 31
0.0
  0
LINE
  5
1E2
330
1F
100
AcDbEntity
  8
BODY
  6
CONTINUOUS
 62
     7
100
AcDbLine
 10
3542.156209098228
 20
1690.422697730137
 30
0.0
 11
3542.156209098228
 21
1685.522697730138
 31
0.0
  0
ARC
  5
1E3
330
1F
100
AcDbEntity
  8
BODY
  6
CONTINUOUS
 62
     7
100
AcDbCircle
 10
3541.656209098228
 20
1684.022697730138
 30
0.0
 40
1.5
100
AcDbArc
 50
90.0
 51
180.0
  0
LINE
  5
1E4
330
1F
100
AcDbEntity
  8
BODY
  6
CONTINUOUS
 62
     7
100
AcDbLine
 10
3690.156209098228
 20
1679.522697730137
 30
0.0
 11
3690.156209098228
 21
1679.354857296337
 31
0.0
  0
ARC
  5
1E5
330
1F
100
AcDbEntity
  8
BODY
  6
CONTINUOUS
 62
     7
100
AcDbCircle
 10
3690.156209098228
 20
1667.522697730138
 30
0.0
 40
10.0
100
AcDbArc
 50
0.0
 51
80.40593177314804
  0
ARC
  5
1E6
330
1F
100
AcDbEntity
  8
BODY
  6
CONTINUOUS
 62
     7
100
AcDbCircle
 10
3692.156209098228
 20
1679.354857296337
 30
0.0
 40
2.0
100
AcDbArc
 50
180.0
 51
260.405931773148
  0
LINE
  5
1E7
330
1F
100
AcDbEntity
  8
BODY
  6
CONTINUOUS
 62
     7
100
AcDbLine
 10
3700.156209098228
 20
1667.522697730138
 30
0.0
 11
3700.156209098228
 21
1587.522697730137
 31
0.0
  0
LINE
  5
1E8
330
1F
100
AcDbEntity
  8
BODY
  6
CONTINUOUS
 62
     7
100
AcDbLine
 10
3688.156209098228
 20
1574.522697730137
 30
0.0
 11
3672.156209098228
 21
1574.522697730137
 31
0.0
  0
ARC
  5
1E9
330
1F
100
AcDbEntity
  8
BODY
  6
CONTINUOUS
 62
     7
100
AcDbCircle
 10
3668.283225752027
 20
1575.522697730138
 30
0.0
 40
2.0
100
AcDbArc
 50
14.47751218590423
 51
90.0
  0
ARC
  5
1EA
330
1F
100
AcDbEntity
  8
BODY
  6
CONTINUOUS
 62
     7
100
AcDbCircle
 10
3672.156209098228
 20
1576.522697730138
 30
0.0
 40
2.0
100
AcDbArc
 50
194.4775121859042
 51
270.0
  0
ARC
  5
1EB
330
1F
100
AcDbEntity
  8
BODY
  6
CONTINUOUS
 62
     7
100
AcDbCircle
 10
3688.156209098228
 20
1576.522697730138
 30
0.0
 40
2.0
100
AcDbArc
 50
270.0
 51
347.773034151681
  0
LINE
  5
1EC
330
1F
100
AcDbEntity
  8
BODY
  6
CONTINUOUS
 62
     7
100
AcDbLine
 10
3530.156209098227
 20
1667.522697730138
 30
0.0
 11
3530.156209098227
 21
1587.522697730137
 31
0.0
  0
LINE
  5
1ED
330
1F
100
AcDbEntity
  8
BODY
  6
CONTINUOUS
 62
     7
100
AcDbLine
 10
3540.156209098228
 20
1679.522697730138
 30
0.0
 11
3540.156209098228
 21
1679.354857296337
 31
0.0
  0
ARC
  5
1EE
330
1F
100
AcDbEntity
  8
BODY
  6
CONTINUOUS
 62
     7
100
AcDbCircle
 10
3540.156209098228
 20
1667.522697730138
 30
0.0
 40
10.0
100
AcDbArc
 50
99.59406822685197
 51
180.0
  0
ARC
  5
1EF
330
1F
100
AcDbEntity
  8
BODY
  6
CONTINUOUS
 62
     7
100
AcDbCircle
 10
3538.156209098228
 20
1679.354857296337
 30
0.0
 40
2.0
100
AcDbArc
 50
279.594068226852
 51
0.0
  0
LINE
  5
1F0
330
1F
100
AcDbEntity
  8
BODY
  6
CONTINUOUS
 62
     7
100
AcDbLine
 10
3540.156209098228
 20
1679.522697730137
 30
0.0
 11
3690.156209098228
 21
1679.522697730137
 31
0.0
  0
LINE
  5
1F1
330
1F
100
AcDbEntity
  8
BODY
  6
CONTINUOUS
 62
     7
100
AcDbLine
 10
3691.74726352335
 20
1577.650081774055
 30
0.0
 11
3538.565154673106
 21
1577.650081774056
 31
0.0
  0
ARC
  5
1F2
330
1F
100
AcDbEntity
  8
BODY
  6
CONTINUOUS
 62
     7
100
AcDbCircle
 10
3690.156209098228
 20
1587.522697730137
 30
0.0
 40
10.0
100
AcDbArc
 50
279.1549767315146
 51
0.0
  0
ARC
  5
1F3
330
1F
100
AcDbEntity
  8
BODY
  6
CONTINUOUS
 62
     7
100
AcDbCircle
 10
3692.065474408374
 20
1575.675558582838
 30
0.0
 40
2.0
100
AcDbArc
 50
99.15497673151457
 51
167.7730341516811
  0
ARC
  5
1F4
330
1F
100
AcDbEntity
  8
BODY
  6
CONTINUOUS
 62
     7
100
AcDbCircle
 10
3538.246943788081
 20
1575.675558582839
 30
0.0
 40
2.0
100
AcDbArc
 50
12.22696584831885
 51
80.84502326848545
  0
ARC
  5
1F5
330
1F
100
AcDbEntity
  8
BODY
  6
CONTINUOUS
 62
     7
100
AcDbCircle
 10
3540.156209098228
 20
1587.522697730138
 30
0.0
 40
10.0
100
AcDbArc
 50
180.0
 51
260.8450232684854
  0
ARC
  5
1F6
330
1F
100
AcDbEntity
  8
BODY
  6
CONTINUOUS
 62
     7
100
AcDbCircle
 10
3542.156209098227
 20
1576.522697730139
 30
0.0
 40
2.0
100
AcDbArc
 50
192.2269658483188
 51
270.0
  0
ARC
  5
1F7
330
1F
100
AcDbEntity
  8
BODY
  6
CONTINUOUS
 62
     7
100
AcDbCircle
 10
3558.156209098227
 20
1576.522697730139
 30
0.0
 40
2.0
100
AcDbArc
 50
270.0
 51
345.5224878140958
  0
ARC
  5
1F8
330
1F
100
AcDbEntity
  8
BODY
  6
CONTINUOUS
 62
     7
100
AcDbCircle
 10
3562.029192444427
 20
1575.522697730138
 30
0.0
 40
2.0
100
AcDbArc
 50
90.0
 51
165.5224878140958
  0
LINE
  5
1F9
330
1F
100
AcDbEntity
  8
BODY
  6
CONTINUOUS
 62
     7
100
AcDbLine
 10
3542.156209098227
 20
1574.522697730138
 30
0.0
 11
3558.156209098227
 21
1574.522697730138
 31
0.0
  0
LINE
  5
1FA
330
1F
100
AcDbEntity
  8
BODY
  6
CONTINUOUS
 62
     7
100
AcDbLine
 10
3185.590587263622
 20
1687.522694457932
 30
0.0
 11
3185.590587263622
 21
1688.022697730138
 31
0.0
  0
LINE
  5
1FB
330
1F
100
AcDbEntity
  8
BODY
  6
CONTINUOUS
 62
     7
100
AcDbLine
 10
3215.153154692377
 20
1687.522694457932
 30
0.0
 11
3215.153154692377
 21
1688.022697730138
 31
0.0
  0
LINE
  5
1FC
330
1F
100
AcDbEntity
  8
BODY
  6
CONTINUOUS
 62
     7
100
AcDbLine
 10
3155.150181927403
 20
1688.022697730137
 30
0.0
 11
3225.156209098278
 21
1688.022697730138
 31
0.0
  0
LINE
  5
1FD
330
1F
100
AcDbEntity
  8
BODY
  6
CONTINUOUS
 62
     7
100
AcDbLine
 10
3155.150181927403
 20
1688.022697730137
 30
0.0
 11
3155.150181927403
 21
1679.522697730137
 31
0.0
  0
ARC
  5
1FE
330
1F
100
AcDbEntity
  8
BODY
  6
CONTINUOUS
 62
     7
100
AcDbCircle
 10
3187.590587263621
 20
1687.522694457932
 30
0.0
 40
2.0
100
AcDbArc
 50
180.0
 51
270.0
  0
ARC
  5
1FF
330
1F
100
AcDbEntity
  8
BODY
  6
CONTINUOUS
 62
     7
100
AcDbCircle
 10
3217.153154692376
 20
1687.522694457932
 30
0.0
 40
2.0
100
AcDbArc
 50
180.0
 51
270.0
  0
LINE
  5
200
330
1F
100
AcDbEntity
  8
BODY
  6
CONTINUOUS
 62
     7
100
AcDbLine
 10
3226.195439582877
 20
1691.022694457932
 30
0.0
 11
3234.116978613777
 21
1691.022694457932
 31
0.0
  0
LINE
  5
201
330
1F
100
AcDbEntity
  8
BODY
  6
CONTINUOUS
 62
     7
100
AcDbLine
 10
3225.156209098278
 20
1690.422694457932
 30
0.0
 11
3226.195439582877
 21
1691.022694457932
 31
0.0
  0
LINE
  5
202
330
1F
100
AcDbEntity
  8
BODY
  6
CONTINUOUS
 62
     7
100
AcDbLine
 10
3235.156209098278
 20
1690.422694457932
 30
0.0
 11
3225.156209098278
 21
1690.422694457932
 31
0.0
  0
LINE
  5
203
330
1F
100
AcDbEntity
  8
BODY
  6
CONTINUOUS
 62
     7
100
AcDbLine
 10
3225.156209098278
 20
1690.422694457932
 30
0.0
 11
3225.156209098278
 21
1685.522694457931
 31
0.0
  0
LINE
  5
204
330
1F
100
AcDbEntity
  8
BODY
  6
CONTINUOUS
 62
     7
100
AcDbLine
 10
3235.156209098278
 20
1690.422694457932
 30
0.0
 11
3234.116978613777
 21
1691.022694457932
 31
0.0
  0
LINE
  5
205
330
1F
100
AcDbEntity
  8
BODY
  6
CONTINUOUS
 62
     7
100
AcDbLine
 10
3235.156209098278
 20
1690.422694457932
 30
0.0
 11
3235.156209098277
 21
1685.522694457931
 31
0.0
  0
LINE
  5
206
330
1F
100
AcDbEntity
  8
BODY
  6
CONTINUOUS
 62
     7
100
AcDbLine
 10
3305.150181927403
 20
1687.522697730138
 30
0.0
 11
3262.601277400874
 21
1687.522697730138
 31
0.0
  0
LINE
  5
207
330
1F
100
AcDbEntity
  8
BODY
  6
CONTINUOUS
 62
     7
100
AcDbLine
 10
3295.506042060209
 20
1685.522694457931
 30
0.0
 11
3187.590587263621
 21
1685.522694457931
 31
0.0
  0
ARC
  5
208
330
1F
100
AcDbEntity
  8
BODY
  6
CONTINUOUS
 62
     7
100
AcDbCircle
 10
3295.506042060209
 20
1687.522694457932
 30
0.0
 40
2.0
100
AcDbArc
 50
270.0
 51
0.0
  0
LINE
  5
209
330
1F
100
AcDbEntity
  8
BODY
  6
CONTINUOUS
 62
     7
100
AcDbLine
 10
3145.154117083546
 20
1693.375464822853
 30
0.0
 11
3142.006882335746
 21
1696.522699570653
 31
0.0
  0
LINE
  5
20A
330
1F
100
AcDbEntity
  8
BODY
  6
CONTINUOUS
 62
     7
100
AcDbLine
 10
3144.154117083547
 20
1697.522699570653
 30
0.0
 11
3145.154117083546
 21
1696.522699570653
 31
0.0
  0
LINE
  5
20B
330
1F
100
AcDbEntity
  8
BODY
  6
CONTINUOUS
 62
     7
100
AcDbLine
 10
3145.154117083546
 20
1678.022699570653
 30
0.0
 11
3144.654117083546
 21
1677.522699570653
 31
0.0
  0
LINE
  5
20C
330
1F
100
AcDbEntity
  8
BODY
  6
CONTINUOUS
 62
     7
100
AcDbLine
 10
3143.599633164347
 20
1678.022699570653
 30
0.0
 11
3145.154117083546
 21
1679.577183489853
 31
0.0
  0
LINE
  5
20D
330
1F
100
AcDbEntity
  8
BODY
  6
CONTINUOUS
 62
     7
100
AcDbLine
 10
3145.154117083546
 20
1678.022699570653
 30
0.0
 11
3145.154117083546
 21
1696.522699570653
 31
0.0
  0
LINE
  5
20E
330
1F
100
AcDbEntity
  8
BODY
  6
CONTINUOUS
 62
     7
100
AcDbLine
 10
3125.154117083547
 20
1689.275668299753
 30
0.0
 11
3132.401148354547
 21
1696.522699570653
 31
0.0
  0
LINE
  5
20F
330
1F
100
AcDbEntity
  8
BODY
  6
CONTINUOUS
 62
     7
100
AcDbLine
 10
3126.154117083546
 20
1697.522699570653
 30
0.0
 11
3125.154117083547
 21
1696.522699570653
 31
0.0
  0
LINE
  5
210
330
1F
100
AcDbEntity
  8
BODY
  6
CONTINUOUS
 62
     7
100
AcDbLine
 10
3125.154117083547
 20
1693.518308986853
 30
0.0
 11
3128.158507667446
 21
1696.522699570653
 31
0.0
  0
LINE
  5
211
330
1F
100
AcDbEntity
  8
BODY
  6
CONTINUOUS
 62
     7
100
AcDbLine
 10
3125.154117083547
 20
1678.022699570653
 30
0.0
 11
3125.654117083545
 21
1677.522699570653
 31
0.0
  0
LINE
  5
212
330
1F
100
AcDbEntity
  8
BODY
  6
CONTINUOUS
 62
     7
100
AcDbLine
 10
3135.051038213046
 20
1678.022699570653
 30
0.0
 11
3125.154117083547
 21
1687.919620700153
 31
0.0
  0
LINE
  5
213
330
1F
100
AcDbEntity
  8
BODY
  6
CONTINUOUS
 62
     7
100
AcDbLine
 10
3130.808397525946
 20
1678.022699570653
 30
0.0
 11
3125.154117083547
 21
1683.676980013053
 31
0.0
  0
LINE
  5
214
330
1F
100
AcDbEntity
  8
BODY
  6
CONTINUOUS
 62
     7
100
AcDbLine
 10
3126.565756838846
 20
1678.022699570653
 30
0.0
 11
3125.154117083547
 21
1679.434339325953
 31
0.0
  0
LINE
  5
215
330
1F
100
AcDbEntity
  8
BODY
  6
CONTINUOUS
 62
     7
100
AcDbLine
 10
3125.154117083547
 20
1678.022699570653
 30
0.0
 11
3125.154117083547
 21
1696.522699570653
 31
0.0
  0
LINE
  5
216
330
1F
100
AcDbEntity
  8
BODY
  6
CONTINUOUS
 62
     7
100
AcDbLine
 10
3125.154117083547
 20
1685.033027612653
 30
0.0
 11
3136.643789041646
 21
1696.522699570653
 31
0.0
  0
LINE
  5
217
330
1F
100
AcDbEntity
  8
BODY
  6
CONTINUOUS
 62
     7
100
AcDbLine
 10
3139.293678900146
 20
1678.022699570653
 30
0.0
 11
3125.154117083547
 21
1692.162261387253
 31
0.0
  0
LINE
  5
218
330
1F
100
AcDbEntity
  8
BODY
  6
CONTINUOUS
 62
     7
100
AcDbLine
 10
3125.154117083547
 20
1678.022699570653
 30
0.0
 11
3145.154117083546
 21
1678.022699570653
 31
0.0
  0
LINE
  5
219
330
1F
100
AcDbEntity
  8
BODY
  6
CONTINUOUS
 62
     7
100
AcDbLine
 10
3144.154117083547
 20
1697.522699570653
 30
0.0
 11
3126.154117083546
 21
1697.522699570653
 31
0.0
  0
LINE
  5
21A
330
1F
100
AcDbEntity
  8
BODY
  6
CONTINUOUS
 62
     7
100
AcDbLine
 10
3125.154117083547
 20
1696.522699570653
 30
0.0
 11
3145.154117083546
 21
1696.522699570653
 31
0.0
  0
LINE
  5
21B
330
1F
100
AcDbEntity
  8
BODY
  6
CONTINUOUS
 62
     7
100
AcDbLine
 10
3145.154117083546
 20
1689.132824135753
 30
0.0
 11
3137.764241648646
 21
1696.522699570653
 31
0.0
  0
LINE
  5
21C
330
1F
100
AcDbEntity
  8
BODY
  6
CONTINUOUS
 62
     7
100
AcDbLine
 10
3145.154117083546
 20
1684.890183448653
 30
0.0
 11
3133.521600961546
 21
1696.522699570653
 31
0.0
  0
LINE
  5
21D
330
1F
100
AcDbEntity
  8
BODY
  6
CONTINUOUS
 62
     7
100
AcDbLine
 10
3145.154117083546
 20
1680.647542761553
 30
0.0
 11
3129.278960274446
 21
1696.522699570653
 31
0.0
  0
LINE
  5
21E
330
1F
100
AcDbEntity
  8
BODY
  6
CONTINUOUS
 62
     7
100
AcDbLine
 10
3143.536319587346
 20
1678.022699570653
 30
0.0
 11
3125.154117083547
 21
1696.404902074453
 31
0.0
  0
LINE
  5
21F
330
1F
100
AcDbEntity
  8
BODY
  6
CONTINUOUS
 62
     7
100
AcDbLine
 10
3126.629070415947
 20
1678.022699570653
 30
0.0
 11
3145.129070415947
 21
1696.522699570653
 31
0.0
  0
LINE
  5
220
330
1F
100
AcDbEntity
  8
BODY
  6
CONTINUOUS
 62
     7
100
AcDbLine
 10
3130.871711103046
 20
1678.022699570653
 30
0.0
 11
3145.154117083546
 21
1692.305105551253
 31
0.0
  0
LINE
  5
221
330
1F
100
AcDbEntity
  8
BODY
  6
CONTINUOUS
 62
     7
100
AcDbLine
 10
3135.114351790147
 20
1678.022699570653
 30
0.0
 11
3145.154117083546
 21
1688.062464864153
 31
0.0
  0
LINE
  5
222
330
1F
100
AcDbEntity
  8
BODY
  6
CONTINUOUS
 62
     7
100
AcDbLine
 10
3139.356992477246
 20
1678.022699570653
 30
0.0
 11
3145.154117083546
 21
1683.819824177053
 31
0.0
  0
LINE
  5
223
330
1F
100
AcDbEntity
  8
BODY
  6
CONTINUOUS
 62
     7
100
AcDbLine
 10
3125.154117083547
 20
1680.790386925453
 30
0.0
 11
3140.886429728747
 21
1696.522699570653
 31
0.0
  0
LINE
  5
224
330
1F
100
AcDbEntity
  8
BODY
  6
CONTINUOUS
 62
     7
100
AcDbLine
 10
3114.258875560635
 20
1593.290003416044
 30
0.0
 11
3115.158877560635
 21
1593.232017164044
 31
0.0
  0
LINE
  5
225
330
1F
100
AcDbEntity
  8
BODY
  6
CONTINUOUS
 62
     7
100
AcDbLine
 10
3114.258875560635
 20
1593.290004816044
 30
0.0
 11
3115.063061560635
 21
1594.094190716044
 31
0.0
  0
LINE
  5
226
330
1F
100
AcDbEntity
  8
BODY
  6
CONTINUOUS
 62
     7
100
AcDbLine
 10
3115.063061560635
 20
1594.094190216044
 30
0.0
 11
3115.158877560635
 21
1594.088016885543
 31
0.0
  0
LINE
  5
227
330
1F
100
AcDbEntity
  8
BODY
  6
CONTINUOUS
 62
     7
100
AcDbLine
 10
3115.063061560635
 20
1580.950616416044
 30
0.0
 11
3115.063061560635
 21
1594.094190216044
 31
0.0
  0
LINE
  5
228
330
1F
100
AcDbEntity
  8
BODY
  6
CONTINUOUS
 62
     7
100
AcDbLine
 10
3115.063061560635
 20
1580.950616416044
 30
0.0
 11
3115.158877560635
 21
1580.956789746644
 31
0.0
  0
LINE
  5
229
330
1F
100
AcDbEntity
  8
BODY
  6
CONTINUOUS
 62
     7
100
AcDbLine
 10
3114.258875560635
 20
1581.754803216044
 30
0.0
 11
3115.158877560635
 21
1581.812789468044
 31
0.0
  0
LINE
  5
22A
330
1F
100
AcDbEntity
  8
BODY
  6
CONTINUOUS
 62
     7
100
AcDbLine
 10
3114.258875560635
 20
1581.754801816044
 30
0.0
 11
3115.063061560635
 21
1580.950615916044
 31
0.0
  0
LINE
  5
22B
330
1F
100
AcDbEntity
  8
BODY
  6
CONTINUOUS
 62
     7
100
AcDbLine
 10
3114.258875560635
 20
1593.290003416044
 30
0.0
 11
3114.258875560635
 21
1581.754803216044
 31
0.0
  0
LINE
  5
22C
330
1F
100
AcDbEntity
  8
BODY
  6
CONTINUOUS
 62
     7
100
AcDbLine
 10
3302.156209098277
 20
1572.522700648562
 30
0.0
 11
3302.156209098277
 21
1574.522700648562
 31
0.0
  0
LINE
  5
22D
330
1F
100
AcDbEntity
  8
BODY
  6
CONTINUOUS
 62
     7
100
AcDbLine
 10
3302.156209098277
 20
1572.522700648562
 30
0.0
 11
3288.156209098277
 21
1572.522700648562
 31
0.0
  0
LINE
  5
22E
330
1F
100
AcDbEntity
  8
BODY
  6
CONTINUOUS
 62
     7
100
AcDbLine
 10
3288.156209098277
 20
1572.522700648562
 30
0.0
 11
3288.156209098277
 21
1574.522700648562
 31
0.0
  0
LINE
  5
22F
330
1F
100
AcDbEntity
  8
BODY
  6
CONTINUOUS
 62
     7
100
AcDbLine
 10
3142.150332515926
 20
1572.522700648562
 30
0.0
 11
3142.150332515926
 21
1574.522700648562
 31
0.0
  0
LINE
  5
230
330
1F
100
AcDbEntity
  8
BODY
  6
CONTINUOUS
 62
     7
100
AcDbLine
 10
3142.150332515926
 20
1572.522700648562
 30
0.0
 11
3128.150332515926
 21
1572.522700648562
 31
0.0
  0
LINE
  5
231
330
1F
100
AcDbEntity
  8
BODY
  6
CONTINUOUS
 62
     7
100
AcDbLine
 10
3128.150332515926
 20
1572.522700648562
 30
0.0
 11
3128.150332515926
 21
1574.522700648562
 31
0.0
  0
ARC
  5
232
330
1F
100
AcDbEntity
  8
BODY
  6
CONTINUOUS
 62
     7
100
AcDbCircle
 10
3307.156209098277
 20
1679.354857296337
 30
0.0
 40
2.0
100
AcDbArc
 50
180.0
 51
260.405931773148
  0
ARC
  5
233
330
1F
100
AcDbEntity
  8
BODY
  6
CONTINUOUS
 62
     7
100
AcDbCircle
 10
3305.156209098277
 20
1667.522697730138
 30
0.0
 40
10.0
100
AcDbArc
 50
0.0
 51
80.40593177314804
  0
LINE
  5
234
330
1F
100
AcDbEntity
  8
BODY
  6
CONTINUOUS
 62
     7
100
AcDbLine
 10
3315.156209098277
 20
1667.522697730138
 30
0.0
 11
3315.156209098277
 21
1587.522697730138
 31
0.0
  0
LINE
  5
235
330
1F
100
AcDbEntity
  8
BODY
  6
CONTINUOUS
 62
     7
100
AcDbLine
 10
3303.156209098278
 20
1574.522697730138
 30
0.0
 11
3287.156209098277
 21
1574.522697730138
 31
0.0
  0
ARC
  5
236
330
1F
100
AcDbEntity
  8
BODY
  6
CONTINUOUS
 62
     7
100
AcDbCircle
 10
3283.283225752077
 20
1575.522697730138
 30
0.0
 40
2.0
100
AcDbArc
 50
14.47751218590423
 51
90.0
  0
ARC
  5
237
330
1F
100
AcDbEntity
  8
BODY
  6
CONTINUOUS
 62
     7
100
AcDbCircle
 10
3287.156209098277
 20
1576.522697730138
 30
0.0
 40
2.0
100
AcDbArc
 50
194.4775121859042
 51
270.0
  0
ARC
  5
238
330
1F
100
AcDbEntity
  8
BODY
  6
CONTINUOUS
 62
     7
100
AcDbCircle
 10
3303.156209098278
 20
1576.522697730138
 30
0.0
 40
2.0
100
AcDbArc
 50
270.0
 51
347.773034151681
  0
LINE
  5
239
330
1F
100
AcDbEntity
  8
BODY
  6
CONTINUOUS
 62
     7
100
AcDbLine
 10
3117.156735302115
 20
1577.52270100296
 30
0.0
 11
3306.298612640885
 21
1577.522697730138
 31
0.0
  0
ARC
  5
23A
330
1F
100
AcDbEntity
  8
BODY
  6
CONTINUOUS
 62
     7
100
AcDbCircle
 10
3117.156735341516
 20
1579.52270100296
 30
0.0
 40
2.0
100
AcDbArc
 50
180.0
 51
270.0
  0
LINE
  5
23B
330
1F
100
AcDbEntity
  8
BODY
  6
CONTINUOUS
 62
     7
100
AcDbLine
 10
3121.154117083547
 20
1677.320659974093
 30
0.0
 11
3121.154117083547
 21
1677.52270100296
 31
0.0
  0
ARC
  5
23C
330
1F
100
AcDbEntity
  8
BODY
  6
CONTINUOUS
 62
     7
100
AcDbCircle
 10
3125.154117083547
 20
1667.52270100296
 30
0.0
 40
10.0
100
AcDbArc
 50
90.01638575205097
 51
180.0
  0
ARC
  5
23D
330
1F
100
AcDbEntity
  8
BODY
  6
CONTINUOUS
 62
     7
100
AcDbCircle
 10
3120.154117083546
 20
1677.320659974093
 30
0.0
 40
1.0
100
AcDbArc
 50
297.035691789413
 51
0.0
  0
ARC
  5
23E
330
1F
100
AcDbEntity
  8
BODY
  6
CONTINUOUS
 62
     7
100
AcDbCircle
 10
3153.144117084081
 20
1679.522697730137
 30
0.0
 40
2.0
100
AcDbArc
 50
270.0
 51
0.0
  0
LINE
  5
23F
330
1F
100
AcDbEntity
  8
BODY
  6
CONTINUOUS
 62
     7
100
AcDbLine
 10
3121.154117083547
 20
1677.52270100296
 30
0.0
 11
3153.144117084081
 21
1677.522697730138
 31
0.0
  0
LINE
  5
240
330
1F
100
AcDbEntity
  8
BODY
  6
CONTINUOUS
 62
     7
100
AcDbLine
 10
3155.144117084081
 20
1679.522697730137
 30
0.0
 11
3305.156246770726
 21
1679.522697730137
 31
0.0
  0
ARC
  5
241
330
1F
100
AcDbEntity
  8
BODY
  6
CONTINUOUS
 62
     7
100
AcDbCircle
 10
3305.156209098277
 20
1587.522697730138
 30
0.0
 40
10.0
100
AcDbArc
 50
279.1549767315403
 51
0.0
  0
ARC
  5
242
330
1F
100
AcDbEntity
  8
BODY
  6
CONTINUOUS
 62
     7
100
AcDbCircle
 10
3307.065474408423
 20
1575.675558582839
 30
0.0
 40
2.0
100
AcDbArc
 50
99.15497673151457
 51
167.7730341516811
  0
LINE
  5
243
330
1F
100
AcDbEntity
  8
BODY
  6
CONTINUOUS
 62
     7
100
AcDbLine
 10
3305.156246770726
 20
1679.3425817772
 30
0.0
 11
3305.156246770726
 21
1679.522697730137
 31
0.0
  0
ARC
  5
244
330
1F
100
AcDbEntity
  8
BODY
  6
CONTINUOUS
 62
     7
100
AcDbCircle
 10
3127.144561109409
 20
1576.506781979383
 30
0.0
 40
1.984125468318364
100
AcDbArc
 50
203.3758212790381
 51
270.3693200852772
  0
ARC
  5
245
330
1F
100
AcDbEntity
  8
BODY
  6
CONTINUOUS
 62
     7
100
AcDbCircle
 10
3143.166217339241
 20
1576.512501843194
 30
0.0
 40
1.989823869459234
100
AcDbArc
 50
269.7446801353172
 51
345.6261382294425
  0
ARC
  5
246
330
1F
100
AcDbEntity
  8
BODY
  6
CONTINUOUS
 62
     7
100
AcDbCircle
 10
3147.030274204088
 20
1575.518647289811
 30
0.0
 40
2.0
100
AcDbArc
 50
90.00340943479311
 51
165.5258972488963
  0
ARC
  5
247
330
1F
100
AcDbEntity
  8
BODY
  6
CONTINUOUS
 62
     7
100
AcDbCircle
 10
3122.588070564161
 20
1574.546580336238
 30
0.0
 40
2.976120997606542
100
AcDbArc
 50
23.2117324227152
 51
89.9729821654449
  0
LINE
  5
248
330
1F
100
AcDbEntity
  8
BODY
  6
CONTINUOUS
 62
     7
100
AcDbLine
 10
3115.154117260604
 20
1667.516750056896
 30
0.0
 11
3115.156735342401
 21
1579.522641497117
 31
0.0
  0
LINE
  5
249
330
1F
100
AcDbEntity
  8
BODY
  6
CONTINUOUS
 62
     7
100
AcDbLine
 10
3153.144116879467
 20
1677.522697730138
 30
0.0
 11
3306.354217001069
 21
1677.522697730138
 31
0.0
  0
ARC
  5
24A
330
1F
100
AcDbEntity
  8
BODY
  6
CONTINUOUS
 62
     7
100
AcDbCircle
 10
3671.656209098227
 20
1693.022697730136
 30
0.0
 40
2.0
100
AcDbArc
 50
0.0
 51
90.0
  0
ARC
  5
24B
330
1F
100
AcDbEntity
  8
BODY
  6
CONTINUOUS
 62
     7
100
AcDbCircle
 10
3558.656209098227
 20
1693.022697730138
 30
0.0
 40
2.0
100
AcDbArc
 50
90.0
 51
180.0
  0
LINE
  5
24C
330
1F
100
AcDbEntity
  8
BODY
  6
CONTINUOUS
 62
     7
100
AcDbLine
 10
3664.656209098228
 20
1695.022697730137
 30
0.0
 11
3671.656209098225
 21
1695.022697730136
 31
0.0
  0
LINE
  5
24D
330
1F
100
AcDbEntity
  8
BODY
  6
CONTINUOUS
 62
     7
100
AcDbLine
 10
3673.656209098227
 20
1688.022697730136
 30
0.0
 11
3673.656209098227
 21
1693.022697730136
 31
0.0
  0
LINE
  5
24E
330
1F
100
AcDbEntity
  8
BODY
  6
CONTINUOUS
 62
     7
100
AcDbLine
 10
3558.656209098227
 20
1695.022697730138
 30
0.0
 11
3562.656209004728
 21
1695.022697730138
 31
0.0
  0
LINE
  5
24F
330
1F
100
AcDbEntity
  8
BODY
  6
CONTINUOUS
 62
     7
100
AcDbLine
 10
3556.656209098227
 20
1687.522697730138
 30
0.0
 11
3556.656209098227
 21
1693.022697730138
 31
0.0
  0
ARC
  5
250
330
1F
100
AcDbEntity
  8
BODY
  6
CONTINUOUS
 62
     7
100
AcDbCircle
 10
3211.656209098277
 20
1693.022697730138
 30
0.0
 40
2.0
100
AcDbArc
 50
0.0
 51
90.0
  0
LINE
  5
251
330
1F
100
AcDbEntity
  8
BODY
  6
CONTINUOUS
 62
     7
100
AcDbLine
 10
3213.656209098278
 20
1688.022697730138
 30
0.0
 11
3213.656209098278
 21
1693.022697730138
 31
0.0
  0
LINE
  5
252
330
1F
100
AcDbEntity
  8
BODY
  6
CONTINUOUS
 62
     7
100
AcDbLine
 10
3630.156209098228
 20
1885.022697730138
 30
0.0
 11
3658.435059218302
 21
1885.022697730138
 31
0.0
  0
ARC
  5
253
330
1F
100
AcDbEntity
  8
BODY
  6
CONTINUOUS
 62
     7
100
AcDbCircle
 10
3598.156209098228
 20
1929.022697730139
 30
0.0
 40
2.0
100
AcDbArc
 50
90.0
 51
180.0
  0
LINE
  5
254
330
1F
100
AcDbEntity
  8
BODY
  6
CONTINUOUS
 62
     7
100
AcDbLine
 10
3598.156209098228
 20
1931.022697730139
 30
0.0
 11
3600.156209098229
 21
1931.022697730139
 31
0.0
  0
LINE
  5
255
330
1F
100
AcDbEntity
  8
BODY
  6
CONTINUOUS
 62
     7
100
AcDbLine
 10
3596.156209098227
 20
1929.022697730139
 30
0.0
 11
3596.156209098227
 21
1885.022697730138
 31
0.0
  0
LINE
  5
256
330
1F
100
AcDbEntity
  8
BODY
  6
CONTINUOUS
 62
     7
100
AcDbLine
 10
3634.156209098228
 20
1929.022697730139
 30
0.0
 11
3634.156209098228
 21
1885.022697730138
 31
0.0
  0
LINE
  5
257
330
1F
100
AcDbEntity
  8
BODY
  6
CONTINUOUS
 62
     7
100
AcDbLine
 10
3647.156209098227
 20
1844.016243730138
 30
0.0
 11
3626.156209098228
 21
1844.016243730138
 31
0.0
  0
ARC
  5
258
330
1F
100
AcDbEntity
  8
BODY
  6
CONTINUOUS
 62
     7
100
AcDbCircle
 10
3604.156209098227
 20
1847.016243730138
 30
0.0
 40
3.0
100
AcDbArc
 50
270.0
 51
0.0
  0
ARC
  5
259
330
1F
100
AcDbEntity
  8
BODY
  6
CONTINUOUS
 62
     7
100
AcDbCircle
 10
3626.156209098228
 20
1847.016243730138
 30
0.0
 40
3.0
100
AcDbArc
 50
180.0
 51
270.0
  0
LINE
  5
25A
330
1F
100
AcDbEntity
  8
BODY
  6
CONTINUOUS
 62
     7
100
AcDbLine
 10
3565.156209098228
 20
1771.522697675137
 30
0.0
 11
3565.156209098228
 21
1832.522697730138
 31
0.0
  0
LINE
  5
25B
330
1F
100
AcDbEntity
  8
BODY
  6
CONTINUOUS
 62
     7
100
AcDbLine
 10
3565.156209098228
 20
1832.522697730138
 30
0.0
 11
3565.656209098227
 21
1833.022697730138
 31
0.0
  0
LINE
  5
25C
330
1F
100
AcDbEntity
  8
BODY
  6
CONTINUOUS
 62
     7
100
AcDbLine
 10
3665.156209098228
 20
1722.522697730138
 30
0.0
 11
3665.156209098228
 21
1733.84557338567
 31
0.0
  0
LINE
  5
25D
330
1F
100
AcDbEntity
  8
BODY
  6
CONTINUOUS
 62
     7
100
AcDbLine
 10
3665.156209098228
 20
1832.522697730138
 30
0.0
 11
3664.656209098227
 21
1833.022697730138
 31
0.0
  0
LINE
  5
25E
330
1F
100
AcDbEntity
  8
BODY
  6
CONTINUOUS
 62
     7
100
AcDbLine
 10
3605.156209098228
 20
1862.022697730138
 30
0.0
 11
3612.156209098228
 21
1862.022697730138
 31
0.0
  0
ARC
  5
25F
330
1F
100
AcDbEntity
  8
BODY
  6
CONTINUOUS
 62
     7
100
AcDbCircle
 10
3645.156209098227
 20
1880.022697730138
 30
0.0
 40
5.0
100
AcDbArc
 50
0.0
 51
90.0
  0
LINE
  5
260
330
1F
100
AcDbEntity
  8
BODY
  6
CONTINUOUS
 62
     7
100
AcDbLine
 10
3607.156209098227
 20
1862.022697730138
 30
0.0
 11
3607.156209098227
 21
1847.016243730138
 31
0.0
  0
LINE
  5
261
330
1F
100
AcDbEntity
  8
BODY
  6
CONTINUOUS
 62
     7
100
AcDbLine
 10
3623.156209098227
 20
1862.022697730138
 30
0.0
 11
3623.156209098228
 21
1847.016243730138
 31
0.0
  0
LINE
  5
262
330
1F
100
AcDbEntity
  8
BODY
  6
CONTINUOUS
 62
     7
100
AcDbLine
 10
3650.156209098227
 20
1880.022697730138
 30
0.0
 11
3650.156209098227
 21
1847.016243730138
 31
0.0
  0
ARC
  5
263
330
1F
100
AcDbEntity
  8
BODY
  6
CONTINUOUS
 62
     7
100
AcDbCircle
 10
3647.156209098227
 20
1847.016243730138
 30
0.0
 40
3.0
100
AcDbArc
 50
270.0
 51
0.0
  0
ARC
  5
264
330
1F
100
AcDbEntity
  8
BODY
  6
CONTINUOUS
 62
     7
100
AcDbCircle
 10
3585.156209098228
 20
1880.022697730138
 30
0.0
 40
5.0
100
AcDbArc
 50
90.0
 51
180.0
  0
LINE
  5
265
330
1F
100
AcDbEntity
  8
BODY
  6
CONTINUOUS
 62
     7
100
AcDbLine
 10
3580.156209098228
 20
1880.022697730138
 30
0.0
 11
3580.156209098228
 21
1847.016243730138
 31
0.0
  0
ARC
  5
266
330
1F
100
AcDbEntity
  8
BODY
  6
CONTINUOUS
 62
     7
100
AcDbCircle
 10
3583.156209098228
 20
1847.016243730138
 30
0.0
 40
3.0
100
AcDbArc
 50
180.0
 51
270.0
  0
LINE
  5
267
330
1F
100
AcDbEntity
  8
BODY
  6
CONTINUOUS
 62
     7
100
AcDbLine
 10
3604.156209098227
 20
1844.016243730138
 30
0.0
 11
3583.156209098228
 21
1844.016243730138
 31
0.0
  0
LINE
  5
268
330
1F
100
AcDbEntity
  8
BODY
  6
CONTINUOUS
 62
     7
100
AcDbLine
 10
3663.432013353426
 20
1880.197195212838
 30
0.0
 11
3665.079383098229
 21
1833.022697730138
 31
0.0
  0
LINE
  5
269
330
1F
100
AcDbEntity
  8
BODY
  6
CONTINUOUS
 62
     7
100
AcDbLine
 10
3565.233035098228
 20
1833.022697730138
 30
0.0
 11
3665.079383098229
 21
1833.022697730138
 31
0.0
  0
LINE
  5
26A
330
1F
100
AcDbEntity
  8
BODY
  6
CONTINUOUS
 62
     7
100
AcDbLine
 10
3566.880403489415
 20
1880.197195070158
 30
0.0
 11
3565.233035098228
 21
1833.022697730138
 31
0.0
  0
LINE
  5
26B
330
1F
100
AcDbEntity
  8
BODY
  6
CONTINUOUS
 62
     7
100
AcDbLine
 10
3571.877357629521
 20
1885.022697730138
 30
0.0
 11
3600.156209098229
 21
1885.022697730138
 31
0.0
  0
LINE
  5
26C
330
1F
100
AcDbEntity
  8
BODY
  6
CONTINUOUS
 62
     7
100
AcDbLine
 10
3625.156209098228
 20
1871.522697730138
 30
0.0
 11
3605.156209098228
 21
1871.522697730138
 31
0.0
  0
LINE
  5
26D
330
1F
100
AcDbEntity
  8
BODY
  6
CONTINUOUS
 62
     7
100
AcDbLine
 10
3625.156209098228
 20
1867.872697730138
 30
0.0
 11
3605.156209098228
 21
1867.872697730138
 31
0.0
  0
LINE
  5
26E
330
1F
100
AcDbEntity
  8
BODY
  6
CONTINUOUS
 62
     7
100
AcDbLine
 10
3626.156209098228
 20
1870.522697730137
 30
0.0
 11
3626.156209098228
 21
1868.872697730138
 31
0.0
  0
LINE
  5
26F
330
1F
100
AcDbEntity
  8
BODY
  6
CONTINUOUS
 62
     7
100
AcDbLine
 10
3624.156209098228
 20
1873.022697730138
 30
0.0
 11
3624.156209098228
 21
1871.522697730138
 31
0.0
  0
LINE
  5
270
330
1F
100
AcDbEntity
  8
BODY
  6
CONTINUOUS
 62
     7
100
AcDbLine
 10
3604.156209098228
 20
1870.522697730137
 30
0.0
 11
3604.156209098228
 21
1868.872697730138
 31
0.0
  0
LINE
  5
271
330
1F
100
AcDbEntity
  8
BODY
  6
CONTINUOUS
 62
     7
100
AcDbLine
 10
3606.156209098228
 20
1873.022697730138
 30
0.0
 11
3606.156209098228
 21
1871.522697730138
 31
0.0
  0
ARC
  5
272
330
1F
100
AcDbEntity
  8
BODY
  6
CONTINUOUS
 62
     7
100
AcDbCircle
 10
3625.156209098228
 20
1870.522697730137
 30
0.0
 40
1.0
100
AcDbArc
 50
0.0
 51
90.0
  0
ARC
  5
273
330
1F
100
AcDbEntity
  8
BODY
  6
CONTINUOUS
 62
     7
100
AcDbCircle
 10
3625.156209098228
 20
1868.872697730138
 30
0.0
 40
1.0
100
AcDbArc
 50
270.0
 51
0.0
  0
ARC
  5
274
330
1F
100
AcDbEntity
  8
BODY
  6
CONTINUOUS
 62
     7
100
AcDbCircle
 10
3605.156209098228
 20
1868.872697730138
 30
0.0
 40
1.0
100
AcDbArc
 50
180.0
 51
270.0
  0
ARC
  5
275
330
1F
100
AcDbEntity
  8
BODY
  6
CONTINUOUS
 62
     7
100
AcDbCircle
 10
3605.156209098228
 20
1870.522697730137
 30
0.0
 40
1.0
100
AcDbArc
 50
90.0
 51
180.0
  0
POINT
  5
276
330
1F
100
AcDbEntity
  8
BODY
  6
CONTINUOUS
 62
     7
100
AcDbPoint
 10
3265.156209098278
 20
1954.022697730138
 30
0.0
  0
ARC
  5
277
330
1F
100
AcDbEntity
  8
BODY
  6
CONTINUOUS
 62
     7
100
AcDbCircle
 10
3264.981209098278
 20
1952.202697730138
 30
0.0
 40
0.35
100
AcDbArc
 50
180.0
 51
270.0
  0
ARC
  5
278
330
1F
100
AcDbEntity
  8
BODY
  6
CONTINUOUS
 62
     7
100
AcDbCircle
 10
3263.931209098279
 20
1952.797697730139
 30
0.0
 40
0.7
100
AcDbArc
 50
0.0
 51
90.0
  0
ARC
  5
279
330
1F
100
AcDbEntity
  8
BODY
  6
CONTINUOUS
 62
     7
100
AcDbCircle
 10
3263.931209098279
 20
1955.247697730138
 30
0.0
 40
0.7
100
AcDbArc
 50
270.0
 51
0.0
  0
ARC
  5
27A
330
1F
100
AcDbEntity
  8
BODY
  6
CONTINUOUS
 62
     7
100
AcDbCircle
 10
3266.381209098278
 20
1955.247697730138
 30
0.0
 40
0.7
100
AcDbArc
 50
180.0
 51
270.0
  0
ARC
  5
27B
330
1F
100
AcDbEntity
  8
BODY
  6
CONTINUOUS
 62
     7
100
AcDbCircle
 10
3263.336209098279
 20
1953.847697730139
 30
0.0
 40
0.35
100
AcDbArc
 50
180.0
 51
270.0
  0
ARC
  5
27C
330
1F
100
AcDbEntity
  8
BODY
  6
CONTINUOUS
 62
     7
100
AcDbCircle
 10
3263.336209098279
 20
1954.197697730138
 30
0.0
 40
0.35
100
AcDbArc
 50
90.0
 51
180.0
  0
ARC
  5
27D
330
1F
100
AcDbEntity
  8
BODY
  6
CONTINUOUS
 62
     7
100
AcDbCircle
 10
3264.981209098278
 20
1955.842697730138
 30
0.0
 40
0.35
100
AcDbArc
 50
90.0
 51
180.0
  0
ARC
  5
27E
330
1F
100
AcDbEntity
  8
BODY
  6
CONTINUOUS
 62
     7
100
AcDbCircle
 10
3265.331209098278
 20
1955.842697730138
 30
0.0
 40
0.35
100
AcDbArc
 50
0.0
 51
90.0
  0
ARC
  5
27F
330
1F
100
AcDbEntity
  8
BODY
  6
CONTINUOUS
 62
     7
100
AcDbCircle
 10
3266.976209098278
 20
1954.197697730138
 30
0.0
 40
0.35
100
AcDbArc
 50
0.0
 51
90.0
  0
ARC
  5
280
330
1F
100
AcDbEntity
  8
BODY
  6
CONTINUOUS
 62
     7
100
AcDbCircle
 10
3266.976209098278
 20
1953.847697730139
 30
0.0
 40
0.35
100
AcDbArc
 50
270.0
 51
0.0
  0
ARC
  5
281
330
1F
100
AcDbEntity
  8
BODY
  6
CONTINUOUS
 62
     7
100
AcDbCircle
 10
3265.331209098278
 20
1952.202697730138
 30
0.0
 40
0.35
100
AcDbArc
 50
270.0
 51
0.0
  0
ARC
  5
282
330
1F
100
AcDbEntity
  8
BODY
  6
CONTINUOUS
 62
     7
100
AcDbCircle
 10
3266.381209098278
 20
1952.797697730139
 30
0.0
 40
0.7
100
AcDbArc
 50
90.0
 51
180.0
  0
LINE
  5
283
330
1F
100
AcDbEntity
  8
BODY
  6
CONTINUOUS
 62
     7
100
AcDbLine
 10
3265.681209098278
 20
1952.797697730139
 30
0.0
 11
3265.681209098278
 21
1952.202697730138
 31
0.0
  0
LINE
  5
284
330
1F
100
AcDbEntity
  8
BODY
  6
CONTINUOUS
 62
     7
100
AcDbLine
 10
3265.156209098278
 20
1951.852697730138
 30
0.0
 11
3265.331209098278
 21
1951.852697730138
 31
0.0
  0
LINE
  5
285
330
1F
100
AcDbEntity
  8
BODY
  6
CONTINUOUS
 62
     7
100
AcDbLine
 10
3264.631209098278
 20
1952.797697730139
 30
0.0
 11
3264.631209098278
 21
1952.202697730138
 31
0.0
  0
LINE
  5
286
330
1F
100
AcDbEntity
  8
BODY
  6
CONTINUOUS
 62
     7
100
AcDbLine
 10
3265.156209098278
 20
1951.852697730138
 30
0.0
 11
3264.981209098278
 21
1951.852697730138
 31
0.0
  0
LINE
  5
287
330
1F
100
AcDbEntity
  8
BODY
  6
CONTINUOUS
 62
     7
100
AcDbLine
 10
3263.931209098279
 20
1953.497697730139
 30
0.0
 11
3263.336209098279
 21
1953.497697730139
 31
0.0
  0
LINE
  5
288
330
1F
100
AcDbEntity
  8
BODY
  6
CONTINUOUS
 62
     7
100
AcDbLine
 10
3262.986209098278
 20
1954.022697730138
 30
0.0
 11
3262.986209098278
 21
1953.847697730139
 31
0.0
  0
LINE
  5
289
330
1F
100
AcDbEntity
  8
BODY
  6
CONTINUOUS
 62
     7
100
AcDbLine
 10
3263.931209098279
 20
1954.547697730139
 30
0.0
 11
3263.336209098279
 21
1954.547697730139
 31
0.0
  0
LINE
  5
28A
330
1F
100
AcDbEntity
  8
BODY
  6
CONTINUOUS
 62
     7
100
AcDbLine
 10
3262.986209098278
 20
1954.022697730138
 30
0.0
 11
3262.986209098278
 21
1954.197697730138
 31
0.0
  0
LINE
  5
28B
330
1F
100
AcDbEntity
  8
BODY
  6
CONTINUOUS
 62
     7
100
AcDbLine
 10
3264.631209098278
 20
1955.247697730138
 30
0.0
 11
3264.631209098278
 21
1955.842697730138
 31
0.0
  0
LINE
  5
28C
330
1F
100
AcDbEntity
  8
BODY
  6
CONTINUOUS
 62
     7
100
AcDbLine
 10
3265.156209098278
 20
1956.192697730138
 30
0.0
 11
3264.981209098278
 21
1956.192697730138
 31
0.0
  0
LINE
  5
28D
330
1F
100
AcDbEntity
  8
BODY
  6
CONTINUOUS
 62
     7
100
AcDbLine
 10
3265.681209098278
 20
1955.247697730138
 30
0.0
 11
3265.681209098278
 21
1955.842697730138
 31
0.0
  0
LINE
  5
28E
330
1F
100
AcDbEntity
  8
BODY
  6
CONTINUOUS
 62
     7
100
AcDbLine
 10
3265.156209098278
 20
1956.192697730138
 30
0.0
 11
3265.331209098278
 21
1956.192697730138
 31
0.0
  0
LINE
  5
28F
330
1F
100
AcDbEntity
  8
BODY
  6
CONTINUOUS
 62
     7
100
AcDbLine
 10
3266.381209098278
 20
1954.547697730139
 30
0.0
 11
3266.976209098278
 21
1954.547697730139
 31
0.0
  0
LINE
  5
290
330
1F
100
AcDbEntity
  8
BODY
  6
CONTINUOUS
 62
     7
100
AcDbLine
 10
3267.326209098278
 20
1954.022697730138
 30
0.0
 11
3267.326209098278
 21
1954.197697730138
 31
0.0
  0
LINE
  5
291
330
1F
100
AcDbEntity
  8
BODY
  6
CONTINUOUS
 62
     7
100
AcDbLine
 10
3266.381209098278
 20
1953.497697730139
 30
0.0
 11
3266.976209098278
 21
1953.497697730139
 31
0.0
  0
LINE
  5
292
330
1F
100
AcDbEntity
  8
BODY
  6
CONTINUOUS
 62
     7
100
AcDbLine
 10
3267.326209098278
 20
1954.022697730138
 30
0.0
 11
3267.326209098278
 21
1953.847697730139
 31
0.0
  0
CIRCLE
  5
293
330
1F
100
AcDbEntity
  8
BODY
  6
CONTINUOUS
 62
     7
100
AcDbCircle
 10
3265.156209098278
 20
1954.022697730138
 30
0.0
 40
4.0
  0
CIRCLE
  5
294
330
1F
100
AcDbEntity
  8
BODY
  6
CONTINUOUS
 62
     7
100
AcDbCircle
 10
3265.156209098278
 20
1954.022697730138
 30
0.0
 40
3.5
  0
POINT
  5
295
330
1F
100
AcDbEntity
  8
BODY
  6
CONTINUOUS
 62
     7
100
AcDbPoint
 10
3096.156209098278
 20
1954.022697730138
 30
0.0
  0
ARC
  5
296
330
1F
100
AcDbEntity
  8
BODY
  6
CONTINUOUS
 62
     7
100
AcDbCircle
 10
3095.981209098278
 20
1952.202697730139
 30
0.0
 40
0.35
100
AcDbArc
 50
180.0
 51
270.0
  0
ARC
  5
297
330
1F
100
AcDbEntity
  8
BODY
  6
CONTINUOUS
 62
     7
100
AcDbCircle
 10
3094.931209098278
 20
1952.797697730139
 30
0.0
 40
0.7
100
AcDbArc
 50
0.0
 51
90.0
  0
ARC
  5
298
330
1F
100
AcDbEntity
  8
BODY
  6
CONTINUOUS
 62
     7
100
AcDbCircle
 10
3094.931209098278
 20
1955.247697730138
 30
0.0
 40
0.7
100
AcDbArc
 50
270.0
 51
0.0
  0
ARC
  5
299
330
1F
100
AcDbEntity
  8
BODY
  6
CONTINUOUS
 62
     7
100
AcDbCircle
 10
3097.381209098279
 20
1955.247697730138
 30
0.0
 40
0.7
100
AcDbArc
 50
180.0
 51
270.0
  0
ARC
  5
29A
330
1F
100
AcDbEntity
  8
BODY
  6
CONTINUOUS
 62
     7
100
AcDbCircle
 10
3094.336209098278
 20
1953.847697730139
 30
0.0
 40
0.35
100
AcDbArc
 50
180.0
 51
270.0
  0
ARC
  5
29B
330
1F
100
AcDbEntity
  8
BODY
  6
CONTINUOUS
 62
     7
100
AcDbCircle
 10
3094.336209098278
 20
1954.197697730138
 30
0.0
 40
0.35
100
AcDbArc
 50
90.0
 51
180.0
  0
ARC
  5
29C
330
1F
100
AcDbEntity
  8
BODY
  6
CONTINUOUS
 62
     7
100
AcDbCircle
 10
3095.981209098278
 20
1955.842697730138
 30
0.0
 40
0.35
100
AcDbArc
 50
90.0
 51
180.0
  0
ARC
  5
29D
330
1F
100
AcDbEntity
  8
BODY
  6
CONTINUOUS
 62
     7
100
AcDbCircle
 10
3096.331209098278
 20
1955.842697730138
 30
0.0
 40
0.35
100
AcDbArc
 50
0.0
 51
90.0
  0
ARC
  5
29E
330
1F
100
AcDbEntity
  8
BODY
  6
CONTINUOUS
 62
     7
100
AcDbCircle
 10
3097.976209098278
 20
1954.197697730138
 30
0.0
 40
0.35
100
AcDbArc
 50
0.0
 51
90.0
  0
ARC
  5
29F
330
1F
100
AcDbEntity
  8
BODY
  6
CONTINUOUS
 62
     7
100
AcDbCircle
 10
3097.976209098278
 20
1953.847697730139
 30
0.0
 40
0.35
100
AcDbArc
 50
270.0
 51
0.0
  0
ARC
  5
2A0
330
1F
100
AcDbEntity
  8
BODY
  6
CONTINUOUS
 62
     7
100
AcDbCircle
 10
3096.331209098278
 20
1952.202697730139
 30
0.0
 40
0.35
100
AcDbArc
 50
270.0
 51
0.0
  0
ARC
  5
2A1
330
1F
100
AcDbEntity
  8
BODY
  6
CONTINUOUS
 62
     7
100
AcDbCircle
 10
3097.381209098279
 20
1952.797697730139
 30
0.0
 40
0.7
100
AcDbArc
 50
90.0
 51
180.0
  0
LINE
  5
2A2
330
1F
100
AcDbEntity
  8
BODY
  6
CONTINUOUS
 62
     7
100
AcDbLine
 10
3096.681209098278
 20
1952.797697730139
 30
0.0
 11
3096.681209098278
 21
1952.202697730139
 31
0.0
  0
LINE
  5
2A3
330
1F
100
AcDbEntity
  8
BODY
  6
CONTINUOUS
 62
     7
100
AcDbLine
 10
3096.156209098278
 20
1951.852697730138
 30
0.0
 11
3096.331209098278
 21
1951.852697730138
 31
0.0
  0
LINE
  5
2A4
330
1F
100
AcDbEntity
  8
BODY
  6
CONTINUOUS
 62
     7
100
AcDbLine
 10
3095.631209098279
 20
1952.797697730139
 30
0.0
 11
3095.631209098279
 21
1952.202697730139
 31
0.0
  0
LINE
  5
2A5
330
1F
100
AcDbEntity
  8
BODY
  6
CONTINUOUS
 62
     7
100
AcDbLine
 10
3096.156209098278
 20
1951.852697730138
 30
0.0
 11
3095.981209098278
 21
1951.852697730138
 31
0.0
  0
LINE
  5
2A6
330
1F
100
AcDbEntity
  8
BODY
  6
CONTINUOUS
 62
     7
100
AcDbLine
 10
3094.931209098278
 20
1953.497697730139
 30
0.0
 11
3094.336209098278
 21
1953.497697730139
 31
0.0
  0
LINE
  5
2A7
330
1F
100
AcDbEntity
  8
BODY
  6
CONTINUOUS
 62
     7
100
AcDbLine
 10
3093.986209098278
 20
1954.022697730138
 30
0.0
 11
3093.986209098278
 21
1953.847697730139
 31
0.0
  0
LINE
  5
2A8
330
1F
100
AcDbEntity
  8
BODY
  6
CONTINUOUS
 62
     7
100
AcDbLine
 10
3094.931209098278
 20
1954.547697730139
 30
0.0
 11
3094.336209098278
 21
1954.547697730139
 31
0.0
  0
LINE
  5
2A9
330
1F
100
AcDbEntity
  8
BODY
  6
CONTINUOUS
 62
     7
100
AcDbLine
 10
3093.986209098278
 20
1954.022697730138
 30
0.0
 11
3093.986209098278
 21
1954.197697730138
 31
0.0
  0
LINE
  5
2AA
330
1F
100
AcDbEntity
  8
BODY
  6
CONTINUOUS
 62
     7
100
AcDbLine
 10
3095.631209098279
 20
1955.247697730138
 30
0.0
 11
3095.631209098279
 21
1955.842697730138
 31
0.0
  0
LINE
  5
2AB
330
1F
100
AcDbEntity
  8
BODY
  6
CONTINUOUS
 62
     7
100
AcDbLine
 10
3096.156209098278
 20
1956.192697730138
 30
0.0
 11
3095.981209098278
 21
1956.192697730138
 31
0.0
  0
LINE
  5
2AC
330
1F
100
AcDbEntity
  8
BODY
  6
CONTINUOUS
 62
     7
100
AcDbLine
 10
3096.681209098278
 20
1955.247697730138
 30
0.0
 11
3096.681209098278
 21
1955.842697730138
 31
0.0
  0
LINE
  5
2AD
330
1F
100
AcDbEntity
  8
BODY
  6
CONTINUOUS
 62
     7
100
AcDbLine
 10
3096.156209098278
 20
1956.192697730138
 30
0.0
 11
3096.331209098278
 21
1956.192697730138
 31
0.0
  0
LINE
  5
2AE
330
1F
100
AcDbEntity
  8
BODY
  6
CONTINUOUS
 62
     7
100
AcDbLine
 10
3097.381209098279
 20
1954.547697730139
 30
0.0
 11
3097.976209098278
 21
1954.547697730139
 31
0.0
  0
LINE
  5
2AF
330
1F
100
AcDbEntity
  8
BODY
  6
CONTINUOUS
 62
     7
100
AcDbLine
 10
3098.326209098278
 20
1954.022697730138
 30
0.0
 11
3098.326209098278
 21
1954.197697730138
 31
0.0
  0
LINE
  5
2B0
330
1F
100
AcDbEntity
  8
BODY
  6
CONTINUOUS
 62
     7
100
AcDbLine
 10
3097.381209098279
 20
1953.497697730139
 30
0.0
 11
3097.976209098278
 21
1953.497697730139
 31
0.0
  0
LINE
  5
2B1
330
1F
100
AcDbEntity
  8
BODY
  6
CONTINUOUS
 62
     7
100
AcDbLine
 10
3098.326209098278
 20
1954.022697730138
 30
0.0
 11
3098.326209098278
 21
1953.847697730139
 31
0.0
  0
CIRCLE
  5
2B2
330
1F
100
AcDbEntity
  8
BODY
  6
CONTINUOUS
 62
     7
100
AcDbCircle
 10
3096.156209098278
 20
1954.022697730138
 30
0.0
 40
4.0
  0
CIRCLE
  5
2B3
330
1F
100
AcDbEntity
  8
BODY
  6
CONTINUOUS
 62
     7
100
AcDbCircle
 10
3096.156209098278
 20
1954.022697730138
 30
0.0
 40
3.5
  0
POINT
  5
2B4
330
1F
100
AcDbEntity
  8
BODY
  6
CONTINUOUS
 62
     7
100
AcDbPoint
 10
3093.156209098278
 20
1821.022697730138
 30
0.0
  0
ARC
  5
2B5
330
1F
100
AcDbEntity
  8
BODY
  6
CONTINUOUS
 62
     7
100
AcDbCircle
 10
3092.981209098278
 20
1819.202697730138
 30
0.0
 40
0.35
100
AcDbArc
 50
180.0
 51
270.0
  0
ARC
  5
2B6
330
1F
100
AcDbEntity
  8
BODY
  6
CONTINUOUS
 62
     7
100
AcDbCircle
 10
3091.931209098278
 20
1819.797697730138
 30
0.0
 40
0.7
100
AcDbArc
 50
0.0
 51
90.0
  0
ARC
  5
2B7
330
1F
100
AcDbEntity
  8
BODY
  6
CONTINUOUS
 62
     7
100
AcDbCircle
 10
3091.931209098278
 20
1822.247697730139
 30
0.0
 40
0.7
100
AcDbArc
 50
270.0
 51
0.0
  0
ARC
  5
2B8
330
1F
100
AcDbEntity
  8
BODY
  6
CONTINUOUS
 62
     7
100
AcDbCircle
 10
3094.381209098278
 20
1822.247697730139
 30
0.0
 40
0.7
100
AcDbArc
 50
180.0
 51
270.0
  0
ARC
  5
2B9
330
1F
100
AcDbEntity
  8
BODY
  6
CONTINUOUS
 62
     7
100
AcDbCircle
 10
3091.336209098277
 20
1820.847697730139
 30
0.0
 40
0.35
100
AcDbArc
 50
180.0
 51
270.0
  0
ARC
  5
2BA
330
1F
100
AcDbEntity
  8
BODY
  6
CONTINUOUS
 62
     7
100
AcDbCircle
 10
3091.336209098277
 20
1821.197697730138
 30
0.0
 40
0.35
100
AcDbArc
 50
90.0
 51
180.0
  0
ARC
  5
2BB
330
1F
100
AcDbEntity
  8
BODY
  6
CONTINUOUS
 62
     7
100
AcDbCircle
 10
3092.981209098278
 20
1822.842697730138
 30
0.0
 40
0.35
100
AcDbArc
 50
90.0
 51
180.0
  0
ARC
  5
2BC
330
1F
100
AcDbEntity
  8
BODY
  6
CONTINUOUS
 62
     7
100
AcDbCircle
 10
3093.331209098277
 20
1822.842697730138
 30
0.0
 40
0.35
100
AcDbArc
 50
0.0
 51
90.0
  0
ARC
  5
2BD
330
1F
100
AcDbEntity
  8
BODY
  6
CONTINUOUS
 62
     7
100
AcDbCircle
 10
3094.976209098278
 20
1821.197697730138
 30
0.0
 40
0.35
100
AcDbArc
 50
0.0
 51
90.0
  0
ARC
  5
2BE
330
1F
100
AcDbEntity
  8
BODY
  6
CONTINUOUS
 62
     7
100
AcDbCircle
 10
3094.976209098278
 20
1820.847697730139
 30
0.0
 40
0.35
100
AcDbArc
 50
270.0
 51
0.0
  0
ARC
  5
2BF
330
1F
100
AcDbEntity
  8
BODY
  6
CONTINUOUS
 62
     7
100
AcDbCircle
 10
3093.331209098277
 20
1819.202697730138
 30
0.0
 40
0.35
100
AcDbArc
 50
270.0
 51
0.0
  0
ARC
  5
2C0
330
1F
100
AcDbEntity
  8
BODY
  6
CONTINUOUS
 62
     7
100
AcDbCircle
 10
3094.381209098278
 20
1819.797697730138
 30
0.0
 40
0.7
100
AcDbArc
 50
90.0
 51
180.0
  0
LINE
  5
2C1
330
1F
100
AcDbEntity
  8
BODY
  6
CONTINUOUS
 62
     7
100
AcDbLine
 10
3093.681209098278
 20
1819.797697730138
 30
0.0
 11
3093.681209098278
 21
1819.202697730138
 31
0.0
  0
LINE
  5
2C2
330
1F
100
AcDbEntity
  8
BODY
  6
CONTINUOUS
 62
     7
100
AcDbLine
 10
3093.156209098278
 20
1818.852697730138
 30
0.0
 11
3093.331209098277
 21
1818.852697730138
 31
0.0
  0
LINE
  5
2C3
330
1F
100
AcDbEntity
  8
BODY
  6
CONTINUOUS
 62
     7
100
AcDbLine
 10
3092.631209098279
 20
1819.797697730138
 30
0.0
 11
3092.631209098279
 21
1819.202697730138
 31
0.0
  0
LINE
  5
2C4
330
1F
100
AcDbEntity
  8
BODY
  6
CONTINUOUS
 62
     7
100
AcDbLine
 10
3093.156209098278
 20
1818.852697730138
 30
0.0
 11
3092.981209098278
 21
1818.852697730138
 31
0.0
  0
LINE
  5
2C5
330
1F
100
AcDbEntity
  8
BODY
  6
CONTINUOUS
 62
     7
100
AcDbLine
 10
3091.931209098278
 20
1820.497697730138
 30
0.0
 11
3091.336209098277
 21
1820.497697730138
 31
0.0
  0
LINE
  5
2C6
330
1F
100
AcDbEntity
  8
BODY
  6
CONTINUOUS
 62
     7
100
AcDbLine
 10
3090.986209098278
 20
1821.022697730138
 30
0.0
 11
3090.986209098278
 21
1820.847697730139
 31
0.0
  0
LINE
  5
2C7
330
1F
100
AcDbEntity
  8
BODY
  6
CONTINUOUS
 62
     7
100
AcDbLine
 10
3091.931209098278
 20
1821.547697730139
 30
0.0
 11
3091.336209098277
 21
1821.547697730139
 31
0.0
  0
LINE
  5
2C8
330
1F
100
AcDbEntity
  8
BODY
  6
CONTINUOUS
 62
     7
100
AcDbLine
 10
3090.986209098278
 20
1821.022697730138
 30
0.0
 11
3090.986209098278
 21
1821.197697730138
 31
0.0
  0
LINE
  5
2C9
330
1F
100
AcDbEntity
  8
BODY
  6
CONTINUOUS
 62
     7
100
AcDbLine
 10
3092.631209098279
 20
1822.247697730139
 30
0.0
 11
3092.631209098279
 21
1822.842697730138
 31
0.0
  0
LINE
  5
2CA
330
1F
100
AcDbEntity
  8
BODY
  6
CONTINUOUS
 62
     7
100
AcDbLine
 10
3093.156209098278
 20
1823.192697730138
 30
0.0
 11
3092.981209098278
 21
1823.192697730138
 31
0.0
  0
LINE
  5
2CB
330
1F
100
AcDbEntity
  8
BODY
  6
CONTINUOUS
 62
     7
100
AcDbLine
 10
3093.681209098278
 20
1822.247697730139
 30
0.0
 11
3093.681209098278
 21
1822.842697730138
 31
0.0
  0
LINE
  5
2CC
330
1F
100
AcDbEntity
  8
BODY
  6
CONTINUOUS
 62
     7
100
AcDbLine
 10
3093.156209098278
 20
1823.192697730138
 30
0.0
 11
3093.331209098277
 21
1823.192697730138
 31
0.0
  0
LINE
  5
2CD
330
1F
100
AcDbEntity
  8
BODY
  6
CONTINUOUS
 62
     7
100
AcDbLine
 10
3094.381209098278
 20
1821.547697730139
 30
0.0
 11
3094.976209098278
 21
1821.547697730139
 31
0.0
  0
LINE
  5
2CE
330
1F
100
AcDbEntity
  8
BODY
  6
CONTINUOUS
 62
     7
100
AcDbLine
 10
3095.326209098278
 20
1821.022697730138
 30
0.0
 11
3095.326209098278
 21
1821.197697730138
 31
0.0
  0
LINE
  5
2CF
330
1F
100
AcDbEntity
  8
BODY
  6
CONTINUOUS
 62
     7
100
AcDbLine
 10
3094.381209098278
 20
1820.497697730138
 30
0.0
 11
3094.976209098278
 21
1820.497697730138
 31
0.0
  0
LINE
  5
2D0
330
1F
100
AcDbEntity
  8
BODY
  6
CONTINUOUS
 62
     7
100
AcDbLine
 10
3095.326209098278
 20
1821.022697730138
 30
0.0
 11
3095.326209098278
 21
1820.847697730139
 31
0.0
  0
CIRCLE
  5
2D1
330
1F
100
AcDbEntity
  8
BODY
  6
CONTINUOUS
 62
     7
100
AcDbCircle
 10
3093.156209098278
 20
1821.022697730138
 30
0.0
 40
4.0
  0
CIRCLE
  5
2D2
330
1F
100
AcDbEntity
  8
BODY
  6
CONTINUOUS
 62
     7
100
AcDbCircle
 10
3093.156209098278
 20
1821.022697730138
 30
0.0
 40
3.5
  0
LINE
  5
2D3
330
1F
100
AcDbEntity
  8
BODY
  6
CONTINUOUS
 62
     7
100
AcDbLine
 10
3119.692181098328
 20
1790.522697730138
 30
0.0
 11
3120.156209098327
 21
1726.022697730138
 31
0.0
  0
LINE
  5
2D4
330
1F
100
AcDbEntity
  8
BODY
  6
CONTINUOUS
 62
     7
100
AcDbLine
 10
3119.656209098327
 20
1724.022697730138
 30
0.0
 11
3119.656209098327
 21
1726.022697730138
 31
0.0
  0
LINE
  5
2D5
330
1F
100
AcDbEntity
  8
BODY
  6
CONTINUOUS
 62
     7
100
AcDbLine
 10
3134.620239098327
 20
1790.522697730138
 30
0.0
 11
3134.156209098327
 21
1726.022697730138
 31
0.0
  0
LINE
  5
2D6
330
1F
100
AcDbEntity
  8
BODY
  6
CONTINUOUS
 62
     7
100
AcDbLine
 10
3134.656209098328
 20
1724.022697730138
 30
0.0
 11
3134.656209098328
 21
1726.022697730138
 31
0.0
  0
LINE
  5
2D7
330
1F
100
AcDbEntity
  8
BODY
  6
CONTINUOUS
 62
     7
100
AcDbLine
 10
3134.656209098328
 20
1726.022697730138
 30
0.0
 11
3119.656209098327
 21
1726.022697730138
 31
0.0
  0
LINE
  5
2D8
330
1F
100
AcDbEntity
  8
BODY
  6
CONTINUOUS
 62
     7
100
AcDbLine
 10
3134.656209098328
 20
1724.022697730138
 30
0.0
 11
3119.656209098327
 21
1724.022697730138
 31
0.0
  0
LINE
  5
2D9
330
1F
100
AcDbEntity
  8
BODY
  6
CONTINUOUS
 62
     7
100
AcDbLine
 10
3625.156209098228
 20
1873.022697730138
 30
0.0
 11
3605.156209098228
 21
1873.022697730138
 31
0.0
  0
LINE
  5
2DA
330
1F
100
AcDbEntity
  8
BODY
  6
CONTINUOUS
 62
     7
100
AcDbLine
 10
3630.156209098228
 20
1961.022697730138
 30
0.0
 11
3630.156209098228
 21
1867.022697730138
 31
0.0
  0
LINE
  5
2DB
330
1F
100
AcDbEntity
  8
BODY
  6
CONTINUOUS
 62
     7
100
AcDbLine
 10
3600.156209098227
 20
1961.022697730138
 30
0.0
 11
3600.156209098229
 21
1867.022697730138
 31
0.0
  0
LINE
  5
2DC
330
1F
100
AcDbEntity
  8
BODY
  6
CONTINUOUS
 62
     7
100
AcDbLine
 10
3625.156209098228
 20
1966.022697730138
 30
0.0
 11
3605.156209098228
 21
1966.022697730138
 31
0.0
  0
ARC
  5
2DD
330
1F
100
AcDbEntity
  8
BODY
  6
CONTINUOUS
 62
     7
100
AcDbCircle
 10
3246.156209098278
 20
1871.022697730138
 30
0.0
 40
2.0
100
AcDbArc
 50
90.0
 51
180.0
  0
ARC
  5
2DE
330
1F
100
AcDbEntity
  8
BODY
  6
CONTINUOUS
 62
     7
100
AcDbCircle
 10
3242.156209098278
 20
1864.022697730138
 30
0.0
 40
2.0
100
AcDbArc
 50
270.0
 51
0.0
  0
LINE
  5
2DF
330
1F
100
AcDbEntity
  8
BODY
  6
CONTINUOUS
 62
     7
100
AcDbLine
 10
3244.156209098278
 20
1871.022697730138
 30
0.0
 11
3244.156209098278
 21
1864.022697730138
 31
0.0
  0
ARC
  5
2E0
330
1F
100
AcDbEntity
  8
BODY
  6
CONTINUOUS
 62
     7
100
AcDbCircle
 10
3231.656209098278
 20
1864.022697730138
 30
0.0
 40
2.0
100
AcDbArc
 50
180.0
 51
270.0
  0
LINE
  5
2E1
330
1F
100
AcDbEntity
  8
BODY
  6
CONTINUOUS
 62
     7
100
AcDbLine
 10
3231.656209098278
 20
1862.022697730138
 30
0.0
 11
3242.156209098278
 21
1862.022697730138
 31
0.0
  0
ARC
  5
2E2
330
1F
100
AcDbEntity
  8
BODY
  6
CONTINUOUS
 62
     7
100
AcDbCircle
 10
3144.156209098278
 20
1844.522697730138
 30
0.0
 40
2.0
100
AcDbArc
 50
90.0
 51
180.0
  0
ARC
  5
2E3
330
1F
100
AcDbEntity
  8
BODY
  6
CONTINUOUS
 62
     7
100
AcDbCircle
 10
3158.656209098278
 20
1848.522697730138
 30
0.0
 40
2.0
100
AcDbArc
 50
270.0
 51
0.0
  0
ARC
  5
2E4
330
1F
100
AcDbEntity
  8
BODY
  6
CONTINUOUS
 62
     7
100
AcDbCircle
 10
3158.656209098278
 20
1883.022697730138
 30
0.0
 40
2.0
100
AcDbArc
 50
0.0
 51
90.0
  0
ARC
  5
2E5
330
1F
100
AcDbEntity
  8
BODY
  6
CONTINUOUS
 62
     7
100
AcDbCircle
 10
3149.156209098278
 20
1887.022697730138
 30
0.0
 40
2.0
100
AcDbArc
 50
180.0
 51
270.0
  0
LINE
  5
2E6
330
1F
100
AcDbEntity
  8
BODY
  6
CONTINUOUS
 62
     7
100
AcDbLine
 10
3087.156209098278
 20
1828.022697730138
 30
0.0
 11
3126.156209098278
 21
1828.022697730138
 31
0.0
  0
LINE
  5
2E7
330
1F
100
AcDbEntity
  8
BODY
  6
CONTINUOUS
 62
     7
100
AcDbLine
 10
3087.156209098278
 20
1931.022697730138
 30
0.0
 11
3126.156209098278
 21
1931.022697730138
 31
0.0
  0
ARC
  5
2E8
330
1F
100
AcDbEntity
  8
BODY
  6
CONTINUOUS
 62
     7
100
AcDbCircle
 10
3126.156209098278
 20
1929.022697730139
 30
0.0
 40
2.0
100
AcDbArc
 50
0.0
 51
90.0
  0
ARC
  5
2E9
330
1F
100
AcDbEntity
  8
BODY
  6
CONTINUOUS
 62
     7
100
AcDbCircle
 10
3126.156209098278
 20
1830.022697730138
 30
0.0
 40
2.0
100
AcDbArc
 50
270.0
 51
0.0
  0
LINE
  5
2EA
330
1F
100
AcDbEntity
  8
BODY
  6
CONTINUOUS
 62
     7
100
AcDbLine
 10
3128.156209098278
 20
1929.022697730138
 30
0.0
 11
3128.156209098278
 21
1830.022697730138
 31
0.0
  0
ARC
  5
2EB
330
1F
100
AcDbEntity
  8
BODY
  6
CONTINUOUS
 62
     7
100
AcDbCircle
 10
3178.656209098278
 20
1693.022697730138
 30
0.0
 40
2.0
100
AcDbArc
 50
90.0
 51
180.0
  0
LINE
  5
2EC
330
1F
100
AcDbEntity
  8
BODY
  6
CONTINUOUS
 62
     7
100
AcDbLine
 10
3176.656209098278
 20
1688.022697730138
 30
0.0
 11
3176.656209098278
 21
1693.022697730138
 31
0.0
  0
LINE
  5
2ED
330
1F
100
AcDbEntity
  8
BODY
  6
CONTINUOUS
 62
     7
100
AcDbLine
 10
3178.656209098278
 20
1695.022697730138
 30
0.0
 11
3211.656209098277
 21
1695.022697730138
 31
0.0
  0
LINE
  5
2EE
330
1F
100
AcDbEntity
  8
BODY
  6
CONTINUOUS
 62
     7
100
AcDbLine
 10
3241.856209098277
 20
1688.022697730138
 30
0.0
 11
3242.456209098278
 21
1688.622697730138
 31
0.0
  0
LINE
  5
2EF
330
1F
100
AcDbEntity
  8
BODY
  6
CONTINUOUS
 62
     7
100
AcDbLine
 10
3148.456209098278
 20
1699.522697730138
 30
0.0
 11
3147.856209098279
 21
1698.922697730138
 31
0.0
  0
LINE
  5
2F0
330
1F
100
AcDbEntity
  8
BODY
  6
CONTINUOUS
 62
     7
100
AcDbLine
 10
3240.877153098328
 20
1699.522697730138
 30
0.0
 11
3211.406209098278
 21
1699.522697730138
 31
0.0
  0
LINE
  5
2F1
330
1F
100
AcDbEntity
  8
BODY
  6
CONTINUOUS
 62
     7
100
AcDbLine
 10
3147.856209098279
 20
1698.922697730138
 30
0.0
 11
3147.856209098279
 21
1688.622697730138
 31
0.0
  0
LINE
  5
2F2
330
1F
100
AcDbEntity
  8
BODY
  6
CONTINUOUS
 62
     7
100
AcDbLine
 10
3148.456209098278
 20
1688.022697730138
 30
0.0
 11
3147.856209098279
 21
1688.622697730138
 31
0.0
  0
LINE
  5
2F3
330
1F
100
AcDbEntity
  8
BODY
  6
CONTINUOUS
 62
     7
100
AcDbLine
 10
3148.456209098278
 20
1688.022697730138
 30
0.0
 11
3225.156209098278
 21
1688.022697730138
 31
0.0
  0
LINE
  5
2F4
330
1F
100
AcDbEntity
  8
BODY
  6
CONTINUOUS
 62
     7
100
AcDbLine
 10
3147.856209098279
 20
1700.122697730138
 30
0.0
 11
3148.456209098278
 21
1699.522697730138
 31
0.0
  0
LINE
  5
2F5
330
1F
100
AcDbEntity
  8
BODY
  6
CONTINUOUS
 62
     7
100
AcDbLine
 10
3147.856209098279
 20
1722.522697730138
 30
0.0
 11
3147.856209098279
 21
1700.122697730138
 31
0.0
  0
ARC
  5
2F6
330
1F
100
AcDbEntity
  8
BODY
  6
CONTINUOUS
 62
     7
100
AcDbCircle
 10
3234.656209098278
 20
1890.022697730138
 30
0.0
 40
5.0
100
AcDbArc
 50
90.0
 51
180.0
  0
LINE
  5
2F7
330
1F
100
AcDbEntity
  8
BODY
  6
CONTINUOUS
 62
     7
100
AcDbLine
 10
3199.398851098278
 20
1855.194269730138
 30
0.0
 11
3197.984637098278
 21
1853.780057730138
 31
0.0
  0
ARC
  5
2F8
330
1F
100
AcDbEntity
  8
BODY
  6
CONTINUOUS
 62
     7
100
AcDbCircle
 10
3226.292855098278
 20
1883.022697730138
 30
0.0
 40
2.0
100
AcDbArc
 50
2.000000000003953
 51
90.0
  0
LINE
  5
2F9
330
1F
100
AcDbEntity
  8
BODY
  6
CONTINUOUS
 62
     7
100
AcDbLine
 10
3244.712623098277
 20
1843.525383730138
 30
0.0
 11
3229.656209098278
 21
1844.051165730138
 31
0.0
  0
LINE
  5
2FA
330
1F
100
AcDbEntity
  8
BODY
  6
CONTINUOUS
 62
     7
100
AcDbLine
 10
3244.021993098278
 20
1863.302385730138
 30
0.0
 11
3245.079383098278
 21
1833.022697730138
 31
0.0
  0
LINE
  5
2FB
330
1F
100
AcDbEntity
  8
BODY
  6
CONTINUOUS
 62
     7
100
AcDbLine
 10
3229.656209098278
 20
1890.022697730138
 30
0.0
 11
3229.656209098278
 21
1864.022697730138
 31
0.0
  0
LINE
  5
2FC
330
1F
100
AcDbEntity
  8
BODY
  6
CONTINUOUS
 62
     7
100
AcDbLine
 10
3245.079383098278
 20
1833.022697730138
 30
0.0
 11
3195.156209098278
 21
1833.022697730138
 31
0.0
  0
LINE
  5
2FD
330
1F
100
AcDbEntity
  8
BODY
  6
CONTINUOUS
 62
     7
100
AcDbLine
 10
3228.291637098279
 20
1883.092497730138
 30
0.0
 11
3229.656209098278
 21
1844.016243730138
 31
0.0
  0
LINE
  5
2FE
330
1F
100
AcDbEntity
  8
BODY
  6
CONTINUOUS
 62
     7
100
AcDbLine
 10
3158.656209098278
 20
1885.022697730138
 30
0.0
 11
3229.656209098278
 21
1885.022697730138
 31
0.0
  0
LINE
  5
2FF
330
1F
100
AcDbEntity
  8
BODY
  6
CONTINUOUS
 62
     7
100
AcDbLine
 10
3245.156209098278
 20
1832.522697730138
 30
0.0
 11
3244.656209098278
 21
1833.022697730138
 31
0.0
  0
LINE
  5
300
330
1F
100
AcDbEntity
  8
BODY
  6
CONTINUOUS
 62
     7
100
AcDbLine
 10
3245.156209098278
 20
1771.522697730137
 30
0.0
 11
3245.156209098278
 21
1832.522697730138
 31
0.0
  0
LINE
  5
301
330
1F
100
AcDbEntity
  8
BODY
  6
CONTINUOUS
 62
     7
100
AcDbLine
 10
3244.656209098278
 20
1833.022697730138
 30
0.0
 11
3240.656209098278
 21
1833.022697730138
 31
0.0
  0
ARC
  5
302
330
1F
100
AcDbEntity
  8
BODY
  6
CONTINUOUS
 62
     7
100
AcDbCircle
 10
3164.019565098278
 20
1883.022697730138
 30
0.0
 40
2.0
100
AcDbArc
 50
90.0
 51
178.000000000009
  0
LINE
  5
303
330
1F
100
AcDbEntity
  8
BODY
  6
CONTINUOUS
 62
     7
100
AcDbLine
 10
3145.599797098278
 20
1843.525383730138
 30
0.0
 11
3160.656209098278
 21
1844.051165730138
 31
0.0
  0
LINE
  5
304
330
1F
100
AcDbEntity
  8
BODY
  6
CONTINUOUS
 62
     7
100
AcDbLine
 10
3145.704465098278
 20
1846.522697730138
 30
0.0
 11
3145.233035098279
 21
1833.022697730138
 31
0.0
  0
LINE
  5
305
330
1F
100
AcDbEntity
  8
BODY
  6
CONTINUOUS
 62
     7
100
AcDbLine
 10
3160.656209098278
 20
1883.022697730138
 30
0.0
 11
3160.656209098278
 21
1848.522697730138
 31
0.0
  0
LINE
  5
306
330
1F
100
AcDbEntity
  8
BODY
  6
CONTINUOUS
 62
     7
100
AcDbLine
 10
3145.233035098279
 20
1833.022697730138
 30
0.0
 11
3195.156209098278
 21
1833.022697730138
 31
0.0
  0
LINE
  5
307
330
1F
100
AcDbEntity
  8
BODY
  6
CONTINUOUS
 62
     7
100
AcDbLine
 10
3162.020783098278
 20
1883.092497730138
 30
0.0
 11
3160.656209098278
 21
1844.016243730138
 31
0.0
  0
LINE
  5
308
330
1F
100
AcDbEntity
  8
BODY
  6
CONTINUOUS
 62
     7
100
AcDbLine
 10
3158.656209098278
 20
1885.022697730138
 30
0.0
 11
3149.156209098278
 21
1885.022697730138
 31
0.0
  0
LINE
  5
309
330
1F
100
AcDbEntity
  8
BODY
  6
CONTINUOUS
 62
     7
100
AcDbLine
 10
3236.656209098327
 20
1722.522697730138
 30
0.0
 11
3145.156209098278
 21
1722.522697730138
 31
0.0
  0
LINE
  5
30A
330
1F
100
AcDbEntity
  8
BODY
  6
CONTINUOUS
 62
     7
100
AcDbLine
 10
3147.856209098279
 20
1722.522697730138
 30
0.0
 11
3147.856209098279
 21
1700.122697730138
 31
0.0
  0
LINE
  5
30B
330
1F
100
AcDbEntity
  8
BODY
  6
CONTINUOUS
 62
     7
100
AcDbLine
 10
3145.156209098278
 20
1832.522697730138
 30
0.0
 11
3145.656209098278
 21
1833.022697730138
 31
0.0
  0
LINE
  5
30C
330
1F
100
AcDbEntity
  8
BODY
  6
CONTINUOUS
 62
     7
100
AcDbLine
 10
3145.156209098278
 20
1722.522697730138
 30
0.0
 11
3145.156209098278
 21
1832.522697730138
 31
0.0
  0
LINE
  5
30D
330
1F
100
AcDbEntity
  8
BODY
  6
CONTINUOUS
 62
     7
100
AcDbLine
 10
3145.656209098278
 20
1833.022697730138
 30
0.0
 11
3149.656209098278
 21
1833.022697730138
 31
0.0
  0
CIRCLE
  5
30E
330
1F
100
AcDbEntity
  8
BODY
  6
CONTINUOUS
 62
     7
100
AcDbCircle
 10
3195.156209098278
 20
1858.022697730138
 30
0.0
 40
10.5
  0
CIRCLE
  5
30F
330
1F
100
AcDbEntity
  8
BODY
  6
CONTINUOUS
 62
     7
100
AcDbCircle
 10
3195.156209098278
 20
1858.022697730138
 30
0.0
 40
7.0
  0
CIRCLE
  5
310
330
1F
100
AcDbEntity
  8
BODY
  6
CONTINUOUS
 62
     7
100
AcDbCircle
 10
3195.156209098278
 20
1858.022697730138
 30
0.0
 40
8.0
  0
LINE
  5
311
330
1F
100
AcDbEntity
  8
BODY
  6
CONTINUOUS
 62
     7
100
AcDbLine
 10
3192.327783098278
 20
1862.265337730138
 30
0.0
 11
3190.913569098278
 21
1860.851125730138
 31
0.0
  0
LINE
  5
312
330
1F
100
AcDbEntity
  8
BODY
  6
CONTINUOUS
 62
     7
100
AcDbLine
 10
3197.984637098278
 20
1853.780057730138
 30
0.0
 11
3190.913569098278
 21
1860.851125730138
 31
0.0
  0
LINE
  5
313
330
1F
100
AcDbEntity
  8
BODY
  6
CONTINUOUS
 62
     7
100
AcDbLine
 10
3199.398851098278
 20
1855.194269730138
 30
0.0
 11
3192.327783098278
 21
1862.265337730138
 31
0.0
  0
CIRCLE
  5
314
330
1F
100
AcDbEntity
  8
BODY
  6
CONTINUOUS
 62
     7
100
AcDbCircle
 10
3195.156209098278
 20
1858.022697730138
 30
0.0
 40
11.0
  0
LINE
  5
315
330
1F
100
AcDbEntity
  8
BODY
  6
CONTINUOUS
 62
     7
100
AcDbLine
 10
3131.556209098327
 20
1706.944709655213
 30
0.0
 11
3131.556209098327
 21
1724.022697730138
 31
0.0
  0
LINE
  5
316
330
1F
100
AcDbEntity
  8
BODY
  6
CONTINUOUS
 62
     7
100
AcDbLine
 10
3122.756209098327
 20
1704.586756761819
 30
0.0
 11
3122.756209098327
 21
1724.022697730138
 31
0.0
  0
LINE
  5
317
330
1F
100
AcDbEntity
  8
BODY
  6
CONTINUOUS
 62
     7
100
AcDbLine
 10
3092.156209098278
 20
1790.522697730138
 30
0.0
 11
3137.156209098279
 21
1790.522697730138
 31
0.0
  0
ARC
  5
318
330
1F
100
AcDbEntity
  8
BODY
  6
CONTINUOUS
 62
     7
100
AcDbCircle
 10
3249.156209098278
 20
1870.522697730138
 30
0.0
 40
1.0
100
AcDbArc
 50
90.0
 51
180.0
  0
ARC
  5
319
330
1F
100
AcDbEntity
  8
BODY
  6
CONTINUOUS
 62
     7
100
AcDbCircle
 10
3249.156209098278
 20
1868.872697730138
 30
0.0
 40
1.0
100
AcDbArc
 50
180.0
 51
270.0
  0
ARC
  5
31A
330
1F
100
AcDbEntity
  8
BODY
  6
CONTINUOUS
 62
     7
100
AcDbCircle
 10
3269.156209098278
 20
1868.872697730138
 30
0.0
 40
1.0
100
AcDbArc
 50
270.0
 51
0.0
  0
ARC
  5
31B
330
1F
100
AcDbEntity
  8
BODY
  6
CONTINUOUS
 62
     7
100
AcDbCircle
 10
3269.156209098278
 20
1870.522697730138
 30
0.0
 40
1.0
100
AcDbArc
 50
0.0
 51
90.0
  0
LINE
  5
31C
330
1F
100
AcDbEntity
  8
BODY
  6
CONTINUOUS
 62
     7
100
AcDbLine
 10
3269.156209098278
 20
1873.022697730138
 30
0.0
 11
3246.156209098278
 21
1873.022697730138
 31
0.0
  0
LINE
  5
31D
330
1F
100
AcDbEntity
  8
BODY
  6
CONTINUOUS
 62
     7
100
AcDbLine
 10
3250.156209098278
 20
1873.022697730138
 30
0.0
 11
3250.156209098278
 21
1871.522697730138
 31
0.0
  0
LINE
  5
31E
330
1F
100
AcDbEntity
  8
BODY
  6
CONTINUOUS
 62
     7
100
AcDbLine
 10
3248.156209098278
 20
1870.522697730138
 30
0.0
 11
3248.156209098278
 21
1868.872697730138
 31
0.0
  0
LINE
  5
31F
330
1F
100
AcDbEntity
  8
BODY
  6
CONTINUOUS
 62
     7
100
AcDbLine
 10
3268.156209098278
 20
1873.123717730138
 30
0.0
 11
3268.156209098278
 21
1871.522697730138
 31
0.0
  0
LINE
  5
320
330
1F
100
AcDbEntity
  8
BODY
  6
CONTINUOUS
 62
     7
100
AcDbLine
 10
3270.156209098278
 20
1870.522697730138
 30
0.0
 11
3270.156209098278
 21
1868.872697730138
 31
0.0
  0
LINE
  5
321
330
1F
100
AcDbEntity
  8
BODY
  6
CONTINUOUS
 62
     7
100
AcDbLine
 10
3269.156209098278
 20
1867.872697730138
 30
0.0
 11
3249.156209098278
 21
1867.872697730138
 31
0.0
  0
LINE
  5
322
330
1F
100
AcDbEntity
  8
BODY
  6
CONTINUOUS
 62
     7
100
AcDbLine
 10
3269.156209098278
 20
1871.522697730138
 30
0.0
 11
3249.156209098278
 21
1871.522697730138
 31
0.0
  0
ARC
  5
323
330
1F
100
AcDbEntity
  8
BODY
  6
CONTINUOUS
 62
     7
100
AcDbCircle
 10
3264.156209098278
 20
1956.022697730138
 30
0.0
 40
10.0
100
AcDbArc
 50
0.0
 51
90.0
  0
ARC
  5
324
330
1F
100
AcDbEntity
  8
BODY
  6
CONTINUOUS
 62
     7
100
AcDbCircle
 10
3097.156209098278
 20
1956.022697730138
 30
0.0
 40
10.0
100
AcDbArc
 50
90.0
 51
180.0
  0
LINE
  5
325
330
1F
100
AcDbEntity
  8
BODY
  6
CONTINUOUS
 62
     7
100
AcDbLine
 10
3158.656209098278
 20
1846.522697730138
 30
0.0
 11
3144.156209098278
 21
1846.522697730138
 31
0.0
  0
LINE
  5
326
330
1F
100
AcDbEntity
  8
BODY
  6
CONTINUOUS
 62
     7
100
AcDbLine
 10
3142.156209098278
 20
1844.522697730138
 30
0.0
 11
3142.156209098278
 21
1795.522697730138
 31
0.0
  0
ARC
  5
327
330
1F
100
AcDbEntity
  8
BODY
  6
CONTINUOUS
 62
     7
100
AcDbCircle
 10
3269.156209098278
 20
1878.022697730138
 30
0.0
 40
5.0
100
AcDbArc
 50
270.0
 51
0.0
  0
ARC
  5
328
330
1F
100
AcDbEntity
  8
BODY
  6
CONTINUOUS
 62
     7
100
AcDbCircle
 10
3092.156209098278
 20
1795.522697730138
 30
0.0
 40
5.0
100
AcDbArc
 50
180.0
 51
270.0
  0
ARC
  5
329
330
1F
100
AcDbEntity
  8
BODY
  6
CONTINUOUS
 62
     7
100
AcDbCircle
 10
3137.156209098278
 20
1795.522697730138
 30
0.0
 40
5.0
100
AcDbArc
 50
270.0
 51
0.0
  0
LINE
  5
32A
330
1F
100
AcDbEntity
  8
BODY
  6
CONTINUOUS
 62
     7
100
AcDbLine
 10
3234.656209098278
 20
1895.022697730138
 30
0.0
 11
3238.156209098278
 21
1895.022697730138
 31
0.0
  0
LINE
  5
32B
330
1F
100
AcDbEntity
  8
BODY
  6
CONTINUOUS
 62
     7
100
AcDbLine
 10
3238.156209098278
 20
1911.022697730138
 30
0.0
 11
3238.156209098278
 21
1895.022697730138
 31
0.0
  0
LINE
  5
32C
330
1F
100
AcDbEntity
  8
BODY
  6
CONTINUOUS
 62
     7
100
AcDbLine
 10
3147.156209098278
 20
1911.022697730138
 30
0.0
 11
3147.156209098278
 21
1887.022697730138
 31
0.0
  0
ARC
  5
32D
330
1F
100
AcDbEntity
  8
BODY
  6
CONTINUOUS
 62
     7
100
AcDbCircle
 10
3152.156209098278
 20
1911.022697730138
 30
0.0
 40
5.0
100
AcDbArc
 50
90.0
 51
180.0
  0
ARC
  5
32E
330
1F
100
AcDbEntity
  8
BODY
  6
CONTINUOUS
 62
     7
100
AcDbCircle
 10
3233.156209098278
 20
1911.022697730138
 30
0.0
 40
5.0
100
AcDbArc
 50
0.0
 51
90.0
  0
LINE
  5
32F
330
1F
100
AcDbEntity
  8
BODY
  6
CONTINUOUS
 62
     7
100
AcDbLine
 10
3264.156209098278
 20
1966.022697730138
 30
0.0
 11
3097.156209098278
 21
1966.022697730138
 31
0.0
  0
LINE
  5
330
330
1F
100
AcDbEntity
  8
BODY
  6
CONTINUOUS
 62
     7
100
AcDbLine
 10
3233.156209098278
 20
1916.022697730138
 30
0.0
 11
3152.156209098278
 21
1916.022697730138
 31
0.0
  0
LINE
  5
331
330
1F
100
AcDbEntity
  8
BODY
  6
CONTINUOUS
 62
     7
100
AcDbLine
 10
3274.156209098278
 20
1956.022697730138
 30
0.0
 11
3274.156209098278
 21
1878.022697730138
 31
0.0
  0
LINE
  5
332
330
1F
100
AcDbEntity
  8
BODY
  6
CONTINUOUS
 62
     7
100
AcDbLine
 10
3087.156209098278
 20
1956.022697730138
 30
0.0
 11
3087.156209098278
 21
1795.522697730138
 31
0.0
  0
LINE
  5
333
330
1F
100
AcDbEntity
  8
BODY
  6
CONTINUOUS
 62
     7
100
AcDbLine
 10
3242.456209098278
 20
1708.522697730138
 30
0.0
 11
3242.456209098278
 21
1703.259056674234
 31
0.0
  0
LINE
  5
334
330
1F
100
AcDbEntity
  8
BODY
  6
CONTINUOUS
 62
     7
100
AcDbLine
 10
3242.456209098278
 20
1708.522697730138
 30
0.0
 11
3242.456209098278
 21
1703.259056674234
 31
0.0
  0
LINE
  5
335
330
1F
100
AcDbEntity
  8
BODY
  6
CONTINUOUS
 62
     7
100
AcDbLine
 10
3242.456209098278
 20
1693.786338786041
 30
0.0
 11
3242.456209098278
 21
1688.622697730138
 31
0.0
  0
LINE
  5
336
330
1F
100
AcDbEntity
  8
BODY
  6
CONTINUOUS
 62
     7
100
AcDbLine
 10
3644.656209098228
 20
1722.522697730138
 30
0.0
 11
3647.656209098227
 21
1722.522697730138
 31
0.0
  0
LINE
  5
337
330
1F
100
AcDbEntity
  8
BODY
  6
CONTINUOUS
 62
     7
100
AcDbLine
 10
3552.156209098278
 20
1688.547750728246
 30
0.0
 11
3556.656209098278
 21
1693.047750728247
 31
0.0
  0
LINE
  5
338
330
1F
100
AcDbEntity
  8
BODY
  6
CONTINUOUS
 62
     7
100
AcDbLine
 10
3550.38851541297
 20
1691.022697730138
 30
0.0
 11
3555.888521743479
 21
1696.522704060647
 31
0.0
  0
LINE
  5
339
330
1F
100
AcDbEntity
  8
BODY
  6
CONTINUOUS
 62
     7
100
AcDbLine
 10
3556.656209098278
 20
1688.390187938647
 30
0.0
 11
3548.523692976278
 21
1696.522704060647
 31
0.0
  0
LINE
  5
33A
330
1F
100
AcDbEntity
  8
BODY
  6
CONTINUOUS
 62
     7
100
AcDbLine
 10
3556.656209098278
 20
1692.632828625747
 30
0.0
 11
3552.766333663377
 21
1696.522704060647
 31
0.0
  0
LINE
  5
33B
330
1F
100
AcDbEntity
  8
BODY
  6
CONTINUOUS
 62
     7
100
AcDbLine
 10
3540.156209098278
 20
1696.522704060647
 30
0.0
 11
3558.906209098228
 21
1696.522704060647
 31
0.0
  0
LINE
  5
33C
330
1F
100
AcDbEntity
  8
BODY
  6
CONTINUOUS
 62
     7
100
AcDbLine
 10
3546.145874725821
 20
1691.022697730138
 30
0.0
 11
3551.645881056379
 21
1696.522704060647
 31
0.0
  0
LINE
  5
33D
330
1F
100
AcDbEntity
  8
BODY
  6
CONTINUOUS
 62
     7
100
AcDbLine
 10
3549.781058619687
 20
1691.022697730138
 30
0.0
 11
3544.281052289177
 21
1696.522704060647
 31
0.0
  0
LINE
  5
33E
330
1F
100
AcDbEntity
  8
BODY
  6
CONTINUOUS
 62
     7
100
AcDbLine
 10
3542.156209098278
 20
1690.162265877247
 30
0.0
 11
3540.156209098278
 21
1692.162265877247
 31
0.0
  0
LINE
  5
33F
330
1F
100
AcDbEntity
  8
BODY
  6
CONTINUOUS
 62
     7
100
AcDbLine
 10
3545.538417932587
 20
1691.022697730138
 30
0.0
 11
3540.156209098278
 21
1696.404906564447
 31
0.0
  0
LINE
  5
340
330
1F
100
AcDbEntity
  8
BODY
  6
CONTINUOUS
 62
     7
100
AcDbLine
 10
3558.906209098228
 20
1697.522704060647
 30
0.0
 11
3541.156209098278
 21
1697.522704060647
 31
0.0
  0
LINE
  5
341
330
1F
100
AcDbEntity
  8
BODY
  6
CONTINUOUS
 62
     7
100
AcDbLine
 10
3540.156209098278
 20
1693.518313476847
 30
0.0
 11
3543.160599682178
 21
1696.522704060647
 31
0.0
  0
LINE
  5
342
330
1F
100
AcDbEntity
  8
BODY
  6
CONTINUOUS
 62
     7
100
AcDbLine
 10
3541.156209098278
 20
1697.522704060647
 30
0.0
 11
3540.156209098278
 21
1696.522704060647
 31
0.0
  0
LINE
  5
343
330
1F
100
AcDbEntity
  8
BODY
  6
CONTINUOUS
 62
     7
100
AcDbLine
 10
3540.156209098278
 20
1689.275672789747
 30
0.0
 11
3547.403240369278
 21
1696.522704060647
 31
0.0
  0
LINE
  5
344
330
1F
100
AcDbEntity
  8
BODY
  6
CONTINUOUS
 62
     7
100
AcDbLine
 10
3540.156209098278
 20
1696.522704060647
 30
0.0
 11
3540.156209098228
 21
1679.522697730137
 31
0.0
  0
LINE
  5
345
330
1F
100
AcDbEntity
  8
BODY
  6
CONTINUOUS
 62
     7
100
AcDbLine
 10
3540.156209098278
 20
1685.033032102647
 30
0.0
 11
3542.156209098278
 21
1687.03303210263
 31
0.0
  0
LINE
  5
346
330
1F
100
AcDbEntity
  8
BODY
  6
CONTINUOUS
 62
     7
100
AcDbLine
 10
3542.553136558288
 20
1685.522697730138
 30
0.0
 11
3540.156209098278
 21
1687.919625190147
 31
0.0
  0
LINE
  5
347
330
1F
100
AcDbEntity
  8
BODY
  6
CONTINUOUS
 62
     7
100
AcDbLine
 10
3558.631159372375
 20
1695.022701002343
 30
0.0
 11
3558.906209098228
 21
1695.297750728197
 31
0.0
  0
LINE
  5
348
330
1F
100
AcDbEntity
  8
BODY
  6
CONTINUOUS
 62
     7
100
AcDbLine
 10
3558.508977408781
 20
1695.022701002343
 30
0.0
 11
3557.008974350478
 21
1696.522704060647
 31
0.0
  0
LINE
  5
349
330
1F
100
AcDbEntity
  8
BODY
  6
CONTINUOUS
 62
     7
100
AcDbLine
 10
3555.373796787203
 20
1687.522697730138
 30
0.0
 11
3556.656209098278
 21
1688.805110041222
 31
0.0
  0
LINE
  5
34A
330
1F
100
AcDbEntity
  8
BODY
  6
CONTINUOUS
 62
     7
100
AcDbLine
 10
3553.281058619687
 20
1687.522697730138
 30
0.0
 11
3552.156209098278
 21
1688.647547251547
 31
0.0
  0
LINE
  5
34B
330
1F
100
AcDbEntity
  8
BODY
  6
CONTINUOUS
 62
     7
100
AcDbLine
 10
3673.656209098227
 20
1691.522697730137
 30
0.0
 11
3673.656209098227
 21
1687.522697730138
 31
0.0
  0
LINE
  5
34C
330
1F
100
AcDbEntity
  8
BODY
  6
CONTINUOUS
 62
     7
100
AcDbLine
 10
3636.656209098228
 20
1687.522697730138
 30
0.0
 11
3673.656209098227
 21
1687.522697730138
 31
0.0
  0
LINE
  5
34D
330
1F
100
AcDbEntity
  8
BODY
  6
CONTINUOUS
 62
     7
100
AcDbLine
 10
3266.576435098278
 20
1856.160051133012
 30
0.0
 11
3252.385708098278
 21
1854.918524133012
 31
0.0
  0
LINE
  5
34E
330
1F
100
AcDbEntity
  8
BODY
  6
CONTINUOUS
 62
     7
100
AcDbLine
 10
3262.156209098278
 20
1867.872697730138
 30
0.0
 11
3262.156209098278
 21
1855.773332133012
 31
0.0
  0
LINE
  5
34F
330
1F
100
AcDbEntity
  8
BODY
  6
CONTINUOUS
 62
     7
100
AcDbLine
 10
3256.156209098278
 20
1867.872697730138
 30
0.0
 11
3256.156209098278
 21
1855.248400133012
 31
0.0
  0
LINE
  5
350
330
1F
100
AcDbEntity
  8
BODY
  6
CONTINUOUS
 62
     7
100
AcDbLine
 10
3622.576435098228
 20
1856.160051133011
 30
0.0
 11
3608.385708098227
 21
1854.918524133012
 31
0.0
  0
LINE
  5
351
330
1F
100
AcDbEntity
  8
BODY
  6
CONTINUOUS
 62
     7
100
AcDbLine
 10
3618.156209098227
 20
1867.872697730138
 30
0.0
 11
3618.156209098227
 21
1855.773332133012
 31
0.0
  0
LINE
  5
352
330
1F
100
AcDbEntity
  8
BODY
  6
CONTINUOUS
 62
     7
100
AcDbLine
 10
3612.156209098227
 20
1867.872697730138
 30
0.0
 11
3612.156209098227
 21
1855.248400133012
 31
0.0
  0
LINE
  5
353
330
1F
100
AcDbEntity
  8
BODY
  6
CONTINUOUS
 62
     7
100
AcDbLine
 10
3618.156209098227
 20
1862.022697730138
 30
0.0
 11
3625.156209098228
 21
1862.022697730138
 31
0.0
  0
LINE
  5
354
330
1F
100
AcDbEntity
  8
BODY
  6
CONTINUOUS
 62
     7
100
AcDbLine
 10
3187.406209098278
 20
1695.022697730138
 30
0.0
 11
3178.906209098278
 21
1695.022697730138
 31
0.0
  0
LINE
  5
355
330
1F
100
AcDbEntity
  8
BODY
  6
CONTINUOUS
 62
     7
100
AcDbLine
 10
3186.886593856007
 20
1700.022697730138
 30
0.0
 11
3179.42582434055
 21
1700.022697730138
 31
0.0
  0
LINE
  5
356
330
1F
100
AcDbEntity
  8
BODY
  6
CONTINUOUS
 62
     7
100
AcDbLine
 10
3181.089209098278
 20
1699.722697730138
 30
0.0
 11
3178.906209098278
 21
1699.722697730138
 31
0.0
  0
LINE
  5
357
330
1F
100
AcDbEntity
  8
BODY
  6
CONTINUOUS
 62
     7
100
AcDbLine
 10
3178.906209098278
 20
1699.722697730138
 30
0.0
 11
3179.42582434055
 21
1700.022697730138
 31
0.0
  0
LINE
  5
358
330
1F
100
AcDbEntity
  8
BODY
  6
CONTINUOUS
 62
     7
100
AcDbLine
 10
3178.906209098278
 20
1699.722697730138
 30
0.0
 11
3178.906209098278
 21
1695.022697730138
 31
0.0
  0
LINE
  5
359
330
1F
100
AcDbEntity
  8
BODY
  6
CONTINUOUS
 62
     7
100
AcDbLine
 10
3187.406209098278
 20
1699.722697730138
 30
0.0
 11
3185.223209098278
 21
1699.722697730138
 31
0.0
  0
LINE
  5
35A
330
1F
100
AcDbEntity
  8
BODY
  6
CONTINUOUS
 62
     7
100
AcDbLine
 10
3187.406209098278
 20
1699.722697730138
 30
0.0
 11
3186.886593856007
 21
1700.022697730138
 31
0.0
  0
LINE
  5
35B
330
1F
100
AcDbEntity
  8
BODY
  6
CONTINUOUS
 62
     7
100
AcDbLine
 10
3187.406209098278
 20
1699.722697730138
 30
0.0
 11
3187.406209098278
 21
1695.022697730138
 31
0.0
  0
LINE
  5
35C
330
1F
100
AcDbEntity
  8
BODY
  6
CONTINUOUS
 62
     7
100
AcDbLine
 10
3211.406209098278
 20
1699.722697730138
 30
0.0
 11
3211.406209098278
 21
1695.022697730138
 31
0.0
  0
LINE
  5
35D
330
1F
100
AcDbEntity
  8
BODY
  6
CONTINUOUS
 62
     7
100
AcDbLine
 10
3211.406209098278
 20
1699.722697730138
 30
0.0
 11
3210.886593856007
 21
1700.022697730138
 31
0.0
  0
LINE
  5
35E
330
1F
100
AcDbEntity
  8
BODY
  6
CONTINUOUS
 62
     7
100
AcDbLine
 10
3211.406209098278
 20
1699.722697730138
 30
0.0
 11
3209.223209098278
 21
1699.722697730138
 31
0.0
  0
LINE
  5
35F
330
1F
100
AcDbEntity
  8
BODY
  6
CONTINUOUS
 62
     7
100
AcDbLine
 10
3202.906209098278
 20
1699.722697730138
 30
0.0
 11
3202.906209098278
 21
1695.022697730138
 31
0.0
  0
LINE
  5
360
330
1F
100
AcDbEntity
  8
BODY
  6
CONTINUOUS
 62
     7
100
AcDbLine
 10
3202.906209098278
 20
1699.722697730138
 30
0.0
 11
3203.425824340548
 21
1700.022697730138
 31
0.0
  0
LINE
  5
361
330
1F
100
AcDbEntity
  8
BODY
  6
CONTINUOUS
 62
     7
100
AcDbLine
 10
3205.089209098278
 20
1699.722697730138
 30
0.0
 11
3202.906209098278
 21
1699.722697730138
 31
0.0
  0
LINE
  5
362
330
1F
100
AcDbEntity
  8
BODY
  6
CONTINUOUS
 62
     7
100
AcDbLine
 10
3210.886593856007
 20
1700.022697730138
 30
0.0
 11
3203.425824340548
 21
1700.022697730138
 31
0.0
  0
LINE
  5
363
330
1F
100
AcDbEntity
  8
BODY
  6
CONTINUOUS
 62
     7
100
AcDbLine
 10
3211.406209098278
 20
1695.022697730138
 30
0.0
 11
3202.906209098278
 21
1695.022697730138
 31
0.0
  0
LINE
  5
364
330
1F
100
AcDbEntity
  8
BODY
  6
CONTINUOUS
 62
     7
100
AcDbLine
 10
3178.906209098278
 20
1699.522697730138
 30
0.0
 11
3148.456209098278
 21
1699.522697730138
 31
0.0
  0
LINE
  5
365
330
1F
100
AcDbEntity
  8
BODY
  6
CONTINUOUS
 62
     7
100
AcDbLine
 10
3202.906209098278
 20
1699.522697730138
 30
0.0
 11
3187.406209098278
 21
1699.522697730138
 31
0.0
  0
LINE
  5
366
330
1F
100
AcDbEntity
  8
BODY
  6
CONTINUOUS
 62
     7
100
AcDbLine
 10
3670.786593855956
 20
1700.022697730138
 30
0.0
 11
3664.656209098228
 21
1700.022697730138
 31
0.0
  0
LINE
  5
367
330
1F
100
AcDbEntity
  8
BODY
  6
CONTINUOUS
 62
     7
100
AcDbLine
 10
3671.306209098227
 20
1699.722697730138
 30
0.0
 11
3671.306209098227
 21
1695.022697730138
 31
0.0
  0
LINE
  5
368
330
1F
100
AcDbEntity
  8
BODY
  6
CONTINUOUS
 62
     7
100
AcDbLine
 10
3671.306209098227
 20
1699.722697730138
 30
0.0
 11
3669.123209098225
 21
1699.722697730138
 31
0.0
  0
LINE
  5
369
330
1F
100
AcDbEntity
  8
BODY
  6
CONTINUOUS
 62
     7
100
AcDbLine
 10
3671.306209098227
 20
1699.722697730138
 30
0.0
 11
3670.786593855956
 21
1700.022697730138
 31
0.0
  0
LINE
  5
36A
330
1F
100
AcDbEntity
  8
BODY
  6
CONTINUOUS
 62
     7
100
AcDbLine
 10
3559.006209098229
 20
1699.722697730138
 30
0.0
 11
3559.525824340499
 21
1700.022697730138
 31
0.0
  0
LINE
  5
36B
330
1F
100
AcDbEntity
  8
BODY
  6
CONTINUOUS
 62
     7
100
AcDbLine
 10
3559.006209098229
 20
1699.722697730138
 30
0.0
 11
3561.18920909823
 21
1699.722697730138
 31
0.0
  0
LINE
  5
36C
330
1F
100
AcDbEntity
  8
BODY
  6
CONTINUOUS
 62
     7
100
AcDbLine
 10
3559.006209098229
 20
1699.722697730138
 30
0.0
 11
3559.006209098229
 21
1695.022697730138
 31
0.0
  0
LINE
  5
36D
330
1F
100
AcDbEntity
  8
BODY
  6
CONTINUOUS
 62
     7
100
AcDbLine
 10
3559.525824340499
 20
1700.022697730138
 30
0.0
 11
3562.656209059728
 21
1700.022697730138
 31
0.0
  0
LINE
  5
36E
330
1F
100
AcDbEntity
  8
BODY
  6
CONTINUOUS
 62
     7
100
AcDbLine
 10
3119.806608748685
 20
1703.796413730138
 30
0.0
 11
3134.505809447969
 21
1707.735052686894
 31
0.0
  0
LINE
  5
36F
330
1F
100
AcDbEntity
  8
BODY
  6
CONTINUOUS
 62
     7
100
AcDbLine
 10
3247.656209098328
 20
1687.522697730138
 30
0.0
 11
3235.156209098277
 21
1687.522697730138
 31
0.0
  0
LINE
  5
370
330
1F
100
AcDbEntity
  8
BODY
  6
CONTINUOUS
 62
     7
100
AcDbLine
 10
3273.406209098328
 20
1739.522697730137
 30
0.0
 11
3234.906209098328
 21
1739.522697730137
 31
0.0
  0
LINE
  5
371
330
1F
100
AcDbEntity
  8
BODY
  6
CONTINUOUS
 62
     7
100
AcDbLine
 10
3235.656209098328
 20
1753.522697730138
 30
0.0
 11
3234.906209098328
 21
1752.522697730137
 31
0.0
  0
LINE
  5
372
330
1F
100
AcDbEntity
  8
BODY
  6
CONTINUOUS
 62
     7
100
AcDbLine
 10
3235.656209098328
 20
1738.522697730137
 30
0.0
 11
3234.906209098328
 21
1739.522697730137
 31
0.0
  0
LINE
  5
373
330
1F
100
AcDbEntity
  8
BODY
  6
CONTINUOUS
 62
     7
100
AcDbLine
 10
3234.906209098328
 20
1739.522697730137
 30
0.0
 11
3234.906209098328
 21
1752.522697730137
 31
0.0
  0
LINE
  5
374
330
1F
100
AcDbEntity
  8
BODY
  6
CONTINUOUS
 62
     7
100
AcDbLine
 10
3234.906209098328
 20
1752.522697730137
 30
0.0
 11
3273.406209098328
 21
1752.522697730137
 31
0.0
  0
LINE
  5
375
330
1F
100
AcDbEntity
  8
BODY
  6
CONTINUOUS
 62
     7
100
AcDbLine
 10
3305.150181927403
 20
1687.522697730138
 30
0.0
 11
3305.156246770726
 21
1679.34258177719
 31
0.0
  0
LINE
  5
376
330
1F
100
AcDbEntity
  8
BODY
  6
CONTINUOUS
 62
     7
100
AcDbLine
 10
3302.464342595828
 20
1694.772697730137
 30
0.0
 11
3302.661721299328
 21
1694.805994121737
 31
0.0
  0
LINE
  5
377
330
1F
100
AcDbEntity
  8
BODY
  6
CONTINUOUS
 62
     7
100
AcDbLine
 10
3302.661721299328
 20
1694.805994121737
 30
0.0
 11
3302.857597831627
 21
1694.905629891237
 31
0.0
  0
LINE
  5
378
330
1F
100
AcDbEntity
  8
BODY
  6
CONTINUOUS
 62
     7
100
AcDbLine
 10
3302.857597831627
 20
1694.905629891237
 30
0.0
 11
3303.050481454228
 21
1695.070846750037
 31
0.0
  0
LINE
  5
379
330
1F
100
AcDbEntity
  8
BODY
  6
CONTINUOUS
 62
     7
100
AcDbLine
 10
3303.050481454228
 20
1695.070846750037
 30
0.0
 11
3303.238904206227
 21
1695.300387298237
 31
0.0
  0
LINE
  5
37A
330
1F
100
AcDbEntity
  8
BODY
  6
CONTINUOUS
 62
     7
100
AcDbLine
 10
3303.238904206227
 20
1695.300387298237
 30
0.0
 11
3303.421432076628
 21
1695.592504593537
 31
0.0
  0
LINE
  5
37B
330
1F
100
AcDbEntity
  8
BODY
  6
CONTINUOUS
 62
     7
100
AcDbLine
 10
3303.421432076628
 20
1695.592504593537
 30
0.0
 11
3303.596675918129
 21
1695.944975446937
 31
0.0
  0
LINE
  5
37C
330
1F
100
AcDbEntity
  8
BODY
  6
CONTINUOUS
 62
     7
100
AcDbLine
 10
3303.596675918129
 20
1695.944975446937
 30
0.0
 11
3303.763302019327
 21
1696.355117342537
 31
0.0
  0
LINE
  5
37D
330
1F
100
AcDbEntity
  8
BODY
  6
CONTINUOUS
 62
     7
100
AcDbLine
 10
3303.763302019327
 20
1696.355117342537
 30
0.0
 11
3303.920042255029
 21
1696.819808852837
 31
0.0
  0
LINE
  5
37E
330
1F
100
AcDbEntity
  8
BODY
  6
CONTINUOUS
 62
     7
100
AcDbLine
 10
3303.920042255029
 20
1696.819808852837
 30
0.0
 11
3304.065703737327
 21
1697.335513394737
 31
0.0
  0
LINE
  5
37F
330
1F
100
AcDbEntity
  8
BODY
  6
CONTINUOUS
 62
     7
100
AcDbLine
 10
3304.065703737327
 20
1697.335513394737
 30
0.0
 11
3304.199177894427
 21
1697.898306145338
 31
0.0
  0
LINE
  5
380
330
1F
100
AcDbEntity
  8
BODY
  6
CONTINUOUS
 62
     7
100
AcDbLine
 10
3304.199177894427
 20
1697.898306145338
 30
0.0
 11
3304.319448907428
 21
1698.503903912038
 31
0.0
  0
LINE
  5
381
330
1F
100
AcDbEntity
  8
BODY
  6
CONTINUOUS
 62
     7
100
AcDbLine
 10
3304.319448907428
 20
1698.503903912038
 30
0.0
 11
3304.425601441128
 21
1699.147697730138
 31
0.0
  0
LINE
  5
382
330
1F
100
AcDbEntity
  8
BODY
  6
CONTINUOUS
 62
     7
100
AcDbLine
 10
3304.425601441128
 20
1699.147697730138
 30
0.0
 11
3304.516827610927
 21
1699.824787939837
 31
0.0
  0
LINE
  5
383
330
1F
100
AcDbEntity
  8
BODY
  6
CONTINUOUS
 62
     7
100
AcDbLine
 10
3304.516827610927
 20
1699.824787939837
 30
0.0
 11
3304.592433130328
 21
1700.530021476037
 31
0.0
  0
LINE
  5
384
330
1F
100
AcDbEntity
  8
BODY
  6
CONTINUOUS
 62
     7
100
AcDbLine
 10
3304.592433130328
 20
1700.530021476037
 30
0.0
 11
3304.651842595828
 21
1701.258031085438
 31
0.0
  0
LINE
  5
385
330
1F
100
AcDbEntity
  8
BODY
  6
CONTINUOUS
 62
     7
100
AcDbLine
 10
3304.651842595828
 20
1701.258031085438
 30
0.0
 11
3304.694603865427
 21
1702.003276175538
 31
0.0
  0
LINE
  5
386
330
1F
100
AcDbEntity
  8
BODY
  6
CONTINUOUS
 62
     7
100
AcDbLine
 10
3304.694603865427
 20
1702.003276175538
 30
0.0
 11
3304.720391500128
 21
1702.760084981037
 31
0.0
  0
LINE
  5
387
330
1F
100
AcDbEntity
  8
BODY
  6
CONTINUOUS
 62
     7
100
AcDbLine
 10
3304.720391500128
 20
1702.760084981037
 30
0.0
 11
3304.729009240428
 21
1703.522697730138
 31
0.0
  0
LINE
  5
388
330
1F
100
AcDbEntity
  8
BODY
  6
CONTINUOUS
 62
     7
100
AcDbLine
 10
3304.729009240428
 20
1703.522697730138
 30
0.0
 11
3304.720391500128
 21
1704.285310479138
 31
0.0
  0
LINE
  5
389
330
1F
100
AcDbEntity
  8
BODY
  6
CONTINUOUS
 62
     7
100
AcDbLine
 10
3304.720391500128
 20
1704.285310479138
 30
0.0
 11
3304.694603865427
 21
1705.042119284637
 31
0.0
  0
LINE
  5
38A
330
1F
100
AcDbEntity
  8
BODY
  6
CONTINUOUS
 62
     7
100
AcDbLine
 10
3304.694603865427
 20
1705.042119284637
 30
0.0
 11
3304.651842595828
 21
1705.787364374737
 31
0.0
  0
LINE
  5
38B
330
1F
100
AcDbEntity
  8
BODY
  6
CONTINUOUS
 62
     7
100
AcDbLine
 10
3304.651842595828
 20
1705.787364374737
 30
0.0
 11
3304.592433130328
 21
1706.515373984137
 31
0.0
  0
LINE
  5
38C
330
1F
100
AcDbEntity
  8
BODY
  6
CONTINUOUS
 62
     7
100
AcDbLine
 10
3304.592433130328
 20
1706.515373984137
 30
0.0
 11
3304.516827610927
 21
1707.220607520337
 31
0.0
  0
LINE
  5
38D
330
1F
100
AcDbEntity
  8
BODY
  6
CONTINUOUS
 62
     7
100
AcDbLine
 10
3304.516827610927
 20
1707.220607520337
 30
0.0
 11
3304.425601441128
 21
1707.897697730137
 31
0.0
  0
LINE
  5
38E
330
1F
100
AcDbEntity
  8
BODY
  6
CONTINUOUS
 62
     7
100
AcDbLine
 10
3304.425601441128
 20
1707.897697730137
 30
0.0
 11
3304.319448907428
 21
1708.541491548137
 31
0.0
  0
LINE
  5
38F
330
1F
100
AcDbEntity
  8
BODY
  6
CONTINUOUS
 62
     7
100
AcDbLine
 10
3304.319448907428
 20
1708.541491548137
 30
0.0
 11
3304.199177894429
 21
1709.147089314837
 31
0.0
  0
LINE
  5
390
330
1F
100
AcDbEntity
  8
BODY
  6
CONTINUOUS
 62
     7
100
AcDbLine
 10
3304.199177894429
 20
1709.147089314837
 30
0.0
 11
3304.065703737327
 21
1709.709882065437
 31
0.0
  0
LINE
  5
391
330
1F
100
AcDbEntity
  8
BODY
  6
CONTINUOUS
 62
     7
100
AcDbLine
 10
3304.065703737327
 20
1709.709882065437
 30
0.0
 11
3303.920042255029
 21
1710.225586607338
 31
0.0
  0
LINE
  5
392
330
1F
100
AcDbEntity
  8
BODY
  6
CONTINUOUS
 62
     7
100
AcDbLine
 10
3303.920042255029
 20
1710.225586607338
 30
0.0
 11
3303.763302019327
 21
1710.690278117638
 31
0.0
  0
LINE
  5
393
330
1F
100
AcDbEntity
  8
BODY
  6
CONTINUOUS
 62
     7
100
AcDbLine
 10
3303.763302019327
 20
1710.690278117638
 30
0.0
 11
3303.596675918129
 21
1711.100420013237
 31
0.0
  0
LINE
  5
394
330
1F
100
AcDbEntity
  8
BODY
  6
CONTINUOUS
 62
     7
100
AcDbLine
 10
3303.596675918129
 20
1711.100420013237
 30
0.0
 11
3303.421432076628
 21
1711.452890866637
 31
0.0
  0
LINE
  5
395
330
1F
100
AcDbEntity
  8
BODY
  6
CONTINUOUS
 62
     7
100
AcDbLine
 10
3303.421432076628
 20
1711.452890866637
 30
0.0
 11
3303.238904206227
 21
1711.745008161937
 31
0.0
  0
LINE
  5
396
330
1F
100
AcDbEntity
  8
BODY
  6
CONTINUOUS
 62
     7
100
AcDbLine
 10
3303.238904206227
 20
1711.745008161937
 30
0.0
 11
3303.050481454228
 21
1711.974548710137
 31
0.0
  0
LINE
  5
397
330
1F
100
AcDbEntity
  8
BODY
  6
CONTINUOUS
 62
     7
100
AcDbLine
 10
3303.050481454228
 20
1711.974548710137
 30
0.0
 11
3302.857597831627
 21
1712.139765568937
 31
0.0
  0
LINE
  5
398
330
1F
100
AcDbEntity
  8
BODY
  6
CONTINUOUS
 62
     7
100
AcDbLine
 10
3302.857597831627
 20
1712.139765568937
 30
0.0
 11
3302.661721299328
 21
1712.239401338437
 31
0.0
  0
LINE
  5
399
330
1F
100
AcDbEntity
  8
BODY
  6
CONTINUOUS
 62
     7
100
AcDbLine
 10
3302.661721299328
 20
1712.239401338437
 30
0.0
 11
3302.464342595828
 21
1712.272697730137
 31
0.0
  0
LINE
  5
39A
330
1F
100
AcDbEntity
  8
BODY
  6
CONTINUOUS
 62
     7
100
AcDbLine
 10
3302.464342595828
 20
1712.272697730137
 30
0.0
 11
3302.266963892327
 21
1712.239401338437
 31
0.0
  0
LINE
  5
39B
330
1F
100
AcDbEntity
  8
BODY
  6
CONTINUOUS
 62
     7
100
AcDbLine
 10
3302.266963892327
 20
1712.239401338437
 30
0.0
 11
3302.071087359929
 21
1712.139765568937
 31
0.0
  0
LINE
  5
39C
330
1F
100
AcDbEntity
  8
BODY
  6
CONTINUOUS
 62
     7
100
AcDbLine
 10
3302.071087359929
 20
1712.139765568937
 30
0.0
 11
3301.878203737327
 21
1711.974548710137
 31
0.0
  0
LINE
  5
39D
330
1F
100
AcDbEntity
  8
BODY
  6
CONTINUOUS
 62
     7
100
AcDbLine
 10
3301.878203737327
 20
1711.974548710137
 30
0.0
 11
3301.689780985429
 21
1711.745008161937
 31
0.0
  0
LINE
  5
39E
330
1F
100
AcDbEntity
  8
BODY
  6
CONTINUOUS
 62
     7
100
AcDbLine
 10
3301.689780985429
 20
1711.745008161937
 30
0.0
 11
3301.507253115028
 21
1711.452890866637
 31
0.0
  0
LINE
  5
39F
330
1F
100
AcDbEntity
  8
BODY
  6
CONTINUOUS
 62
     7
100
AcDbLine
 10
3301.507253115028
 20
1711.452890866637
 30
0.0
 11
3301.332009273429
 21
1711.100420013237
 31
0.0
  0
LINE
  5
3A0
330
1F
100
AcDbEntity
  8
BODY
  6
CONTINUOUS
 62
     7
100
AcDbLine
 10
3301.332009273429
 20
1711.100420013237
 30
0.0
 11
3301.165383172228
 21
1710.690278117638
 31
0.0
  0
LINE
  5
3A1
330
1F
100
AcDbEntity
  8
BODY
  6
CONTINUOUS
 62
     7
100
AcDbLine
 10
3301.165383172228
 20
1710.690278117638
 30
0.0
 11
3301.008642936528
 21
1710.225586607338
 31
0.0
  0
LINE
  5
3A2
330
1F
100
AcDbEntity
  8
BODY
  6
CONTINUOUS
 62
     7
100
AcDbLine
 10
3301.008642936528
 20
1710.225586607338
 30
0.0
 11
3300.862981454228
 21
1709.709882065437
 31
0.0
  0
LINE
  5
3A3
330
1F
100
AcDbEntity
  8
BODY
  6
CONTINUOUS
 62
     7
100
AcDbLine
 10
3300.862981454228
 20
1709.709882065437
 30
0.0
 11
3300.729507297128
 21
1709.147089314837
 31
0.0
  0
LINE
  5
3A4
330
1F
100
AcDbEntity
  8
BODY
  6
CONTINUOUS
 62
     7
100
AcDbLine
 10
3300.729507297128
 20
1709.147089314837
 30
0.0
 11
3300.609236284227
 21
1708.541491548137
 31
0.0
  0
LINE
  5
3A5
330
1F
100
AcDbEntity
  8
BODY
  6
CONTINUOUS
 62
     7
100
AcDbLine
 10
3300.609236284227
 20
1708.541491548137
 30
0.0
 11
3300.503083750429
 21
1707.897697730137
 31
0.0
  0
LINE
  5
3A6
330
1F
100
AcDbEntity
  8
BODY
  6
CONTINUOUS
 62
     7
100
AcDbLine
 10
3300.503083750429
 20
1707.897697730137
 30
0.0
 11
3300.411857580727
 21
1707.220607520337
 31
0.0
  0
LINE
  5
3A7
330
1F
100
AcDbEntity
  8
BODY
  6
CONTINUOUS
 62
     7
100
AcDbLine
 10
3300.411857580727
 20
1707.220607520337
 30
0.0
 11
3300.336252061328
 21
1706.515373984137
 31
0.0
  0
LINE
  5
3A8
330
1F
100
AcDbEntity
  8
BODY
  6
CONTINUOUS
 62
     7
100
AcDbLine
 10
3300.336252061328
 20
1706.515373984137
 30
0.0
 11
3300.276842595828
 21
1705.787364374737
 31
0.0
  0
LINE
  5
3A9
330
1F
100
AcDbEntity
  8
BODY
  6
CONTINUOUS
 62
     7
100
AcDbLine
 10
3300.276842595828
 20
1705.787364374737
 30
0.0
 11
3300.234081326127
 21
1705.042119284637
 31
0.0
  0
LINE
  5
3AA
330
1F
100
AcDbEntity
  8
BODY
  6
CONTINUOUS
 62
     7
100
AcDbLine
 10
3300.234081326127
 20
1705.042119284637
 30
0.0
 11
3300.208293691427
 21
1704.285310479138
 31
0.0
  0
LINE
  5
3AB
330
1F
100
AcDbEntity
  8
BODY
  6
CONTINUOUS
 62
     7
100
AcDbLine
 10
3300.208293691427
 20
1704.285310479138
 30
0.0
 11
3300.199675951127
 21
1703.522697730138
 31
0.0
  0
LINE
  5
3AC
330
1F
100
AcDbEntity
  8
BODY
  6
CONTINUOUS
 62
     7
100
AcDbLine
 10
3300.199675951127
 20
1703.522697730138
 30
0.0
 11
3300.208293691427
 21
1702.760084981037
 31
0.0
  0
LINE
  5
3AD
330
1F
100
AcDbEntity
  8
BODY
  6
CONTINUOUS
 62
     7
100
AcDbLine
 10
3300.208293691427
 20
1702.760084981037
 30
0.0
 11
3300.234081326127
 21
1702.003276175538
 31
0.0
  0
LINE
  5
3AE
330
1F
100
AcDbEntity
  8
BODY
  6
CONTINUOUS
 62
     7
100
AcDbLine
 10
3300.234081326127
 20
1702.003276175538
 30
0.0
 11
3300.276842595828
 21
1701.258031085438
 31
0.0
  0
LINE
  5
3AF
330
1F
100
AcDbEntity
  8
BODY
  6
CONTINUOUS
 62
     7
100
AcDbLine
 10
3300.276842595828
 20
1701.258031085438
 30
0.0
 11
3300.336252061328
 21
1700.530021476037
 31
0.0
  0
LINE
  5
3B0
330
1F
100
AcDbEntity
  8
BODY
  6
CONTINUOUS
 62
     7
100
AcDbLine
 10
3300.336252061328
 20
1700.530021476037
 30
0.0
 11
3300.411857580727
 21
1699.824787939837
 31
0.0
  0
LINE
  5
3B1
330
1F
100
AcDbEntity
  8
BODY
  6
CONTINUOUS
 62
     7
100
AcDbLine
 10
3300.411857580727
 20
1699.824787939837
 30
0.0
 11
3300.503083750429
 21
1699.147697730138
 31
0.0
  0
LINE
  5
3B2
330
1F
100
AcDbEntity
  8
BODY
  6
CONTINUOUS
 62
     7
100
AcDbLine
 10
3300.503083750429
 20
1699.147697730138
 30
0.0
 11
3300.609236284227
 21
1698.503903912038
 31
0.0
  0
LINE
  5
3B3
330
1F
100
AcDbEntity
  8
BODY
  6
CONTINUOUS
 62
     7
100
AcDbLine
 10
3300.609236284227
 20
1698.503903912038
 30
0.0
 11
3300.729507297128
 21
1697.898306145338
 31
0.0
  0
LINE
  5
3B4
330
1F
100
AcDbEntity
  8
BODY
  6
CONTINUOUS
 62
     7
100
AcDbLine
 10
3300.729507297128
 20
1697.898306145338
 30
0.0
 11
3300.862981454228
 21
1697.335513394737
 31
0.0
  0
LINE
  5
3B5
330
1F
100
AcDbEntity
  8
BODY
  6
CONTINUOUS
 62
     7
100
AcDbLine
 10
3300.862981454228
 20
1697.335513394737
 30
0.0
 11
3301.008642936527
 21
1696.819808852837
 31
0.0
  0
LINE
  5
3B6
330
1F
100
AcDbEntity
  8
BODY
  6
CONTINUOUS
 62
     7
100
AcDbLine
 10
3301.008642936527
 20
1696.819808852837
 30
0.0
 11
3301.165383172227
 21
1696.355117342537
 31
0.0
  0
LINE
  5
3B7
330
1F
100
AcDbEntity
  8
BODY
  6
CONTINUOUS
 62
     7
100
AcDbLine
 10
3301.165383172227
 20
1696.355117342537
 30
0.0
 11
3301.332009273429
 21
1695.944975446937
 31
0.0
  0
LINE
  5
3B8
330
1F
100
AcDbEntity
  8
BODY
  6
CONTINUOUS
 62
     7
100
AcDbLine
 10
3301.332009273429
 20
1695.944975446937
 30
0.0
 11
3301.507253115028
 21
1695.592504593537
 31
0.0
  0
LINE
  5
3B9
330
1F
100
AcDbEntity
  8
BODY
  6
CONTINUOUS
 62
     7
100
AcDbLine
 10
3301.507253115028
 20
1695.592504593537
 30
0.0
 11
3301.689780985429
 21
1695.300387298237
 31
0.0
  0
LINE
  5
3BA
330
1F
100
AcDbEntity
  8
BODY
  6
CONTINUOUS
 62
     7
100
AcDbLine
 10
3301.689780985429
 20
1695.300387298237
 30
0.0
 11
3301.878203737327
 21
1695.070846750037
 31
0.0
  0
LINE
  5
3BB
330
1F
100
AcDbEntity
  8
BODY
  6
CONTINUOUS
 62
     7
100
AcDbLine
 10
3301.878203737327
 20
1695.070846750037
 30
0.0
 11
3302.071087359929
 21
1694.905629891237
 31
0.0
  0
LINE
  5
3BC
330
1F
100
AcDbEntity
  8
BODY
  6
CONTINUOUS
 62
     7
100
AcDbLine
 10
3302.071087359929
 20
1694.905629891237
 30
0.0
 11
3302.266963892327
 21
1694.805994121737
 31
0.0
  0
LINE
  5
3BD
330
1F
100
AcDbEntity
  8
BODY
  6
CONTINUOUS
 62
     7
100
AcDbLine
 10
3302.266963892327
 20
1694.805994121737
 30
0.0
 11
3302.464342595828
 21
1694.772697730137
 31
0.0
  0
LINE
  5
3BE
330
1F
100
AcDbEntity
  8
BODY
  6
CONTINUOUS
 62
     7
100
AcDbLine
 10
3302.080885584427
 20
1694.899040283737
 30
0.0
 11
3302.246335653428
 21
1695.061594447738
 31
0.0
  0
LINE
  5
3BF
330
1F
100
AcDbEntity
  8
BODY
  6
CONTINUOUS
 62
     7
100
AcDbLine
 10
3302.246335653428
 20
1695.061594447738
 30
0.0
 11
3302.408009826029
 21
1695.288948167938
 31
0.0
  0
LINE
  5
3C0
330
1F
100
AcDbEntity
  8
BODY
  6
CONTINUOUS
 62
     7
100
AcDbLine
 10
3302.408009826029
 20
1695.288948167938
 30
0.0
 11
3302.564669916828
 21
1695.579360250637
 31
0.0
  0
LINE
  5
3C1
330
1F
100
AcDbEntity
  8
BODY
  6
CONTINUOUS
 62
     7
100
AcDbLine
 10
3302.564669916828
 20
1695.579360250637
 30
0.0
 11
3302.715116140929
 21
1695.930606568038
 31
0.0
  0
LINE
  5
3C2
330
1F
100
AcDbEntity
  8
BODY
  6
CONTINUOUS
 62
     7
100
AcDbLine
 10
3302.715116140929
 20
1695.930606568038
 30
0.0
 11
3302.858196302327
 21
1696.339997092038
 31
0.0
  0
LINE
  5
3C3
330
1F
100
AcDbEntity
  8
BODY
  6
CONTINUOUS
 62
     7
100
AcDbLine
 10
3302.858196302327
 20
1696.339997092038
 30
0.0
 11
3302.992814618328
 21
1696.804396495938
 31
0.0
  0
LINE
  5
3C4
330
1F
100
AcDbEntity
  8
BODY
  6
CONTINUOUS
 62
     7
100
AcDbLine
 10
3302.992814618328
 20
1696.804396495938
 30
0.0
 11
3303.117940111527
 21
1697.320248166037
 31
0.0
  0
LINE
  5
3C5
330
1F
100
AcDbEntity
  8
BODY
  6
CONTINUOUS
 62
     7
100
AcDbLine
 10
3303.117940111527
 20
1697.320248166037
 30
0.0
 11
3303.232614505228
 21
1697.883601440238
 31
0.0
  0
LINE
  5
3C6
330
1F
100
AcDbEntity
  8
BODY
  6
CONTINUOUS
 62
     7
100
AcDbLine
 10
3303.232614505228
 20
1697.883601440238
 30
0.0
 11
3303.335959563028
 21
1698.490141864537
 31
0.0
  0
LINE
  5
3C7
330
1F
100
AcDbEntity
  8
BODY
  6
CONTINUOUS
 62
     7
100
AcDbLine
 10
3303.335959563028
 20
1698.490141864537
 30
0.0
 11
3303.427183814429
 21
1699.135224234937
 31
0.0
  0
LINE
  5
3C8
330
1F
100
AcDbEntity
  8
BODY
  6
CONTINUOUS
 62
     7
100
AcDbLine
 10
3303.427183814429
 20
1699.135224234937
 30
0.0
 11
3303.505588616327
 21
1699.813908173037
 31
0.0
  0
LINE
  5
3C9
330
1F
100
AcDbEntity
  8
BODY
  6
CONTINUOUS
 62
     7
100
AcDbLine
 10
3303.505588616327
 20
1699.813908173037
 30
0.0
 11
3303.570573503728
 21
1700.520995962238
 31
0.0
  0
LINE
  5
3CA
330
1F
100
AcDbEntity
  8
BODY
  6
CONTINUOUS
 62
     7
100
AcDbLine
 10
3303.570573503728
 20
1700.520995962238
 30
0.0
 11
3303.621640788428
 21
1701.251072354238
 31
0.0
  0
LINE
  5
3CB
330
1F
100
AcDbEntity
  8
BODY
  6
CONTINUOUS
 62
     7
100
AcDbLine
 10
3303.621640788428
 20
1701.251072354238
 30
0.0
 11
3303.658399370427
 21
1701.998546041937
 31
0.0
  0
LINE
  5
3CC
330
1F
100
AcDbEntity
  8
BODY
  6
CONTINUOUS
 62
     7
100
AcDbLine
 10
3303.658399370427
 20
1701.998546041937
 30
0.0
 11
3303.680567733128
 21
1702.757692480737
 31
0.0
  0
LINE
  5
3CD
330
1F
100
AcDbEntity
  8
BODY
  6
CONTINUOUS
 62
     7
100
AcDbLine
 10
3303.680567733128
 20
1702.757692480737
 30
0.0
 11
3303.687976099727
 21
1703.522697730138
 31
0.0
  0
LINE
  5
3CE
330
1F
100
AcDbEntity
  8
BODY
  6
CONTINUOUS
 62
     7
100
AcDbLine
 10
3303.687976099727
 20
1703.522697730138
 30
0.0
 11
3303.680567733128
 21
1704.287702979437
 31
0.0
  0
LINE
  5
3CF
330
1F
100
AcDbEntity
  8
BODY
  6
CONTINUOUS
 62
     7
100
AcDbLine
 10
3303.680567733128
 20
1704.287702979437
 30
0.0
 11
3303.658399370427
 21
1705.046849418237
 31
0.0
  0
LINE
  5
3D0
330
1F
100
AcDbEntity
  8
BODY
  6
CONTINUOUS
 62
     7
100
AcDbLine
 10
3303.658399370427
 20
1705.046849418237
 30
0.0
 11
3303.621640788428
 21
1705.794323105937
 31
0.0
  0
LINE
  5
3D1
330
1F
100
AcDbEntity
  8
BODY
  6
CONTINUOUS
 62
     7
100
AcDbLine
 10
3303.621640788428
 20
1705.794323105937
 30
0.0
 11
3303.570573503728
 21
1706.524399497937
 31
0.0
  0
LINE
  5
3D2
330
1F
100
AcDbEntity
  8
BODY
  6
CONTINUOUS
 62
     7
100
AcDbLine
 10
3303.570573503728
 20
1706.524399497937
 30
0.0
 11
3303.505588616327
 21
1707.231487287137
 31
0.0
  0
LINE
  5
3D3
330
1F
100
AcDbEntity
  8
BODY
  6
CONTINUOUS
 62
     7
100
AcDbLine
 10
3303.505588616327
 20
1707.231487287137
 30
0.0
 11
3303.427183814429
 21
1707.910171225238
 31
0.0
  0
LINE
  5
3D4
330
1F
100
AcDbEntity
  8
BODY
  6
CONTINUOUS
 62
     7
100
AcDbLine
 10
3303.427183814429
 20
1707.910171225238
 30
0.0
 11
3303.335959563028
 21
1708.555253595638
 31
0.0
  0
LINE
  5
3D5
330
1F
100
AcDbEntity
  8
BODY
  6
CONTINUOUS
 62
     7
100
AcDbLine
 10
3303.335959563028
 20
1708.555253595638
 30
0.0
 11
3303.232614505228
 21
1709.161794019937
 31
0.0
  0
LINE
  5
3D6
330
1F
100
AcDbEntity
  8
BODY
  6
CONTINUOUS
 62
     7
100
AcDbLine
 10
3303.232614505228
 20
1709.161794019937
 30
0.0
 11
3303.117940111527
 21
1709.725147294137
 31
0.0
  0
LINE
  5
3D7
330
1F
100
AcDbEntity
  8
BODY
  6
CONTINUOUS
 62
     7
100
AcDbLine
 10
3303.117940111527
 20
1709.725147294137
 30
0.0
 11
3302.992814618328
 21
1710.240998964237
 31
0.0
  0
LINE
  5
3D8
330
1F
100
AcDbEntity
  8
BODY
  6
CONTINUOUS
 62
     7
100
AcDbLine
 10
3302.992814618328
 20
1710.240998964237
 30
0.0
 11
3302.858196302327
 21
1710.705398368137
 31
0.0
  0
LINE
  5
3D9
330
1F
100
AcDbEntity
  8
BODY
  6
CONTINUOUS
 62
     7
100
AcDbLine
 10
3302.858196302327
 20
1710.705398368137
 30
0.0
 11
3302.715116140929
 21
1711.114788892137
 31
0.0
  0
LINE
  5
3DA
330
1F
100
AcDbEntity
  8
BODY
  6
CONTINUOUS
 62
     7
100
AcDbLine
 10
3302.715116140929
 20
1711.114788892137
 30
0.0
 11
3302.564669916828
 21
1711.466035209537
 31
0.0
  0
LINE
  5
3DB
330
1F
100
AcDbEntity
  8
BODY
  6
CONTINUOUS
 62
     7
100
AcDbLine
 10
3302.564669916828
 20
1711.466035209537
 30
0.0
 11
3302.408009826029
 21
1711.756447292238
 31
0.0
  0
LINE
  5
3DC
330
1F
100
AcDbEntity
  8
BODY
  6
CONTINUOUS
 62
     7
100
AcDbLine
 10
3302.408009826029
 20
1711.756447292238
 30
0.0
 11
3302.246335653428
 21
1711.983801012437
 31
0.0
  0
LINE
  5
3DD
330
1F
100
AcDbEntity
  8
BODY
  6
CONTINUOUS
 62
     7
100
AcDbLine
 10
3302.246335653428
 20
1711.983801012437
 30
0.0
 11
3302.080885584427
 21
1712.146355176438
 31
0.0
  0
LINE
  5
3DE
330
1F
100
AcDbEntity
  8
BODY
  6
CONTINUOUS
 62
     7
100
AcDbLine
 10
3298.981003094227
 20
1708.928668693237
 30
0.0
 11
3298.981003094227
 21
1687.522697730138
 31
0.0
  0
ARC
  5
3DF
330
1F
100
AcDbEntity
  8
BODY
  6
CONTINUOUS
 62
     7
100
AcDbCircle
 10
3293.328597411328
 20
1708.522697730138
 30
0.0
 40
10.0
100
AcDbArc
 50
90.0
 51
180.0
  0
LINE
  5
3E0
330
1F
100
AcDbEntity
  8
BODY
  6
CONTINUOUS
 62
     7
100
AcDbLine
 10
3293.328597411328
 20
1718.522697730137
 30
0.0
 11
3305.881551443228
 21
1718.522697730137
 31
0.0
  0
ARC
  5
3E1
330
1F
100
AcDbEntity
  8
BODY
  6
CONTINUOUS
 62
     7
100
AcDbCircle
 10
3307.375056651527
 20
1710.352301578137
 30
0.0
 40
8.5139218763
100
AcDbArc
 50
106.3314078193057
 51
189.6257785676044
  0
LINE
  5
3E2
330
1F
100
AcDbEntity
  8
BODY
  6
CONTINUOUS
 62
     7
100
AcDbLine
 10
3306.656209098227
 20
1687.522697730138
 30
0.0
 11
3247.656209098227
 21
1687.522697730138
 31
0.0
  0
LINE
  5
3E3
330
1F
100
AcDbEntity
  8
BODY
  6
CONTINUOUS
 62
     7
100
AcDbLine
 10
3372.156209098227
 20
1784.850200917637
 30
0.0
 11
3372.156209098227
 21
1781.366327781837
 31
0.0
  0
ARC
  5
3E4
330
1F
100
AcDbEntity
  8
BODY
  6
CONTINUOUS
 62
     7
100
AcDbCircle
 10
3367.156209098227
 20
1784.850200917637
 30
0.0
 40
5.0
100
AcDbArc
 50
0.0
 51
104.9999999999944
  0
ARC
  5
3E5
330
1F
100
AcDbEntity
  8
BODY
  6
CONTINUOUS
 62
     7
100
AcDbCircle
 10
3305.656209098227
 20
1746.522697730137
 30
0.0
 40
1.0
100
AcDbArc
 50
0.0
 51
90.0
  0
ARC
  5
3E6
330
1F
100
AcDbEntity
  8
BODY
  6
CONTINUOUS
 62
     7
100
AcDbCircle
 10
3304.556209098229
 20
1748.122697730137
 30
0.0
 40
0.6
100
AcDbArc
 50
270.0
 51
0.0
  0
ARC
  5
3E7
330
1F
100
AcDbEntity
  8
BODY
  6
CONTINUOUS
 62
     7
100
AcDbCircle
 10
3304.556209098229
 20
1752.922697730137
 30
0.0
 40
0.6
100
AcDbArc
 50
0.0
 51
90.0
  0
LINE
  5
3E8
330
1F
100
AcDbEntity
  8
BODY
  6
CONTINUOUS
 62
     7
100
AcDbLine
 10
3305.156209098227
 20
1748.122697730137
 30
0.0
 11
3305.156209098227
 21
1752.922697730137
 31
0.0
  0
ARC
  5
3E9
330
1F
100
AcDbEntity
  8
BODY
  6
CONTINUOUS
 62
     7
100
AcDbCircle
 10
3295.756209098229
 20
1748.122697730137
 30
0.0
 40
0.6
100
AcDbArc
 50
180.0
 51
270.0
  0
ARC
  5
3EA
330
1F
100
AcDbEntity
  8
BODY
  6
CONTINUOUS
 62
     7
100
AcDbCircle
 10
3295.756209098229
 20
1752.922697730137
 30
0.0
 40
0.6
100
AcDbArc
 50
90.0
 51
180.0
  0
LINE
  5
3EB
330
1F
100
AcDbEntity
  8
BODY
  6
CONTINUOUS
 62
     7
100
AcDbLine
 10
3295.156209098227
 20
1748.122697730137
 30
0.0
 11
3295.156209098227
 21
1752.922697730137
 31
0.0
  0
LINE
  5
3EC
330
1F
100
AcDbEntity
  8
BODY
  6
CONTINUOUS
 62
     7
100
AcDbLine
 10
3291.756209098229
 20
1753.622697232737
 30
0.0
 11
3291.756209098229
 21
1753.522697730137
 31
0.0
  0
LINE
  5
3ED
330
1F
100
AcDbEntity
  8
BODY
  6
CONTINUOUS
 62
     7
100
AcDbLine
 10
3289.656209098227
 20
1753.622697232737
 30
0.0
 11
3289.656209098227
 21
1753.522697730137
 31
0.0
  0
LINE
  5
3EE
330
1F
100
AcDbEntity
  8
BODY
  6
CONTINUOUS
 62
     7
100
AcDbLine
 10
3294.156209098228
 20
1753.522697730137
 30
0.0
 11
3294.156209098228
 21
1747.522697730137
 31
0.0
  0
LINE
  5
3EF
330
1F
100
AcDbEntity
  8
BODY
  6
CONTINUOUS
 62
     7
100
AcDbLine
 10
3294.156209098228
 20
1756.822697232737
 30
0.0
 11
3294.156209098228
 21
1753.622697232737
 31
0.0
  0
LINE
  5
3F0
330
1F
100
AcDbEntity
  8
BODY
  6
CONTINUOUS
 62
     7
100
AcDbLine
 10
3286.556209098228
 20
1753.622697232737
 30
0.0
 11
3286.556209098228
 21
1753.522697730137
 31
0.0
  0
LINE
  5
3F1
330
1F
100
AcDbEntity
  8
BODY
  6
CONTINUOUS
 62
     7
100
AcDbLine
 10
3288.656209098228
 20
1753.622697232737
 30
0.0
 11
3288.656209098228
 21
1753.522697730137
 31
0.0
  0
ARC
  5
3F2
330
1F
100
AcDbEntity
  8
BODY
  6
CONTINUOUS
 62
     7
100
AcDbCircle
 10
3281.556209098227
 20
1748.122697730137
 30
0.0
 40
0.6
100
AcDbArc
 50
270.0
 51
0.0
  0
ARC
  5
3F3
330
1F
100
AcDbEntity
  8
BODY
  6
CONTINUOUS
 62
     7
100
AcDbCircle
 10
3281.556209098227
 20
1752.922697730137
 30
0.0
 40
0.6
100
AcDbArc
 50
0.0
 51
90.0
  0
LINE
  5
3F4
330
1F
100
AcDbEntity
  8
BODY
  6
CONTINUOUS
 62
     7
100
AcDbLine
 10
3282.656209098227
 20
1753.622697232737
 30
0.0
 11
3282.656209098227
 21
1753.522697730137
 31
0.0
  0
LINE
  5
3F5
330
1F
100
AcDbEntity
  8
BODY
  6
CONTINUOUS
 62
     7
100
AcDbLine
 10
3282.156209098227
 20
1748.122697730137
 30
0.0
 11
3282.156209098227
 21
1752.922697730137
 31
0.0
  0
LINE
  5
3F6
330
1F
100
AcDbEntity
  8
BODY
  6
CONTINUOUS
 62
     7
100
AcDbLine
 10
3286.156209098227
 20
1758.322697232737
 30
0.0
 11
3286.156209098227
 21
1757.822697232737
 31
0.0
  0
ARC
  5
3F7
330
1F
100
AcDbEntity
  8
BODY
  6
CONTINUOUS
 62
     7
100
AcDbCircle
 10
3285.156209098227
 20
1757.822697232737
 30
0.0
 40
1.0
100
AcDbArc
 50
270.0
 51
0.0
  0
LINE
  5
3F8
330
1F
100
AcDbEntity
  8
BODY
  6
CONTINUOUS
 62
     7
100
AcDbLine
 10
3278.656209098227
 20
1758.322697232737
 30
0.0
 11
3286.156209098227
 21
1758.322697232737
 31
0.0
  0
LINE
  5
3F9
330
1F
100
AcDbEntity
  8
BODY
  6
CONTINUOUS
 62
     7
100
AcDbLine
 10
3286.156209098227
 20
1768.822697232737
 30
0.0
 11
3286.156209098227
 21
1768.322697232737
 31
0.0
  0
LINE
  5
3FA
330
1F
100
AcDbEntity
  8
BODY
  6
CONTINUOUS
 62
     7
100
AcDbLine
 10
3278.656209098227
 20
1768.322697232737
 30
0.0
 11
3286.156209098227
 21
1768.322697232737
 31
0.0
  0
LINE
  5
3FB
330
1F
100
AcDbEntity
  8
BODY
  6
CONTINUOUS
 62
     7
100
AcDbLine
 10
3285.406209098227
 20
1770.822697232737
 30
0.0
 11
3285.406209098227
 21
1769.822697232737
 31
0.0
  0
ARC
  5
3FC
330
1F
100
AcDbEntity
  8
BODY
  6
CONTINUOUS
 62
     7
100
AcDbCircle
 10
3280.906209098227
 20
1771.322697232738
 30
0.0
 40
0.5
100
AcDbArc
 50
270.0
 51
0.0
  0
ARC
  5
3FD
330
1F
100
AcDbEntity
  8
BODY
  6
CONTINUOUS
 62
     7
100
AcDbCircle
 10
3280.906209098227
 20
1775.322697232737
 30
0.0
 40
0.5
100
AcDbArc
 50
0.0
 51
90.0
  0
LINE
  5
3FE
330
1F
100
AcDbEntity
  8
BODY
  6
CONTINUOUS
 62
     7
100
AcDbLine
 10
3281.406209098227
 20
1771.322697232738
 30
0.0
 11
3281.406209098227
 21
1775.322697232737
 31
0.0
  0
ARC
  5
3FF
330
1F
100
AcDbEntity
  8
BODY
  6
CONTINUOUS
 62
     7
100
AcDbCircle
 10
3285.156209098227
 20
1768.822697232737
 30
0.0
 40
1.0
100
AcDbArc
 50
0.0
 51
90.0
  0
LINE
  5
400
330
1F
100
AcDbEntity
  8
BODY
  6
CONTINUOUS
 62
     7
100
AcDbLine
 10
3272.906209098227
 20
1771.322697232738
 30
0.0
 11
3272.906209098227
 21
1775.322697232737
 31
0.0
  0
ARC
  5
401
330
1F
100
AcDbEntity
  8
BODY
  6
CONTINUOUS
 62
     7
100
AcDbCircle
 10
3273.406209098227
 20
1775.322697232737
 30
0.0
 40
0.5
100
AcDbArc
 50
90.0
 51
180.0
  0
ARC
  5
402
330
1F
100
AcDbEntity
  8
BODY
  6
CONTINUOUS
 62
     7
100
AcDbCircle
 10
3273.406209098227
 20
1771.322697232738
 30
0.0
 40
0.5
100
AcDbArc
 50
180.0
 51
270.0
  0
LINE
  5
403
330
1F
100
AcDbEntity
  8
BODY
  6
CONTINUOUS
 62
     7
100
AcDbLine
 10
3294.156209098228
 20
1753.522697730137
 30
0.0
 11
3272.656209098327
 21
1753.522697730138
 31
0.0
  0
LINE
  5
404
330
1F
100
AcDbEntity
  8
BODY
  6
CONTINUOUS
 62
     7
100
AcDbLine
 10
3294.156209098228
 20
1753.622697232737
 30
0.0
 11
3272.656209098327
 21
1753.622697232738
 31
0.0
  0
LINE
  5
405
330
1F
100
AcDbEntity
  8
BODY
  6
CONTINUOUS
 62
     7
100
AcDbLine
 10
3294.156209098228
 20
1756.822697232737
 30
0.0
 11
3272.656209098327
 21
1756.822697232737
 31
0.0
  0
LINE
  5
406
330
1F
100
AcDbEntity
  8
BODY
  6
CONTINUOUS
 62
     7
100
AcDbLine
 10
3285.406209098227
 20
1769.822697232737
 30
0.0
 11
3269.156209098327
 21
1769.822697232737
 31
0.0
  0
ARC
  5
407
330
1F
100
AcDbEntity
  8
BODY
  6
CONTINUOUS
 62
     7
100
AcDbCircle
 10
3278.656209098227
 20
1769.822697232737
 30
0.0
 40
1.5
100
AcDbArc
 50
180.0
 51
270.0
  0
ARC
  5
408
330
1F
100
AcDbEntity
  8
BODY
  6
CONTINUOUS
 62
     7
100
AcDbCircle
 10
3278.656209098227
 20
1756.822697232737
 30
0.0
 40
1.5
100
AcDbArc
 50
90.0
 51
180.0
  0
LINE
  5
409
330
1F
100
AcDbEntity
  8
BODY
  6
CONTINUOUS
 62
     7
100
AcDbLine
 10
3285.406209098227
 20
1770.822697232737
 30
0.0
 11
3269.110148456169
 21
1770.822697232737
 31
0.0
  0
LINE
  5
40A
330
1F
100
AcDbEntity
  8
BODY
  6
CONTINUOUS
 62
     7
100
AcDbLine
 10
3273.406209098227
 20
1775.822697232737
 30
0.0
 11
3280.906209098227
 21
1775.822697232737
 31
0.0
  0
LINE
  5
40B
330
1F
100
AcDbEntity
  8
BODY
  6
CONTINUOUS
 62
     7
100
AcDbLine
 10
3249.756209098229
 20
1753.522697730137
 30
0.0
 11
3258.556209098227
 21
1753.522697730137
 31
0.0
  0
LINE
  5
40C
330
1F
100
AcDbEntity
  8
BODY
  6
CONTINUOUS
 62
     7
100
AcDbLine
 10
3305.656209098227
 20
1747.522697730137
 30
0.0
 11
3273.406209098328
 21
1747.522697730137
 31
0.0
  0
LINE
  5
40D
330
1F
100
AcDbEntity
  8
BODY
  6
CONTINUOUS
 62
     7
100
AcDbLine
 10
3295.756209098229
 20
1753.522697730137
 30
0.0
 11
3304.556209098229
 21
1753.522697730137
 31
0.0
  0
LINE
  5
40E
330
1F
100
AcDbEntity
  8
BODY
  6
CONTINUOUS
 62
     7
100
AcDbLine
 10
3286.156209098227
 20
1758.322697232737
 30
0.0
 11
3372.156209098227
 21
1781.366327781837
 31
0.0
  0
LINE
  5
40F
330
1F
100
AcDbEntity
  8
BODY
  6
CONTINUOUS
 62
     7
100
AcDbLine
 10
3365.862113872727
 20
1789.679830049037
 30
0.0
 11
3286.156209098227
 21
1768.322697232737
 31
0.0
  0
LINE
  5
410
330
1F
100
AcDbEntity
  8
BODY
  6
CONTINUOUS
 62
     7
100
AcDbLine
 10
3283.328597411328
 20
1747.522697730137
 30
0.0
 11
3283.328597411328
 21
1708.522697730138
 31
0.0
  0
LINE
  5
411
330
1F
100
AcDbEntity
  8
BODY
  6
CONTINUOUS
 62
     7
100
AcDbLine
 10
3302.193762168027
 20
1747.522697730137
 30
0.0
 11
3302.193762168027
 21
1718.522697730137
 31
0.0
  0
LINE
  5
412
330
1F
100
AcDbEntity
  8
BODY
  6
CONTINUOUS
 62
     7
100
AcDbLine
 10
3306.656209098227
 20
1746.522697730137
 30
0.0
 11
3306.656209098227
 21
1687.522697730138
 31
0.0
  0
LINE
  5
413
330
1F
100
AcDbEntity
  8
BODY
  6
CONTINUOUS
 62
     7
100
AcDbLine
 10
3270.983820785127
 20
1717.522697730137
 30
0.0
 11
3270.983820785127
 21
1687.522697730138
 31
0.0
  0
LINE
  5
414
330
1F
100
AcDbEntity
  8
BODY
  6
CONTINUOUS
 62
     7
100
AcDbLine
 10
3598.656209098227
 20
1694.772697730138
 30
0.0
 11
3599.358161450329
 21
1694.805994121838
 31
0.0
  0
LINE
  5
415
330
1F
100
AcDbEntity
  8
BODY
  6
CONTINUOUS
 62
     7
100
AcDbLine
 10
3599.358161450329
 20
1694.805994121838
 30
0.0
 11
3600.054771521228
 21
1694.905629891337
 31
0.0
  0
LINE
  5
416
330
1F
100
AcDbEntity
  8
BODY
  6
CONTINUOUS
 62
     7
100
AcDbLine
 10
3600.054771521228
 20
1694.905629891337
 30
0.0
 11
3600.740737687527
 21
1695.070846750138
 31
0.0
  0
LINE
  5
417
330
1F
100
AcDbEntity
  8
BODY
  6
CONTINUOUS
 62
     7
100
AcDbLine
 10
3600.740737687527
 20
1695.070846750138
 30
0.0
 11
3601.410839332628
 21
1695.300387298338
 31
0.0
  0
LINE
  5
418
330
1F
100
AcDbEntity
  8
BODY
  6
CONTINUOUS
 62
     7
100
AcDbLine
 10
3601.410839332628
 20
1695.300387298338
 30
0.0
 11
3602.059976578328
 21
1695.592504593638
 31
0.0
  0
LINE
  5
419
330
1F
100
AcDbEntity
  8
BODY
  6
CONTINUOUS
 62
     7
100
AcDbLine
 10
3602.059976578328
 20
1695.592504593638
 30
0.0
 11
3602.683209098228
 21
1695.944975447037
 31
0.0
  0
LINE
  5
41A
330
1F
100
AcDbEntity
  8
BODY
  6
CONTINUOUS
 62
     7
100
AcDbLine
 10
3602.683209098228
 20
1695.944975447037
 30
0.0
 11
3603.275793716628
 21
1696.355117342637
 31
0.0
  0
LINE
  5
41B
330
1F
100
AcDbEntity
  8
BODY
  6
CONTINUOUS
 62
     7
100
AcDbLine
 10
3603.275793716628
 20
1696.355117342637
 30
0.0
 11
3603.833220506729
 21
1696.819808852938
 31
0.0
  0
LINE
  5
41C
330
1F
100
AcDbEntity
  8
BODY
  6
CONTINUOUS
 62
     7
100
AcDbLine
 10
3603.833220506729
 20
1696.819808852938
 30
0.0
 11
3604.351247113928
 21
1697.335513394838
 31
0.0
  0
LINE
  5
41D
330
1F
100
AcDbEntity
  8
BODY
  6
CONTINUOUS
 62
     7
100
AcDbLine
 10
3604.351247113928
 20
1697.335513394838
 30
0.0
 11
3604.825931043129
 21
1697.898306145437
 31
0.0
  0
LINE
  5
41E
330
1F
100
AcDbEntity
  8
BODY
  6
CONTINUOUS
 62
     7
100
AcDbLine
 10
3604.825931043129
 20
1697.898306145437
 30
0.0
 11
3605.253659662928
 21
1698.503903912138
 31
0.0
  0
LINE
  5
41F
330
1F
100
AcDbEntity
  8
BODY
  6
CONTINUOUS
 62
     7
100
AcDbLine
 10
3605.253659662928
 20
1698.503903912138
 30
0.0
 11
3605.631177700329
 21
1699.147697730138
 31
0.0
  0
LINE
  5
420
330
1F
100
AcDbEntity
  8
BODY
  6
CONTINUOUS
 62
     7
100
AcDbLine
 10
3605.631177700329
 20
1699.147697730138
 30
0.0
 11
3605.955612015029
 21
1699.824787939938
 31
0.0
  0
LINE
  5
421
330
1F
100
AcDbEntity
  8
BODY
  6
CONTINUOUS
 62
     7
100
AcDbLine
 10
3605.955612015029
 20
1699.824787939938
 30
0.0
 11
3606.224493466128
 21
1700.530021476038
 31
0.0
  0
LINE
  5
422
330
1F
100
AcDbEntity
  8
BODY
  6
CONTINUOUS
 62
     7
100
AcDbLine
 10
3606.224493466128
 20
1700.530021476038
 30
0.0
 11
3606.435775703229
 21
1701.258031085538
 31
0.0
  0
LINE
  5
423
330
1F
100
AcDbEntity
  8
BODY
  6
CONTINUOUS
 62
     7
100
AcDbLine
 10
3606.435775703229
 20
1701.258031085538
 30
0.0
 11
3606.587850741028
 21
1702.003276175638
 31
0.0
  0
LINE
  5
424
330
1F
100
AcDbEntity
  8
BODY
  6
CONTINUOUS
 62
     7
100
AcDbLine
 10
3606.587850741028
 20
1702.003276175638
 30
0.0
 11
3606.679561196727
 21
1702.760084981138
 31
0.0
  0
LINE
  5
425
330
1F
100
AcDbEntity
  8
BODY
  6
CONTINUOUS
 62
     7
100
AcDbLine
 10
3606.679561196727
 20
1702.760084981138
 30
0.0
 11
3606.710209098228
 21
1703.522697730138
 31
0.0
  0
LINE
  5
426
330
1F
100
AcDbEntity
  8
BODY
  6
CONTINUOUS
 62
     7
100
AcDbLine
 10
3606.710209098228
 20
1703.522697730138
 30
0.0
 11
3606.679561196727
 21
1704.285310479238
 31
0.0
  0
LINE
  5
427
330
1F
100
AcDbEntity
  8
BODY
  6
CONTINUOUS
 62
     7
100
AcDbLine
 10
3606.679561196727
 20
1704.285310479238
 30
0.0
 11
3606.587850741028
 21
1705.042119284738
 31
0.0
  0
LINE
  5
428
330
1F
100
AcDbEntity
  8
BODY
  6
CONTINUOUS
 62
     7
100
AcDbLine
 10
3606.587850741028
 20
1705.042119284738
 30
0.0
 11
3606.435775703229
 21
1705.787364374838
 31
0.0
  0
LINE
  5
429
330
1F
100
AcDbEntity
  8
BODY
  6
CONTINUOUS
 62
     7
100
AcDbLine
 10
3606.435775703229
 20
1705.787364374838
 30
0.0
 11
3606.224493466128
 21
1706.515373984238
 31
0.0
  0
LINE
  5
42A
330
1F
100
AcDbEntity
  8
BODY
  6
CONTINUOUS
 62
     7
100
AcDbLine
 10
3606.224493466128
 20
1706.515373984238
 30
0.0
 11
3605.955612015029
 21
1707.220607520438
 31
0.0
  0
LINE
  5
42B
330
1F
100
AcDbEntity
  8
BODY
  6
CONTINUOUS
 62
     7
100
AcDbLine
 10
3605.955612015029
 20
1707.220607520438
 30
0.0
 11
3605.631177700329
 21
1707.897697730137
 31
0.0
  0
LINE
  5
42C
330
1F
100
AcDbEntity
  8
BODY
  6
CONTINUOUS
 62
     7
100
AcDbLine
 10
3605.631177700329
 20
1707.897697730137
 30
0.0
 11
3605.253659662928
 21
1708.541491548237
 31
0.0
  0
LINE
  5
42D
330
1F
100
AcDbEntity
  8
BODY
  6
CONTINUOUS
 62
     7
100
AcDbLine
 10
3605.253659662928
 20
1708.541491548237
 30
0.0
 11
3604.825931043129
 21
1709.147089314938
 31
0.0
  0
LINE
  5
42E
330
1F
100
AcDbEntity
  8
BODY
  6
CONTINUOUS
 62
     7
100
AcDbLine
 10
3604.825931043129
 20
1709.147089314938
 30
0.0
 11
3604.351247113928
 21
1709.709882065538
 31
0.0
  0
LINE
  5
42F
330
1F
100
AcDbEntity
  8
BODY
  6
CONTINUOUS
 62
     7
100
AcDbLine
 10
3604.351247113928
 20
1709.709882065538
 30
0.0
 11
3603.833220506729
 21
1710.225586607437
 31
0.0
  0
LINE
  5
430
330
1F
100
AcDbEntity
  8
BODY
  6
CONTINUOUS
 62
     7
100
AcDbLine
 10
3603.833220506729
 20
1710.225586607437
 30
0.0
 11
3603.275793716628
 21
1710.690278117738
 31
0.0
  0
LINE
  5
431
330
1F
100
AcDbEntity
  8
BODY
  6
CONTINUOUS
 62
     7
100
AcDbLine
 10
3603.275793716628
 20
1710.690278117738
 30
0.0
 11
3602.683209098228
 21
1711.100420013337
 31
0.0
  0
LINE
  5
432
330
1F
100
AcDbEntity
  8
BODY
  6
CONTINUOUS
 62
     7
100
AcDbLine
 10
3602.683209098228
 20
1711.100420013337
 30
0.0
 11
3602.059976578328
 21
1711.452890866738
 31
0.0
  0
LINE
  5
433
330
1F
100
AcDbEntity
  8
BODY
  6
CONTINUOUS
 62
     7
100
AcDbLine
 10
3602.059976578328
 20
1711.452890866738
 30
0.0
 11
3601.410839332628
 21
1711.745008162038
 31
0.0
  0
LINE
  5
434
330
1F
100
AcDbEntity
  8
BODY
  6
CONTINUOUS
 62
     7
100
AcDbLine
 10
3601.410839332628
 20
1711.745008162038
 30
0.0
 11
3600.740737687527
 21
1711.974548710237
 31
0.0
  0
LINE
  5
435
330
1F
100
AcDbEntity
  8
BODY
  6
CONTINUOUS
 62
     7
100
AcDbLine
 10
3600.740737687527
 20
1711.974548710237
 30
0.0
 11
3600.054771521228
 21
1712.139765569038
 31
0.0
  0
LINE
  5
436
330
1F
100
AcDbEntity
  8
BODY
  6
CONTINUOUS
 62
     7
100
AcDbLine
 10
3600.054771521228
 20
1712.139765569038
 30
0.0
 11
3599.358161450329
 21
1712.239401338438
 31
0.0
  0
LINE
  5
437
330
1F
100
AcDbEntity
  8
BODY
  6
CONTINUOUS
 62
     7
100
AcDbLine
 10
3599.358161450329
 20
1712.239401338438
 30
0.0
 11
3598.656209098227
 21
1712.272697730137
 31
0.0
  0
LINE
  5
438
330
1F
100
AcDbEntity
  8
BODY
  6
CONTINUOUS
 62
     7
100
AcDbLine
 10
3598.656209098227
 20
1712.272697730137
 30
0.0
 11
3597.954256746228
 21
1712.239401338438
 31
0.0
  0
LINE
  5
439
330
1F
100
AcDbEntity
  8
BODY
  6
CONTINUOUS
 62
     7
100
AcDbLine
 10
3597.954256746228
 20
1712.239401338438
 30
0.0
 11
3597.257646675327
 21
1712.139765569038
 31
0.0
  0
LINE
  5
43A
330
1F
100
AcDbEntity
  8
BODY
  6
CONTINUOUS
 62
     7
100
AcDbLine
 10
3597.257646675327
 20
1712.139765569038
 30
0.0
 11
3596.571680509027
 21
1711.974548710237
 31
0.0
  0
LINE
  5
43B
330
1F
100
AcDbEntity
  8
BODY
  6
CONTINUOUS
 62
     7
100
AcDbLine
 10
3596.571680509027
 20
1711.974548710237
 30
0.0
 11
3595.901578863927
 21
1711.745008162038
 31
0.0
  0
LINE
  5
43C
330
1F
100
AcDbEntity
  8
BODY
  6
CONTINUOUS
 62
     7
100
AcDbLine
 10
3595.901578863927
 20
1711.745008162038
 30
0.0
 11
3595.252441618227
 21
1711.452890866738
 31
0.0
  0
LINE
  5
43D
330
1F
100
AcDbEntity
  8
BODY
  6
CONTINUOUS
 62
     7
100
AcDbLine
 10
3595.252441618227
 20
1711.452890866738
 30
0.0
 11
3594.629209098228
 21
1711.100420013337
 31
0.0
  0
LINE
  5
43E
330
1F
100
AcDbEntity
  8
BODY
  6
CONTINUOUS
 62
     7
100
AcDbLine
 10
3594.629209098228
 20
1711.100420013337
 30
0.0
 11
3594.036624479927
 21
1710.690278117738
 31
0.0
  0
LINE
  5
43F
330
1F
100
AcDbEntity
  8
BODY
  6
CONTINUOUS
 62
     7
100
AcDbLine
 10
3594.036624479927
 20
1710.690278117738
 30
0.0
 11
3593.479197689827
 21
1710.225586607437
 31
0.0
  0
LINE
  5
440
330
1F
100
AcDbEntity
  8
BODY
  6
CONTINUOUS
 62
     7
100
AcDbLine
 10
3593.479197689827
 20
1710.225586607437
 30
0.0
 11
3592.961171082629
 21
1709.709882065538
 31
0.0
  0
LINE
  5
441
330
1F
100
AcDbEntity
  8
BODY
  6
CONTINUOUS
 62
     7
100
AcDbLine
 10
3592.961171082629
 20
1709.709882065538
 30
0.0
 11
3592.486487153428
 21
1709.147089314938
 31
0.0
  0
LINE
  5
442
330
1F
100
AcDbEntity
  8
BODY
  6
CONTINUOUS
 62
     7
100
AcDbLine
 10
3592.486487153428
 20
1709.147089314938
 30
0.0
 11
3592.058758533527
 21
1708.541491548237
 31
0.0
  0
LINE
  5
443
330
1F
100
AcDbEntity
  8
BODY
  6
CONTINUOUS
 62
     7
100
AcDbLine
 10
3592.058758533527
 20
1708.541491548237
 30
0.0
 11
3591.681240496229
 21
1707.897697730137
 31
0.0
  0
LINE
  5
444
330
1F
100
AcDbEntity
  8
BODY
  6
CONTINUOUS
 62
     7
100
AcDbLine
 10
3591.681240496229
 20
1707.897697730137
 30
0.0
 11
3591.356806181528
 21
1707.220607520438
 31
0.0
  0
LINE
  5
445
330
1F
100
AcDbEntity
  8
BODY
  6
CONTINUOUS
 62
     7
100
AcDbLine
 10
3591.356806181528
 20
1707.220607520438
 30
0.0
 11
3591.087924730429
 21
1706.515373984238
 31
0.0
  0
LINE
  5
446
330
1F
100
AcDbEntity
  8
BODY
  6
CONTINUOUS
 62
     7
100
AcDbLine
 10
3591.087924730429
 20
1706.515373984238
 30
0.0
 11
3590.876642493328
 21
1705.787364374838
 31
0.0
  0
LINE
  5
447
330
1F
100
AcDbEntity
  8
BODY
  6
CONTINUOUS
 62
     7
100
AcDbLine
 10
3590.876642493328
 20
1705.787364374838
 30
0.0
 11
3590.724567455527
 21
1705.042119284738
 31
0.0
  0
LINE
  5
448
330
1F
100
AcDbEntity
  8
BODY
  6
CONTINUOUS
 62
     7
100
AcDbLine
 10
3590.724567455527
 20
1705.042119284738
 30
0.0
 11
3590.632856999828
 21
1704.285310479238
 31
0.0
  0
LINE
  5
449
330
1F
100
AcDbEntity
  8
BODY
  6
CONTINUOUS
 62
     7
100
AcDbLine
 10
3590.632856999828
 20
1704.285310479238
 30
0.0
 11
3590.602209098229
 21
1703.522697730138
 31
0.0
  0
LINE
  5
44A
330
1F
100
AcDbEntity
  8
BODY
  6
CONTINUOUS
 62
     7
100
AcDbLine
 10
3590.602209098229
 20
1703.522697730138
 30
0.0
 11
3590.632856999828
 21
1702.760084981138
 31
0.0
  0
LINE
  5
44B
330
1F
100
AcDbEntity
  8
BODY
  6
CONTINUOUS
 62
     7
100
AcDbLine
 10
3590.632856999828
 20
1702.760084981138
 30
0.0
 11
3590.724567455527
 21
1702.003276175638
 31
0.0
  0
LINE
  5
44C
330
1F
100
AcDbEntity
  8
BODY
  6
CONTINUOUS
 62
     7
100
AcDbLine
 10
3590.724567455527
 20
1702.003276175638
 30
0.0
 11
3590.876642493328
 21
1701.258031085538
 31
0.0
  0
LINE
  5
44D
330
1F
100
AcDbEntity
  8
BODY
  6
CONTINUOUS
 62
     7
100
AcDbLine
 10
3590.876642493328
 20
1701.258031085538
 30
0.0
 11
3591.087924730429
 21
1700.530021476038
 31
0.0
  0
LINE
  5
44E
330
1F
100
AcDbEntity
  8
BODY
  6
CONTINUOUS
 62
     7
100
AcDbLine
 10
3591.087924730429
 20
1700.530021476038
 30
0.0
 11
3591.356806181528
 21
1699.824787939938
 31
0.0
  0
LINE
  5
44F
330
1F
100
AcDbEntity
  8
BODY
  6
CONTINUOUS
 62
     7
100
AcDbLine
 10
3591.356806181528
 20
1699.824787939938
 30
0.0
 11
3591.681240496229
 21
1699.147697730138
 31
0.0
  0
LINE
  5
450
330
1F
100
AcDbEntity
  8
BODY
  6
CONTINUOUS
 62
     7
100
AcDbLine
 10
3591.681240496229
 20
1699.147697730138
 30
0.0
 11
3592.058758533527
 21
1698.503903912138
 31
0.0
  0
LINE
  5
451
330
1F
100
AcDbEntity
  8
BODY
  6
CONTINUOUS
 62
     7
100
AcDbLine
 10
3592.058758533527
 20
1698.503903912138
 30
0.0
 11
3592.486487153428
 21
1697.898306145437
 31
0.0
  0
LINE
  5
452
330
1F
100
AcDbEntity
  8
BODY
  6
CONTINUOUS
 62
     7
100
AcDbLine
 10
3592.486487153428
 20
1697.898306145437
 30
0.0
 11
3592.961171082629
 21
1697.335513394838
 31
0.0
  0
LINE
  5
453
330
1F
100
AcDbEntity
  8
BODY
  6
CONTINUOUS
 62
     7
100
AcDbLine
 10
3592.961171082629
 20
1697.335513394838
 30
0.0
 11
3593.479197689827
 21
1696.819808852938
 31
0.0
  0
LINE
  5
454
330
1F
100
AcDbEntity
  8
BODY
  6
CONTINUOUS
 62
     7
100
AcDbLine
 10
3593.479197689827
 20
1696.819808852938
 30
0.0
 11
3594.036624479927
 21
1696.355117342637
 31
0.0
  0
LINE
  5
455
330
1F
100
AcDbEntity
  8
BODY
  6
CONTINUOUS
 62
     7
100
AcDbLine
 10
3594.036624479927
 20
1696.355117342637
 30
0.0
 11
3594.629209098228
 21
1695.944975447037
 31
0.0
  0
LINE
  5
456
330
1F
100
AcDbEntity
  8
BODY
  6
CONTINUOUS
 62
     7
100
AcDbLine
 10
3594.629209098228
 20
1695.944975447037
 30
0.0
 11
3595.252441618227
 21
1695.592504593638
 31
0.0
  0
LINE
  5
457
330
1F
100
AcDbEntity
  8
BODY
  6
CONTINUOUS
 62
     7
100
AcDbLine
 10
3595.252441618227
 20
1695.592504593638
 30
0.0
 11
3595.901578863927
 21
1695.300387298338
 31
0.0
  0
LINE
  5
458
330
1F
100
AcDbEntity
  8
BODY
  6
CONTINUOUS
 62
     7
100
AcDbLine
 10
3595.901578863927
 20
1695.300387298338
 30
0.0
 11
3596.571680509027
 21
1695.070846750138
 31
0.0
  0
LINE
  5
459
330
1F
100
AcDbEntity
  8
BODY
  6
CONTINUOUS
 62
     7
100
AcDbLine
 10
3596.571680509027
 20
1695.070846750138
 30
0.0
 11
3597.257646675327
 21
1694.905629891337
 31
0.0
  0
LINE
  5
45A
330
1F
100
AcDbEntity
  8
BODY
  6
CONTINUOUS
 62
     7
100
AcDbLine
 10
3597.257646675327
 20
1694.905629891337
 30
0.0
 11
3597.954256746228
 21
1694.805994121838
 31
0.0
  0
LINE
  5
45B
330
1F
100
AcDbEntity
  8
BODY
  6
CONTINUOUS
 62
     7
100
AcDbLine
 10
3597.954256746228
 20
1694.805994121838
 30
0.0
 11
3598.656209098227
 21
1694.772697730138
 31
0.0
  0
LINE
  5
45C
330
1F
100
AcDbEntity
  8
BODY
  6
CONTINUOUS
 62
     7
100
AcDbLine
 10
3598.956209098228
 20
1696.024697730138
 30
0.0
 11
3599.587434565128
 21
1696.053229883938
 31
0.0
  0
LINE
  5
45D
330
1F
100
AcDbEntity
  8
BODY
  6
CONTINUOUS
 62
     7
100
AcDbLine
 10
3599.587434565128
 20
1696.053229883938
 30
0.0
 11
3600.213856025028
 21
1696.138609198137
 31
0.0
  0
LINE
  5
45E
330
1F
100
AcDbEntity
  8
BODY
  6
CONTINUOUS
 62
     7
100
AcDbLine
 10
3600.213856025028
 20
1696.138609198137
 30
0.0
 11
3600.830706032428
 21
1696.280185884638
 31
0.0
  0
LINE
  5
45F
330
1F
100
AcDbEntity
  8
BODY
  6
CONTINUOUS
 62
     7
100
AcDbLine
 10
3600.830706032428
 20
1696.280185884638
 30
0.0
 11
3601.433289986328
 21
1696.476882459537
 31
0.0
  0
LINE
  5
460
330
1F
100
AcDbEntity
  8
BODY
  6
CONTINUOUS
 62
     7
100
AcDbLine
 10
3601.433289986328
 20
1696.476882459537
 30
0.0
 11
3602.017021858929
 21
1696.727201942938
 31
0.0
  0
LINE
  5
461
330
1F
100
AcDbEntity
  8
BODY
  6
CONTINUOUS
 62
     7
100
AcDbLine
 10
3602.017021858929
 20
1696.727201942938
 30
0.0
 11
3602.577459098228
 21
1697.029239252637
 31
0.0
  0
LINE
  5
462
330
1F
100
AcDbEntity
  8
BODY
  6
CONTINUOUS
 62
     7
100
AcDbLine
 10
3602.577459098228
 20
1697.029239252637
 30
0.0
 11
3603.110336438528
 21
1697.380695702138
 31
0.0
  0
LINE
  5
463
330
1F
100
AcDbEntity
  8
BODY
  6
CONTINUOUS
 62
     7
100
AcDbLine
 10
3603.110336438528
 20
1697.380695702138
 30
0.0
 11
3603.611598361428
 21
1697.778896495638
 31
0.0
  0
LINE
  5
464
330
1F
100
AcDbEntity
  8
BODY
  6
CONTINUOUS
 62
     7
100
AcDbLine
 10
3603.611598361428
 20
1697.778896495638
 30
0.0
 11
3604.077429961029
 21
1698.220811084838
 31
0.0
  0
LINE
  5
465
330
1F
100
AcDbEntity
  8
BODY
  6
CONTINUOUS
 62
     7
100
AcDbLine
 10
3604.077429961029
 20
1698.220811084838
 30
0.0
 11
3604.504285977527
 21
1698.703076232737
 31
0.0
  0
LINE
  5
466
330
1F
100
AcDbEntity
  8
BODY
  6
CONTINUOUS
 62
     7
100
AcDbLine
 10
3604.504285977527
 20
1698.703076232737
 30
0.0
 11
3604.888917779028
 21
1699.222021610438
 31
0.0
  0
LINE
  5
467
330
1F
100
AcDbEntity
  8
BODY
  6
CONTINUOUS
 62
     7
100
AcDbLine
 10
3604.888917779028
 20
1699.222021610438
 30
0.0
 11
3605.228398085227
 21
1699.773697730137
 31
0.0
  0
LINE
  5
468
330
1F
100
AcDbEntity
  8
BODY
  6
CONTINUOUS
 62
     7
100
AcDbLine
 10
3605.228398085227
 20
1699.773697730137
 30
0.0
 11
3605.520143245928
 21
1700.353906003638
 31
0.0
  0
LINE
  5
469
330
1F
100
AcDbEntity
  8
BODY
  6
CONTINUOUS
 62
     7
100
AcDbLine
 10
3605.520143245928
 20
1700.353906003638
 30
0.0
 11
3605.761932904329
 21
1700.958230695538
 31
0.0
  0
LINE
  5
46A
330
1F
100
AcDbEntity
  8
BODY
  6
CONTINUOUS
 62
     7
100
AcDbLine
 10
3605.761932904329
 20
1700.958230695538
 30
0.0
 11
3605.951926895127
 21
1701.582072530038
 31
0.0
  0
LINE
  5
46B
330
1F
100
AcDbEntity
  8
BODY
  6
CONTINUOUS
 62
     7
100
AcDbLine
 10
3605.951926895127
 20
1701.582072530038
 30
0.0
 11
3606.088679249429
 21
1702.220683694038
 31
0.0
  0
LINE
  5
46C
330
1F
100
AcDbEntity
  8
BODY
  6
CONTINUOUS
 62
     7
100
AcDbLine
 10
3606.088679249429
 20
1702.220683694038
 30
0.0
 11
3606.171149199229
 21
1702.869203971038
 31
0.0
  0
LINE
  5
46D
330
1F
100
AcDbEntity
  8
BODY
  6
CONTINUOUS
 62
     7
100
AcDbLine
 10
3606.171149199229
 20
1702.869203971038
 30
0.0
 11
3606.198709098229
 21
1703.522697730138
 31
0.0
  0
LINE
  5
46E
330
1F
100
AcDbEntity
  8
BODY
  6
CONTINUOUS
 62
     7
100
AcDbLine
 10
3606.198709098229
 20
1703.522697730138
 30
0.0
 11
3606.171149199229
 21
1704.176191489338
 31
0.0
  0
LINE
  5
46F
330
1F
100
AcDbEntity
  8
BODY
  6
CONTINUOUS
 62
     7
100
AcDbLine
 10
3606.171149199229
 20
1704.176191489338
 30
0.0
 11
3606.088679249429
 21
1704.824711766337
 31
0.0
  0
LINE
  5
470
330
1F
100
AcDbEntity
  8
BODY
  6
CONTINUOUS
 62
     7
100
AcDbLine
 10
3606.088679249429
 20
1704.824711766337
 30
0.0
 11
3605.951926895127
 21
1705.463322930337
 31
0.0
  0
LINE
  5
471
330
1F
100
AcDbEntity
  8
BODY
  6
CONTINUOUS
 62
     7
100
AcDbLine
 10
3605.951926895127
 20
1705.463322930337
 30
0.0
 11
3605.761932904329
 21
1706.087164764837
 31
0.0
  0
LINE
  5
472
330
1F
100
AcDbEntity
  8
BODY
  6
CONTINUOUS
 62
     7
100
AcDbLine
 10
3605.761932904329
 20
1706.087164764837
 30
0.0
 11
3605.520143245928
 21
1706.691489456738
 31
0.0
  0
LINE
  5
473
330
1F
100
AcDbEntity
  8
BODY
  6
CONTINUOUS
 62
     7
100
AcDbLine
 10
3605.520143245928
 20
1706.691489456738
 30
0.0
 11
3605.228398085227
 21
1707.271697730138
 31
0.0
  0
LINE
  5
474
330
1F
100
AcDbEntity
  8
BODY
  6
CONTINUOUS
 62
     7
100
AcDbLine
 10
3605.228398085227
 20
1707.271697730138
 30
0.0
 11
3604.888917779028
 21
1707.823373849938
 31
0.0
  0
LINE
  5
475
330
1F
100
AcDbEntity
  8
BODY
  6
CONTINUOUS
 62
     7
100
AcDbLine
 10
3604.888917779028
 20
1707.823373849938
 30
0.0
 11
3604.504285977527
 21
1708.342319227638
 31
0.0
  0
LINE
  5
476
330
1F
100
AcDbEntity
  8
BODY
  6
CONTINUOUS
 62
     7
100
AcDbLine
 10
3604.504285977527
 20
1708.342319227638
 30
0.0
 11
3604.077429961029
 21
1708.824584375538
 31
0.0
  0
LINE
  5
477
330
1F
100
AcDbEntity
  8
BODY
  6
CONTINUOUS
 62
     7
100
AcDbLine
 10
3604.077429961029
 20
1708.824584375538
 30
0.0
 11
3603.611598361428
 21
1709.266498964738
 31
0.0
  0
LINE
  5
478
330
1F
100
AcDbEntity
  8
BODY
  6
CONTINUOUS
 62
     7
100
AcDbLine
 10
3603.611598361428
 20
1709.266498964738
 30
0.0
 11
3603.110336438528
 21
1709.664699758238
 31
0.0
  0
LINE
  5
479
330
1F
100
AcDbEntity
  8
BODY
  6
CONTINUOUS
 62
     7
100
AcDbLine
 10
3603.110336438528
 20
1709.664699758238
 30
0.0
 11
3602.577459098228
 21
1710.016156207738
 31
0.0
  0
LINE
  5
47A
330
1F
100
AcDbEntity
  8
BODY
  6
CONTINUOUS
 62
     7
100
AcDbLine
 10
3602.577459098228
 20
1710.016156207738
 30
0.0
 11
3602.017021858929
 21
1710.318193517337
 31
0.0
  0
LINE
  5
47B
330
1F
100
AcDbEntity
  8
BODY
  6
CONTINUOUS
 62
     7
100
AcDbLine
 10
3602.017021858929
 20
1710.318193517337
 30
0.0
 11
3601.433289986328
 21
1710.568513000838
 31
0.0
  0
LINE
  5
47C
330
1F
100
AcDbEntity
  8
BODY
  6
CONTINUOUS
 62
     7
100
AcDbLine
 10
3601.433289986328
 20
1710.568513000838
 30
0.0
 11
3600.830706032428
 21
1710.765209575737
 31
0.0
  0
LINE
  5
47D
330
1F
100
AcDbEntity
  8
BODY
  6
CONTINUOUS
 62
     7
100
AcDbLine
 10
3600.830706032428
 20
1710.765209575737
 30
0.0
 11
3600.213856025028
 21
1710.906786262238
 31
0.0
  0
LINE
  5
47E
330
1F
100
AcDbEntity
  8
BODY
  6
CONTINUOUS
 62
     7
100
AcDbLine
 10
3600.213856025028
 20
1710.906786262238
 30
0.0
 11
3599.587434565128
 21
1710.992165576438
 31
0.0
  0
LINE
  5
47F
330
1F
100
AcDbEntity
  8
BODY
  6
CONTINUOUS
 62
     7
100
AcDbLine
 10
3599.587434565128
 20
1710.992165576438
 30
0.0
 11
3598.956209098228
 21
1711.020697730138
 31
0.0
  0
LINE
  5
480
330
1F
100
AcDbEntity
  8
BODY
  6
CONTINUOUS
 62
     7
100
AcDbLine
 10
3598.956209098228
 20
1711.020697730138
 30
0.0
 11
3598.324983631427
 21
1710.992165576438
 31
0.0
  0
LINE
  5
481
330
1F
100
AcDbEntity
  8
BODY
  6
CONTINUOUS
 62
     7
100
AcDbLine
 10
3598.324983631427
 20
1710.992165576438
 30
0.0
 11
3597.698562171528
 21
1710.906786262238
 31
0.0
  0
LINE
  5
482
330
1F
100
AcDbEntity
  8
BODY
  6
CONTINUOUS
 62
     7
100
AcDbLine
 10
3597.698562171528
 20
1710.906786262238
 30
0.0
 11
3597.081712164127
 21
1710.765209575737
 31
0.0
  0
LINE
  5
483
330
1F
100
AcDbEntity
  8
BODY
  6
CONTINUOUS
 62
     7
100
AcDbLine
 10
3597.081712164127
 20
1710.765209575737
 30
0.0
 11
3596.479128210227
 21
1710.568513000838
 31
0.0
  0
LINE
  5
484
330
1F
100
AcDbEntity
  8
BODY
  6
CONTINUOUS
 62
     7
100
AcDbLine
 10
3596.479128210227
 20
1710.568513000838
 30
0.0
 11
3595.895396337628
 21
1710.318193517337
 31
0.0
  0
LINE
  5
485
330
1F
100
AcDbEntity
  8
BODY
  6
CONTINUOUS
 62
     7
100
AcDbLine
 10
3595.895396337628
 20
1710.318193517337
 30
0.0
 11
3595.334959098227
 21
1710.016156207738
 31
0.0
  0
LINE
  5
486
330
1F
100
AcDbEntity
  8
BODY
  6
CONTINUOUS
 62
     7
100
AcDbLine
 10
3595.334959098227
 20
1710.016156207738
 30
0.0
 11
3594.802081758027
 21
1709.664699758238
 31
0.0
  0
LINE
  5
487
330
1F
100
AcDbEntity
  8
BODY
  6
CONTINUOUS
 62
     7
100
AcDbLine
 10
3594.802081758027
 20
1709.664699758238
 30
0.0
 11
3594.300819835127
 21
1709.266498964738
 31
0.0
  0
LINE
  5
488
330
1F
100
AcDbEntity
  8
BODY
  6
CONTINUOUS
 62
     7
100
AcDbLine
 10
3594.300819835127
 20
1709.266498964738
 30
0.0
 11
3593.834988235527
 21
1708.824584375538
 31
0.0
  0
LINE
  5
489
330
1F
100
AcDbEntity
  8
BODY
  6
CONTINUOUS
 62
     7
100
AcDbLine
 10
3593.834988235527
 20
1708.824584375538
 30
0.0
 11
3593.408132219028
 21
1708.342319227638
 31
0.0
  0
LINE
  5
48A
330
1F
100
AcDbEntity
  8
BODY
  6
CONTINUOUS
 62
     7
100
AcDbLine
 10
3593.408132219028
 20
1708.342319227638
 30
0.0
 11
3593.023500417527
 21
1707.823373849938
 31
0.0
  0
LINE
  5
48B
330
1F
100
AcDbEntity
  8
BODY
  6
CONTINUOUS
 62
     7
100
AcDbLine
 10
3593.023500417527
 20
1707.823373849938
 30
0.0
 11
3592.684020111327
 21
1707.271697730138
 31
0.0
  0
LINE
  5
48C
330
1F
100
AcDbEntity
  8
BODY
  6
CONTINUOUS
 62
     7
100
AcDbLine
 10
3592.684020111327
 20
1707.271697730138
 30
0.0
 11
3592.392274950628
 21
1706.691489456738
 31
0.0
  0
LINE
  5
48D
330
1F
100
AcDbEntity
  8
BODY
  6
CONTINUOUS
 62
     7
100
AcDbLine
 10
3592.392274950628
 20
1706.691489456738
 30
0.0
 11
3592.150485292228
 21
1706.087164764837
 31
0.0
  0
LINE
  5
48E
330
1F
100
AcDbEntity
  8
BODY
  6
CONTINUOUS
 62
     7
100
AcDbLine
 10
3592.150485292228
 20
1706.087164764837
 30
0.0
 11
3591.960491301328
 21
1705.463322930337
 31
0.0
  0
LINE
  5
48F
330
1F
100
AcDbEntity
  8
BODY
  6
CONTINUOUS
 62
     7
100
AcDbLine
 10
3591.960491301328
 20
1705.463322930337
 30
0.0
 11
3591.823738947128
 21
1704.824711766337
 31
0.0
  0
LINE
  5
490
330
1F
100
AcDbEntity
  8
BODY
  6
CONTINUOUS
 62
     7
100
AcDbLine
 10
3591.823738947128
 20
1704.824711766337
 30
0.0
 11
3591.741268997328
 21
1704.176191489338
 31
0.0
  0
LINE
  5
491
330
1F
100
AcDbEntity
  8
BODY
  6
CONTINUOUS
 62
     7
100
AcDbLine
 10
3591.741268997328
 20
1704.176191489338
 30
0.0
 11
3591.713709098228
 21
1703.522697730138
 31
0.0
  0
LINE
  5
492
330
1F
100
AcDbEntity
  8
BODY
  6
CONTINUOUS
 62
     7
100
AcDbLine
 10
3591.713709098228
 20
1703.522697730138
 30
0.0
 11
3591.741268997328
 21
1702.869203971038
 31
0.0
  0
LINE
  5
493
330
1F
100
AcDbEntity
  8
BODY
  6
CONTINUOUS
 62
     7
100
AcDbLine
 10
3591.741268997328
 20
1702.869203971038
 30
0.0
 11
3591.823738947128
 21
1702.220683694038
 31
0.0
  0
LINE
  5
494
330
1F
100
AcDbEntity
  8
BODY
  6
CONTINUOUS
 62
     7
100
AcDbLine
 10
3591.823738947128
 20
1702.220683694038
 30
0.0
 11
3591.960491301328
 21
1701.582072530038
 31
0.0
  0
LINE
  5
495
330
1F
100
AcDbEntity
  8
BODY
  6
CONTINUOUS
 62
     7
100
AcDbLine
 10
3591.960491301328
 20
1701.582072530038
 30
0.0
 11
3592.150485292228
 21
1700.958230695538
 31
0.0
  0
LINE
  5
496
330
1F
100
AcDbEntity
  8
BODY
  6
CONTINUOUS
 62
     7
100
AcDbLine
 10
3592.150485292228
 20
1700.958230695538
 30
0.0
 11
3592.392274950628
 21
1700.353906003638
 31
0.0
  0
LINE
  5
497
330
1F
100
AcDbEntity
  8
BODY
  6
CONTINUOUS
 62
     7
100
AcDbLine
 10
3592.392274950628
 20
1700.353906003638
 30
0.0
 11
3592.684020111327
 21
1699.773697730137
 31
0.0
  0
LINE
  5
498
330
1F
100
AcDbEntity
  8
BODY
  6
CONTINUOUS
 62
     7
100
AcDbLine
 10
3592.684020111327
 20
1699.773697730137
 30
0.0
 11
3593.023500417527
 21
1699.222021610438
 31
0.0
  0
LINE
  5
499
330
1F
100
AcDbEntity
  8
BODY
  6
CONTINUOUS
 62
     7
100
AcDbLine
 10
3593.023500417527
 20
1699.222021610438
 30
0.0
 11
3593.408132219028
 21
1698.703076232737
 31
0.0
  0
LINE
  5
49A
330
1F
100
AcDbEntity
  8
BODY
  6
CONTINUOUS
 62
     7
100
AcDbLine
 10
3593.408132219028
 20
1698.703076232737
 30
0.0
 11
3593.834988235527
 21
1698.220811084838
 31
0.0
  0
LINE
  5
49B
330
1F
100
AcDbEntity
  8
BODY
  6
CONTINUOUS
 62
     7
100
AcDbLine
 10
3593.834988235527
 20
1698.220811084838
 30
0.0
 11
3594.300819835127
 21
1697.778896495638
 31
0.0
  0
LINE
  5
49C
330
1F
100
AcDbEntity
  8
BODY
  6
CONTINUOUS
 62
     7
100
AcDbLine
 10
3594.300819835127
 20
1697.778896495638
 30
0.0
 11
3594.802081758027
 21
1697.380695702138
 31
0.0
  0
LINE
  5
49D
330
1F
100
AcDbEntity
  8
BODY
  6
CONTINUOUS
 62
     7
100
AcDbLine
 10
3594.802081758027
 20
1697.380695702138
 30
0.0
 11
3595.334959098227
 21
1697.029239252637
 31
0.0
  0
LINE
  5
49E
330
1F
100
AcDbEntity
  8
BODY
  6
CONTINUOUS
 62
     7
100
AcDbLine
 10
3595.334959098227
 20
1697.029239252637
 30
0.0
 11
3595.895396337628
 21
1696.727201942938
 31
0.0
  0
LINE
  5
49F
330
1F
100
AcDbEntity
  8
BODY
  6
CONTINUOUS
 62
     7
100
AcDbLine
 10
3595.895396337628
 20
1696.727201942938
 30
0.0
 11
3596.479128210227
 21
1696.476882459537
 31
0.0
  0
LINE
  5
4A0
330
1F
100
AcDbEntity
  8
BODY
  6
CONTINUOUS
 62
     7
100
AcDbLine
 10
3596.479128210227
 20
1696.476882459537
 30
0.0
 11
3597.081712164127
 21
1696.280185884638
 31
0.0
  0
LINE
  5
4A1
330
1F
100
AcDbEntity
  8
BODY
  6
CONTINUOUS
 62
     7
100
AcDbLine
 10
3597.081712164127
 20
1696.280185884638
 30
0.0
 11
3597.698562171528
 21
1696.138609198137
 31
0.0
  0
LINE
  5
4A2
330
1F
100
AcDbEntity
  8
BODY
  6
CONTINUOUS
 62
     7
100
AcDbLine
 10
3597.698562171528
 20
1696.138609198137
 30
0.0
 11
3598.324983631427
 21
1696.053229883938
 31
0.0
  0
LINE
  5
4A3
330
1F
100
AcDbEntity
  8
BODY
  6
CONTINUOUS
 62
     7
100
AcDbLine
 10
3598.324983631427
 20
1696.053229883938
 30
0.0
 11
3598.956209098228
 21
1696.024697730138
 31
0.0
  0
LINE
  5
4A4
330
1F
100
AcDbEntity
  8
BODY
  6
CONTINUOUS
 62
     7
100
AcDbLine
 10
3631.656209098228
 20
1694.772697730138
 30
0.0
 11
3632.358161450328
 21
1694.805994121838
 31
0.0
  0
LINE
  5
4A5
330
1F
100
AcDbEntity
  8
BODY
  6
CONTINUOUS
 62
     7
100
AcDbLine
 10
3632.358161450328
 20
1694.805994121838
 30
0.0
 11
3633.054771521228
 21
1694.905629891337
 31
0.0
  0
LINE
  5
4A6
330
1F
100
AcDbEntity
  8
BODY
  6
CONTINUOUS
 62
     7
100
AcDbLine
 10
3633.054771521228
 20
1694.905629891337
 30
0.0
 11
3633.740737687527
 21
1695.070846750138
 31
0.0
  0
LINE
  5
4A7
330
1F
100
AcDbEntity
  8
BODY
  6
CONTINUOUS
 62
     7
100
AcDbLine
 10
3633.740737687527
 20
1695.070846750138
 30
0.0
 11
3634.410839332628
 21
1695.300387298338
 31
0.0
  0
LINE
  5
4A8
330
1F
100
AcDbEntity
  8
BODY
  6
CONTINUOUS
 62
     7
100
AcDbLine
 10
3634.410839332628
 20
1695.300387298338
 30
0.0
 11
3635.059976578328
 21
1695.592504593638
 31
0.0
  0
LINE
  5
4A9
330
1F
100
AcDbEntity
  8
BODY
  6
CONTINUOUS
 62
     7
100
AcDbLine
 10
3635.059976578328
 20
1695.592504593638
 30
0.0
 11
3635.683209098228
 21
1695.944975447037
 31
0.0
  0
LINE
  5
4AA
330
1F
100
AcDbEntity
  8
BODY
  6
CONTINUOUS
 62
     7
100
AcDbLine
 10
3635.683209098228
 20
1695.944975447037
 30
0.0
 11
3636.275793716628
 21
1696.355117342637
 31
0.0
  0
LINE
  5
4AB
330
1F
100
AcDbEntity
  8
BODY
  6
CONTINUOUS
 62
     7
100
AcDbLine
 10
3636.275793716628
 20
1696.355117342637
 30
0.0
 11
3636.833220506728
 21
1696.819808852938
 31
0.0
  0
LINE
  5
4AC
330
1F
100
AcDbEntity
  8
BODY
  6
CONTINUOUS
 62
     7
100
AcDbLine
 10
3636.833220506728
 20
1696.819808852938
 30
0.0
 11
3637.351247113928
 21
1697.335513394838
 31
0.0
  0
LINE
  5
4AD
330
1F
100
AcDbEntity
  8
BODY
  6
CONTINUOUS
 62
     7
100
AcDbLine
 10
3637.351247113928
 20
1697.335513394838
 30
0.0
 11
3637.825931043128
 21
1697.898306145437
 31
0.0
  0
LINE
  5
4AE
330
1F
100
AcDbEntity
  8
BODY
  6
CONTINUOUS
 62
     7
100
AcDbLine
 10
3637.825931043128
 20
1697.898306145437
 30
0.0
 11
3638.253659662928
 21
1698.503903912138
 31
0.0
  0
LINE
  5
4AF
330
1F
100
AcDbEntity
  8
BODY
  6
CONTINUOUS
 62
     7
100
AcDbLine
 10
3638.253659662928
 20
1698.503903912138
 30
0.0
 11
3638.631177700329
 21
1699.147697730138
 31
0.0
  0
LINE
  5
4B0
330
1F
100
AcDbEntity
  8
BODY
  6
CONTINUOUS
 62
     7
100
AcDbLine
 10
3638.631177700329
 20
1699.147697730138
 30
0.0
 11
3638.955612015028
 21
1699.824787939938
 31
0.0
  0
LINE
  5
4B1
330
1F
100
AcDbEntity
  8
BODY
  6
CONTINUOUS
 62
     7
100
AcDbLine
 10
3638.955612015028
 20
1699.824787939938
 30
0.0
 11
3639.224493466128
 21
1700.530021476038
 31
0.0
  0
LINE
  5
4B2
330
1F
100
AcDbEntity
  8
BODY
  6
CONTINUOUS
 62
     7
100
AcDbLine
 10
3639.224493466128
 20
1700.530021476038
 30
0.0
 11
3639.435775703229
 21
1701.258031085538
 31
0.0
  0
LINE
  5
4B3
330
1F
100
AcDbEntity
  8
BODY
  6
CONTINUOUS
 62
     7
100
AcDbLine
 10
3639.435775703229
 20
1701.258031085538
 30
0.0
 11
3639.587850741028
 21
1702.003276175638
 31
0.0
  0
LINE
  5
4B4
330
1F
100
AcDbEntity
  8
BODY
  6
CONTINUOUS
 62
     7
100
AcDbLine
 10
3639.587850741028
 20
1702.003276175638
 30
0.0
 11
3639.679561196729
 21
1702.760084981138
 31
0.0
  0
LINE
  5
4B5
330
1F
100
AcDbEntity
  8
BODY
  6
CONTINUOUS
 62
     7
100
AcDbLine
 10
3639.679561196729
 20
1702.760084981138
 30
0.0
 11
3639.710209098228
 21
1703.522697730138
 31
0.0
  0
LINE
  5
4B6
330
1F
100
AcDbEntity
  8
BODY
  6
CONTINUOUS
 62
     7
100
AcDbLine
 10
3639.710209098228
 20
1703.522697730138
 30
0.0
 11
3639.679561196729
 21
1704.285310479238
 31
0.0
  0
LINE
  5
4B7
330
1F
100
AcDbEntity
  8
BODY
  6
CONTINUOUS
 62
     7
100
AcDbLine
 10
3639.679561196729
 20
1704.285310479238
 30
0.0
 11
3639.587850741028
 21
1705.042119284738
 31
0.0
  0
LINE
  5
4B8
330
1F
100
AcDbEntity
  8
BODY
  6
CONTINUOUS
 62
     7
100
AcDbLine
 10
3639.587850741028
 20
1705.042119284738
 30
0.0
 11
3639.435775703229
 21
1705.787364374838
 31
0.0
  0
LINE
  5
4B9
330
1F
100
AcDbEntity
  8
BODY
  6
CONTINUOUS
 62
     7
100
AcDbLine
 10
3639.435775703229
 20
1705.787364374838
 30
0.0
 11
3639.224493466128
 21
1706.515373984238
 31
0.0
  0
LINE
  5
4BA
330
1F
100
AcDbEntity
  8
BODY
  6
CONTINUOUS
 62
     7
100
AcDbLine
 10
3639.224493466128
 20
1706.515373984238
 30
0.0
 11
3638.955612015028
 21
1707.220607520438
 31
0.0
  0
LINE
  5
4BB
330
1F
100
AcDbEntity
  8
BODY
  6
CONTINUOUS
 62
     7
100
AcDbLine
 10
3638.955612015028
 20
1707.220607520438
 30
0.0
 11
3638.631177700329
 21
1707.897697730137
 31
0.0
  0
LINE
  5
4BC
330
1F
100
AcDbEntity
  8
BODY
  6
CONTINUOUS
 62
     7
100
AcDbLine
 10
3638.631177700329
 20
1707.897697730137
 30
0.0
 11
3638.253659662928
 21
1708.541491548237
 31
0.0
  0
LINE
  5
4BD
330
1F
100
AcDbEntity
  8
BODY
  6
CONTINUOUS
 62
     7
100
AcDbLine
 10
3638.253659662928
 20
1708.541491548237
 30
0.0
 11
3637.825931043128
 21
1709.147089314938
 31
0.0
  0
LINE
  5
4BE
330
1F
100
AcDbEntity
  8
BODY
  6
CONTINUOUS
 62
     7
100
AcDbLine
 10
3637.825931043128
 20
1709.147089314938
 30
0.0
 11
3637.351247113928
 21
1709.709882065538
 31
0.0
  0
LINE
  5
4BF
330
1F
100
AcDbEntity
  8
BODY
  6
CONTINUOUS
 62
     7
100
AcDbLine
 10
3637.351247113928
 20
1709.709882065538
 30
0.0
 11
3636.833220506728
 21
1710.225586607437
 31
0.0
  0
LINE
  5
4C0
330
1F
100
AcDbEntity
  8
BODY
  6
CONTINUOUS
 62
     7
100
AcDbLine
 10
3636.833220506728
 20
1710.225586607437
 30
0.0
 11
3636.275793716628
 21
1710.690278117738
 31
0.0
  0
LINE
  5
4C1
330
1F
100
AcDbEntity
  8
BODY
  6
CONTINUOUS
 62
     7
100
AcDbLine
 10
3636.275793716628
 20
1710.690278117738
 30
0.0
 11
3635.683209098228
 21
1711.100420013337
 31
0.0
  0
LINE
  5
4C2
330
1F
100
AcDbEntity
  8
BODY
  6
CONTINUOUS
 62
     7
100
AcDbLine
 10
3635.683209098228
 20
1711.100420013337
 30
0.0
 11
3635.059976578328
 21
1711.452890866738
 31
0.0
  0
LINE
  5
4C3
330
1F
100
AcDbEntity
  8
BODY
  6
CONTINUOUS
 62
     7
100
AcDbLine
 10
3635.059976578328
 20
1711.452890866738
 30
0.0
 11
3634.410839332628
 21
1711.745008162038
 31
0.0
  0
LINE
  5
4C4
330
1F
100
AcDbEntity
  8
BODY
  6
CONTINUOUS
 62
     7
100
AcDbLine
 10
3634.410839332628
 20
1711.745008162038
 30
0.0
 11
3633.740737687527
 21
1711.974548710237
 31
0.0
  0
LINE
  5
4C5
330
1F
100
AcDbEntity
  8
BODY
  6
CONTINUOUS
 62
     7
100
AcDbLine
 10
3633.740737687527
 20
1711.974548710237
 30
0.0
 11
3633.054771521228
 21
1712.139765569038
 31
0.0
  0
LINE
  5
4C6
330
1F
100
AcDbEntity
  8
BODY
  6
CONTINUOUS
 62
     7
100
AcDbLine
 10
3633.054771521228
 20
1712.139765569038
 30
0.0
 11
3632.358161450328
 21
1712.239401338438
 31
0.0
  0
LINE
  5
4C7
330
1F
100
AcDbEntity
  8
BODY
  6
CONTINUOUS
 62
     7
100
AcDbLine
 10
3632.358161450328
 20
1712.239401338438
 30
0.0
 11
3631.656209098228
 21
1712.272697730137
 31
0.0
  0
LINE
  5
4C8
330
1F
100
AcDbEntity
  8
BODY
  6
CONTINUOUS
 62
     7
100
AcDbLine
 10
3631.656209098228
 20
1712.272697730137
 30
0.0
 11
3630.954256746228
 21
1712.239401338438
 31
0.0
  0
LINE
  5
4C9
330
1F
100
AcDbEntity
  8
BODY
  6
CONTINUOUS
 62
     7
100
AcDbLine
 10
3630.954256746228
 20
1712.239401338438
 30
0.0
 11
3630.257646675328
 21
1712.139765569038
 31
0.0
  0
LINE
  5
4CA
330
1F
100
AcDbEntity
  8
BODY
  6
CONTINUOUS
 62
     7
100
AcDbLine
 10
3630.257646675328
 20
1712.139765569038
 30
0.0
 11
3629.571680509027
 21
1711.974548710237
 31
0.0
  0
LINE
  5
4CB
330
1F
100
AcDbEntity
  8
BODY
  6
CONTINUOUS
 62
     7
100
AcDbLine
 10
3629.571680509027
 20
1711.974548710237
 30
0.0
 11
3628.901578863928
 21
1711.745008162038
 31
0.0
  0
LINE
  5
4CC
330
1F
100
AcDbEntity
  8
BODY
  6
CONTINUOUS
 62
     7
100
AcDbLine
 10
3628.901578863928
 20
1711.745008162038
 30
0.0
 11
3628.252441618228
 21
1711.452890866738
 31
0.0
  0
LINE
  5
4CD
330
1F
100
AcDbEntity
  8
BODY
  6
CONTINUOUS
 62
     7
100
AcDbLine
 10
3628.252441618228
 20
1711.452890866738
 30
0.0
 11
3627.629209098228
 21
1711.100420013337
 31
0.0
  0
LINE
  5
4CE
330
1F
100
AcDbEntity
  8
BODY
  6
CONTINUOUS
 62
     7
100
AcDbLine
 10
3627.629209098228
 20
1711.100420013337
 30
0.0
 11
3627.036624479927
 21
1710.690278117738
 31
0.0
  0
LINE
  5
4CF
330
1F
100
AcDbEntity
  8
BODY
  6
CONTINUOUS
 62
     7
100
AcDbLine
 10
3627.036624479927
 20
1710.690278117738
 30
0.0
 11
3626.479197689828
 21
1710.225586607437
 31
0.0
  0
LINE
  5
4D0
330
1F
100
AcDbEntity
  8
BODY
  6
CONTINUOUS
 62
     7
100
AcDbLine
 10
3626.479197689828
 20
1710.225586607437
 30
0.0
 11
3625.961171082629
 21
1709.709882065538
 31
0.0
  0
LINE
  5
4D1
330
1F
100
AcDbEntity
  8
BODY
  6
CONTINUOUS
 62
     7
100
AcDbLine
 10
3625.961171082629
 20
1709.709882065538
 30
0.0
 11
3625.486487153428
 21
1709.147089314938
 31
0.0
  0
LINE
  5
4D2
330
1F
100
AcDbEntity
  8
BODY
  6
CONTINUOUS
 62
     7
100
AcDbLine
 10
3625.486487153428
 20
1709.147089314938
 30
0.0
 11
3625.058758533527
 21
1708.541491548237
 31
0.0
  0
LINE
  5
4D3
330
1F
100
AcDbEntity
  8
BODY
  6
CONTINUOUS
 62
     7
100
AcDbLine
 10
3625.058758533527
 20
1708.541491548237
 30
0.0
 11
3624.681240496228
 21
1707.897697730137
 31
0.0
  0
LINE
  5
4D4
330
1F
100
AcDbEntity
  8
BODY
  6
CONTINUOUS
 62
     7
100
AcDbLine
 10
3624.681240496228
 20
1707.897697730137
 30
0.0
 11
3624.356806181528
 21
1707.220607520438
 31
0.0
  0
LINE
  5
4D5
330
1F
100
AcDbEntity
  8
BODY
  6
CONTINUOUS
 62
     7
100
AcDbLine
 10
3624.356806181528
 20
1707.220607520438
 30
0.0
 11
3624.087924730428
 21
1706.515373984238
 31
0.0
  0
LINE
  5
4D6
330
1F
100
AcDbEntity
  8
BODY
  6
CONTINUOUS
 62
     7
100
AcDbLine
 10
3624.087924730428
 20
1706.515373984238
 30
0.0
 11
3623.876642493328
 21
1705.787364374838
 31
0.0
  0
LINE
  5
4D7
330
1F
100
AcDbEntity
  8
BODY
  6
CONTINUOUS
 62
     7
100
AcDbLine
 10
3623.876642493328
 20
1705.787364374838
 30
0.0
 11
3623.724567455528
 21
1705.042119284738
 31
0.0
  0
LINE
  5
4D8
330
1F
100
AcDbEntity
  8
BODY
  6
CONTINUOUS
 62
     7
100
AcDbLine
 10
3623.724567455528
 20
1705.042119284738
 30
0.0
 11
3623.632856999828
 21
1704.285310479238
 31
0.0
  0
LINE
  5
4D9
330
1F
100
AcDbEntity
  8
BODY
  6
CONTINUOUS
 62
     7
100
AcDbLine
 10
3623.632856999828
 20
1704.285310479238
 30
0.0
 11
3623.602209098228
 21
1703.522697730138
 31
0.0
  0
LINE
  5
4DA
330
1F
100
AcDbEntity
  8
BODY
  6
CONTINUOUS
 62
     7
100
AcDbLine
 10
3623.602209098228
 20
1703.522697730138
 30
0.0
 11
3623.632856999828
 21
1702.760084981138
 31
0.0
  0
LINE
  5
4DB
330
1F
100
AcDbEntity
  8
BODY
  6
CONTINUOUS
 62
     7
100
AcDbLine
 10
3623.632856999828
 20
1702.760084981138
 30
0.0
 11
3623.724567455528
 21
1702.003276175638
 31
0.0
  0
LINE
  5
4DC
330
1F
100
AcDbEntity
  8
BODY
  6
CONTINUOUS
 62
     7
100
AcDbLine
 10
3623.724567455528
 20
1702.003276175638
 30
0.0
 11
3623.876642493328
 21
1701.258031085538
 31
0.0
  0
LINE
  5
4DD
330
1F
100
AcDbEntity
  8
BODY
  6
CONTINUOUS
 62
     7
100
AcDbLine
 10
3623.876642493328
 20
1701.258031085538
 30
0.0
 11
3624.087924730428
 21
1700.530021476038
 31
0.0
  0
LINE
  5
4DE
330
1F
100
AcDbEntity
  8
BODY
  6
CONTINUOUS
 62
     7
100
AcDbLine
 10
3624.087924730428
 20
1700.530021476038
 30
0.0
 11
3624.356806181528
 21
1699.824787939938
 31
0.0
  0
LINE
  5
4DF
330
1F
100
AcDbEntity
  8
BODY
  6
CONTINUOUS
 62
     7
100
AcDbLine
 10
3624.356806181528
 20
1699.824787939938
 30
0.0
 11
3624.681240496228
 21
1699.147697730138
 31
0.0
  0
LINE
  5
4E0
330
1F
100
AcDbEntity
  8
BODY
  6
CONTINUOUS
 62
     7
100
AcDbLine
 10
3624.681240496228
 20
1699.147697730138
 30
0.0
 11
3625.058758533527
 21
1698.503903912138
 31
0.0
  0
LINE
  5
4E1
330
1F
100
AcDbEntity
  8
BODY
  6
CONTINUOUS
 62
     7
100
AcDbLine
 10
3625.058758533527
 20
1698.503903912138
 30
0.0
 11
3625.486487153428
 21
1697.898306145437
 31
0.0
  0
LINE
  5
4E2
330
1F
100
AcDbEntity
  8
BODY
  6
CONTINUOUS
 62
     7
100
AcDbLine
 10
3625.486487153428
 20
1697.898306145437
 30
0.0
 11
3625.961171082629
 21
1697.335513394838
 31
0.0
  0
LINE
  5
4E3
330
1F
100
AcDbEntity
  8
BODY
  6
CONTINUOUS
 62
     7
100
AcDbLine
 10
3625.961171082629
 20
1697.335513394838
 30
0.0
 11
3626.479197689828
 21
1696.819808852938
 31
0.0
  0
LINE
  5
4E4
330
1F
100
AcDbEntity
  8
BODY
  6
CONTINUOUS
 62
     7
100
AcDbLine
 10
3626.479197689828
 20
1696.819808852938
 30
0.0
 11
3627.036624479927
 21
1696.355117342637
 31
0.0
  0
LINE
  5
4E5
330
1F
100
AcDbEntity
  8
BODY
  6
CONTINUOUS
 62
     7
100
AcDbLine
 10
3627.036624479927
 20
1696.355117342637
 30
0.0
 11
3627.629209098228
 21
1695.944975447037
 31
0.0
  0
LINE
  5
4E6
330
1F
100
AcDbEntity
  8
BODY
  6
CONTINUOUS
 62
     7
100
AcDbLine
 10
3627.629209098228
 20
1695.944975447037
 30
0.0
 11
3628.252441618228
 21
1695.592504593638
 31
0.0
  0
LINE
  5
4E7
330
1F
100
AcDbEntity
  8
BODY
  6
CONTINUOUS
 62
     7
100
AcDbLine
 10
3628.252441618228
 20
1695.592504593638
 30
0.0
 11
3628.901578863928
 21
1695.300387298338
 31
0.0
  0
LINE
  5
4E8
330
1F
100
AcDbEntity
  8
BODY
  6
CONTINUOUS
 62
     7
100
AcDbLine
 10
3628.901578863928
 20
1695.300387298338
 30
0.0
 11
3629.571680509027
 21
1695.070846750138
 31
0.0
  0
LINE
  5
4E9
330
1F
100
AcDbEntity
  8
BODY
  6
CONTINUOUS
 62
     7
100
AcDbLine
 10
3629.571680509027
 20
1695.070846750138
 30
0.0
 11
3630.257646675328
 21
1694.905629891337
 31
0.0
  0
LINE
  5
4EA
330
1F
100
AcDbEntity
  8
BODY
  6
CONTINUOUS
 62
     7
100
AcDbLine
 10
3630.257646675328
 20
1694.905629891337
 30
0.0
 11
3630.954256746228
 21
1694.805994121838
 31
0.0
  0
LINE
  5
4EB
330
1F
100
AcDbEntity
  8
BODY
  6
CONTINUOUS
 62
     7
100
AcDbLine
 10
3630.954256746228
 20
1694.805994121838
 30
0.0
 11
3631.656209098228
 21
1694.772697730138
 31
0.0
  0
LINE
  5
4EC
330
1F
100
AcDbEntity
  8
BODY
  6
CONTINUOUS
 62
     7
100
AcDbLine
 10
3631.356209098228
 20
1696.024697730138
 30
0.0
 11
3631.987434565129
 21
1696.053229883938
 31
0.0
  0
LINE
  5
4ED
330
1F
100
AcDbEntity
  8
BODY
  6
CONTINUOUS
 62
     7
100
AcDbLine
 10
3631.987434565129
 20
1696.053229883938
 30
0.0
 11
3632.613856025029
 21
1696.138609198137
 31
0.0
  0
LINE
  5
4EE
330
1F
100
AcDbEntity
  8
BODY
  6
CONTINUOUS
 62
     7
100
AcDbLine
 10
3632.613856025029
 20
1696.138609198137
 30
0.0
 11
3633.230706032428
 21
1696.280185884638
 31
0.0
  0
LINE
  5
4EF
330
1F
100
AcDbEntity
  8
BODY
  6
CONTINUOUS
 62
     7
100
AcDbLine
 10
3633.230706032428
 20
1696.280185884638
 30
0.0
 11
3633.833289986327
 21
1696.476882459537
 31
0.0
  0
LINE
  5
4F0
330
1F
100
AcDbEntity
  8
BODY
  6
CONTINUOUS
 62
     7
100
AcDbLine
 10
3633.833289986327
 20
1696.476882459537
 30
0.0
 11
3634.417021858928
 21
1696.727201942938
 31
0.0
  0
LINE
  5
4F1
330
1F
100
AcDbEntity
  8
BODY
  6
CONTINUOUS
 62
     7
100
AcDbLine
 10
3634.417021858928
 20
1696.727201942938
 30
0.0
 11
3634.977459098227
 21
1697.029239252637
 31
0.0
  0
LINE
  5
4F2
330
1F
100
AcDbEntity
  8
BODY
  6
CONTINUOUS
 62
     7
100
AcDbLine
 10
3634.977459098227
 20
1697.029239252637
 30
0.0
 11
3635.510336438527
 21
1697.380695702138
 31
0.0
  0
LINE
  5
4F3
330
1F
100
AcDbEntity
  8
BODY
  6
CONTINUOUS
 62
     7
100
AcDbLine
 10
3635.510336438527
 20
1697.380695702138
 30
0.0
 11
3636.011598361428
 21
1697.778896495638
 31
0.0
  0
LINE
  5
4F4
330
1F
100
AcDbEntity
  8
BODY
  6
CONTINUOUS
 62
     7
100
AcDbLine
 10
3636.011598361428
 20
1697.778896495638
 30
0.0
 11
3636.477429961028
 21
1698.220811084838
 31
0.0
  0
LINE
  5
4F5
330
1F
100
AcDbEntity
  8
BODY
  6
CONTINUOUS
 62
     7
100
AcDbLine
 10
3636.477429961028
 20
1698.220811084838
 30
0.0
 11
3636.904285977529
 21
1698.703076232737
 31
0.0
  0
LINE
  5
4F6
330
1F
100
AcDbEntity
  8
BODY
  6
CONTINUOUS
 62
     7
100
AcDbLine
 10
3636.904285977529
 20
1698.703076232737
 30
0.0
 11
3637.288917779027
 21
1699.222021610438
 31
0.0
  0
LINE
  5
4F7
330
1F
100
AcDbEntity
  8
BODY
  6
CONTINUOUS
 62
     7
100
AcDbLine
 10
3637.288917779027
 20
1699.222021610438
 30
0.0
 11
3637.628398085227
 21
1699.773697730137
 31
0.0
  0
LINE
  5
4F8
330
1F
100
AcDbEntity
  8
BODY
  6
CONTINUOUS
 62
     7
100
AcDbLine
 10
3637.628398085227
 20
1699.773697730137
 30
0.0
 11
3637.920143245928
 21
1700.353906003638
 31
0.0
  0
LINE
  5
4F9
330
1F
100
AcDbEntity
  8
BODY
  6
CONTINUOUS
 62
     7
100
AcDbLine
 10
3637.920143245928
 20
1700.353906003638
 30
0.0
 11
3638.161932904328
 21
1700.958230695538
 31
0.0
  0
LINE
  5
4FA
330
1F
100
AcDbEntity
  8
BODY
  6
CONTINUOUS
 62
     7
100
AcDbLine
 10
3638.161932904328
 20
1700.958230695538
 30
0.0
 11
3638.351926895127
 21
1701.582072530038
 31
0.0
  0
LINE
  5
4FB
330
1F
100
AcDbEntity
  8
BODY
  6
CONTINUOUS
 62
     7
100
AcDbLine
 10
3638.351926895127
 20
1701.582072530038
 30
0.0
 11
3638.488679249427
 21
1702.220683694038
 31
0.0
  0
LINE
  5
4FC
330
1F
100
AcDbEntity
  8
BODY
  6
CONTINUOUS
 62
     7
100
AcDbLine
 10
3638.488679249427
 20
1702.220683694038
 30
0.0
 11
3638.571149199228
 21
1702.869203971038
 31
0.0
  0
LINE
  5
4FD
330
1F
100
AcDbEntity
  8
BODY
  6
CONTINUOUS
 62
     7
100
AcDbLine
 10
3638.571149199228
 20
1702.869203971038
 30
0.0
 11
3638.598709098229
 21
1703.522697730138
 31
0.0
  0
LINE
  5
4FE
330
1F
100
AcDbEntity
  8
BODY
  6
CONTINUOUS
 62
     7
100
AcDbLine
 10
3638.598709098229
 20
1703.522697730138
 30
0.0
 11
3638.571149199228
 21
1704.176191489338
 31
0.0
  0
LINE
  5
4FF
330
1F
100
AcDbEntity
  8
BODY
  6
CONTINUOUS
 62
     7
100
AcDbLine
 10
3638.571149199228
 20
1704.176191489338
 30
0.0
 11
3638.488679249427
 21
1704.824711766337
 31
0.0
  0
LINE
  5
500
330
1F
100
AcDbEntity
  8
BODY
  6
CONTINUOUS
 62
     7
100
AcDbLine
 10
3638.488679249427
 20
1704.824711766337
 30
0.0
 11
3638.351926895127
 21
1705.463322930337
 31
0.0
  0
LINE
  5
501
330
1F
100
AcDbEntity
  8
BODY
  6
CONTINUOUS
 62
     7
100
AcDbLine
 10
3638.351926895127
 20
1705.463322930337
 30
0.0
 11
3638.161932904328
 21
1706.087164764837
 31
0.0
  0
LINE
  5
502
330
1F
100
AcDbEntity
  8
BODY
  6
CONTINUOUS
 62
     7
100
AcDbLine
 10
3638.161932904328
 20
1706.087164764837
 30
0.0
 11
3637.920143245928
 21
1706.691489456738
 31
0.0
  0
LINE
  5
503
330
1F
100
AcDbEntity
  8
BODY
  6
CONTINUOUS
 62
     7
100
AcDbLine
 10
3637.920143245928
 20
1706.691489456738
 30
0.0
 11
3637.628398085227
 21
1707.271697730138
 31
0.0
  0
LINE
  5
504
330
1F
100
AcDbEntity
  8
BODY
  6
CONTINUOUS
 62
     7
100
AcDbLine
 10
3637.628398085227
 20
1707.271697730138
 30
0.0
 11
3637.288917779027
 21
1707.823373849938
 31
0.0
  0
LINE
  5
505
330
1F
100
AcDbEntity
  8
BODY
  6
CONTINUOUS
 62
     7
100
AcDbLine
 10
3637.288917779027
 20
1707.823373849938
 30
0.0
 11
3636.904285977529
 21
1708.342319227638
 31
0.0
  0
LINE
  5
506
330
1F
100
AcDbEntity
  8
BODY
  6
CONTINUOUS
 62
     7
100
AcDbLine
 10
3636.904285977529
 20
1708.342319227638
 30
0.0
 11
3636.477429961028
 21
1708.824584375538
 31
0.0
  0
LINE
  5
507
330
1F
100
AcDbEntity
  8
BODY
  6
CONTINUOUS
 62
     7
100
AcDbLine
 10
3636.477429961028
 20
1708.824584375538
 30
0.0
 11
3636.011598361428
 21
1709.266498964738
 31
0.0
  0
LINE
  5
508
330
1F
100
AcDbEntity
  8
BODY
  6
CONTINUOUS
 62
     7
100
AcDbLine
 10
3636.011598361428
 20
1709.266498964738
 30
0.0
 11
3635.510336438527
 21
1709.664699758238
 31
0.0
  0
LINE
  5
509
330
1F
100
AcDbEntity
  8
BODY
  6
CONTINUOUS
 62
     7
100
AcDbLine
 10
3635.510336438527
 20
1709.664699758238
 30
0.0
 11
3634.977459098227
 21
1710.016156207738
 31
0.0
  0
LINE
  5
50A
330
1F
100
AcDbEntity
  8
BODY
  6
CONTINUOUS
 62
     7
100
AcDbLine
 10
3634.977459098227
 20
1710.016156207738
 30
0.0
 11
3634.417021858928
 21
1710.318193517337
 31
0.0
  0
LINE
  5
50B
330
1F
100
AcDbEntity
  8
BODY
  6
CONTINUOUS
 62
     7
100
AcDbLine
 10
3634.417021858928
 20
1710.318193517337
 30
0.0
 11
3633.833289986327
 21
1710.568513000838
 31
0.0
  0
LINE
  5
50C
330
1F
100
AcDbEntity
  8
BODY
  6
CONTINUOUS
 62
     7
100
AcDbLine
 10
3633.833289986327
 20
1710.568513000838
 30
0.0
 11
3633.230706032428
 21
1710.765209575737
 31
0.0
  0
LINE
  5
50D
330
1F
100
AcDbEntity
  8
BODY
  6
CONTINUOUS
 62
     7
100
AcDbLine
 10
3633.230706032428
 20
1710.765209575737
 30
0.0
 11
3632.613856025029
 21
1710.906786262238
 31
0.0
  0
LINE
  5
50E
330
1F
100
AcDbEntity
  8
BODY
  6
CONTINUOUS
 62
     7
100
AcDbLine
 10
3632.613856025029
 20
1710.906786262238
 30
0.0
 11
3631.987434565129
 21
1710.992165576438
 31
0.0
  0
LINE
  5
50F
330
1F
100
AcDbEntity
  8
BODY
  6
CONTINUOUS
 62
     7
100
AcDbLine
 10
3631.987434565129
 20
1710.992165576438
 30
0.0
 11
3631.356209098228
 21
1711.020697730138
 31
0.0
  0
LINE
  5
510
330
1F
100
AcDbEntity
  8
BODY
  6
CONTINUOUS
 62
     7
100
AcDbLine
 10
3631.356209098228
 20
1711.020697730138
 30
0.0
 11
3630.724983631427
 21
1710.992165576438
 31
0.0
  0
LINE
  5
511
330
1F
100
AcDbEntity
  8
BODY
  6
CONTINUOUS
 62
     7
100
AcDbLine
 10
3630.724983631427
 20
1710.992165576438
 30
0.0
 11
3630.098562171527
 21
1710.906786262238
 31
0.0
  0
LINE
  5
512
330
1F
100
AcDbEntity
  8
BODY
  6
CONTINUOUS
 62
     7
100
AcDbLine
 10
3630.098562171527
 20
1710.906786262238
 30
0.0
 11
3629.481712164128
 21
1710.765209575737
 31
0.0
  0
LINE
  5
513
330
1F
100
AcDbEntity
  8
BODY
  6
CONTINUOUS
 62
     7
100
AcDbLine
 10
3629.481712164128
 20
1710.765209575737
 30
0.0
 11
3628.879128210228
 21
1710.568513000838
 31
0.0
  0
LINE
  5
514
330
1F
100
AcDbEntity
  8
BODY
  6
CONTINUOUS
 62
     7
100
AcDbLine
 10
3628.879128210228
 20
1710.568513000838
 30
0.0
 11
3628.295396337629
 21
1710.318193517337
 31
0.0
  0
LINE
  5
515
330
1F
100
AcDbEntity
  8
BODY
  6
CONTINUOUS
 62
     7
100
AcDbLine
 10
3628.295396337629
 20
1710.318193517337
 30
0.0
 11
3627.734959098229
 21
1710.016156207738
 31
0.0
  0
LINE
  5
516
330
1F
100
AcDbEntity
  8
BODY
  6
CONTINUOUS
 62
     7
100
AcDbLine
 10
3627.734959098229
 20
1710.016156207738
 30
0.0
 11
3627.202081758027
 21
1709.664699758238
 31
0.0
  0
LINE
  5
517
330
1F
100
AcDbEntity
  8
BODY
  6
CONTINUOUS
 62
     7
100
AcDbLine
 10
3627.202081758027
 20
1709.664699758238
 30
0.0
 11
3626.700819835129
 21
1709.266498964738
 31
0.0
  0
LINE
  5
518
330
1F
100
AcDbEntity
  8
BODY
  6
CONTINUOUS
 62
     7
100
AcDbLine
 10
3626.700819835129
 20
1709.266498964738
 30
0.0
 11
3626.234988235528
 21
1708.824584375538
 31
0.0
  0
LINE
  5
519
330
1F
100
AcDbEntity
  8
BODY
  6
CONTINUOUS
 62
     7
100
AcDbLine
 10
3626.234988235528
 20
1708.824584375538
 30
0.0
 11
3625.808132219029
 21
1708.342319227638
 31
0.0
  0
LINE
  5
51A
330
1F
100
AcDbEntity
  8
BODY
  6
CONTINUOUS
 62
     7
100
AcDbLine
 10
3625.808132219029
 20
1708.342319227638
 30
0.0
 11
3625.423500417527
 21
1707.823373849938
 31
0.0
  0
LINE
  5
51B
330
1F
100
AcDbEntity
  8
BODY
  6
CONTINUOUS
 62
     7
100
AcDbLine
 10
3625.423500417527
 20
1707.823373849938
 30
0.0
 11
3625.084020111329
 21
1707.271697730138
 31
0.0
  0
LINE
  5
51C
330
1F
100
AcDbEntity
  8
BODY
  6
CONTINUOUS
 62
     7
100
AcDbLine
 10
3625.084020111329
 20
1707.271697730138
 30
0.0
 11
3624.792274950628
 21
1706.691489456738
 31
0.0
  0
LINE
  5
51D
330
1F
100
AcDbEntity
  8
BODY
  6
CONTINUOUS
 62
     7
100
AcDbLine
 10
3624.792274950628
 20
1706.691489456738
 30
0.0
 11
3624.550485292228
 21
1706.087164764837
 31
0.0
  0
LINE
  5
51E
330
1F
100
AcDbEntity
  8
BODY
  6
CONTINUOUS
 62
     7
100
AcDbLine
 10
3624.550485292228
 20
1706.087164764837
 30
0.0
 11
3624.360491301327
 21
1705.463322930337
 31
0.0
  0
LINE
  5
51F
330
1F
100
AcDbEntity
  8
BODY
  6
CONTINUOUS
 62
     7
100
AcDbLine
 10
3624.360491301327
 20
1705.463322930337
 30
0.0
 11
3624.223738947129
 21
1704.824711766337
 31
0.0
  0
LINE
  5
520
330
1F
100
AcDbEntity
  8
BODY
  6
CONTINUOUS
 62
     7
100
AcDbLine
 10
3624.223738947129
 20
1704.824711766337
 30
0.0
 11
3624.141268997328
 21
1704.176191489338
 31
0.0
  0
LINE
  5
521
330
1F
100
AcDbEntity
  8
BODY
  6
CONTINUOUS
 62
     7
100
AcDbLine
 10
3624.141268997328
 20
1704.176191489338
 30
0.0
 11
3624.113709098228
 21
1703.522697730138
 31
0.0
  0
LINE
  5
522
330
1F
100
AcDbEntity
  8
BODY
  6
CONTINUOUS
 62
     7
100
AcDbLine
 10
3624.113709098228
 20
1703.522697730138
 30
0.0
 11
3624.141268997328
 21
1702.869203971038
 31
0.0
  0
LINE
  5
523
330
1F
100
AcDbEntity
  8
BODY
  6
CONTINUOUS
 62
     7
100
AcDbLine
 10
3624.141268997328
 20
1702.869203971038
 30
0.0
 11
3624.223738947129
 21
1702.220683694038
 31
0.0
  0
LINE
  5
524
330
1F
100
AcDbEntity
  8
BODY
  6
CONTINUOUS
 62
     7
100
AcDbLine
 10
3624.223738947129
 20
1702.220683694038
 30
0.0
 11
3624.360491301327
 21
1701.582072530038
 31
0.0
  0
LINE
  5
525
330
1F
100
AcDbEntity
  8
BODY
  6
CONTINUOUS
 62
     7
100
AcDbLine
 10
3624.360491301327
 20
1701.582072530038
 30
0.0
 11
3624.550485292228
 21
1700.958230695538
 31
0.0
  0
LINE
  5
526
330
1F
100
AcDbEntity
  8
BODY
  6
CONTINUOUS
 62
     7
100
AcDbLine
 10
3624.550485292228
 20
1700.958230695538
 30
0.0
 11
3624.792274950628
 21
1700.353906003638
 31
0.0
  0
LINE
  5
527
330
1F
100
AcDbEntity
  8
BODY
  6
CONTINUOUS
 62
     7
100
AcDbLine
 10
3624.792274950628
 20
1700.353906003638
 30
0.0
 11
3625.084020111329
 21
1699.773697730137
 31
0.0
  0
LINE
  5
528
330
1F
100
AcDbEntity
  8
BODY
  6
CONTINUOUS
 62
     7
100
AcDbLine
 10
3625.084020111329
 20
1699.773697730137
 30
0.0
 11
3625.423500417527
 21
1699.222021610438
 31
0.0
  0
LINE
  5
529
330
1F
100
AcDbEntity
  8
BODY
  6
CONTINUOUS
 62
     7
100
AcDbLine
 10
3625.423500417527
 20
1699.222021610438
 30
0.0
 11
3625.808132219029
 21
1698.703076232737
 31
0.0
  0
LINE
  5
52A
330
1F
100
AcDbEntity
  8
BODY
  6
CONTINUOUS
 62
     7
100
AcDbLine
 10
3625.808132219029
 20
1698.703076232737
 30
0.0
 11
3626.234988235528
 21
1698.220811084838
 31
0.0
  0
LINE
  5
52B
330
1F
100
AcDbEntity
  8
BODY
  6
CONTINUOUS
 62
     7
100
AcDbLine
 10
3626.234988235528
 20
1698.220811084838
 30
0.0
 11
3626.700819835129
 21
1697.778896495638
 31
0.0
  0
LINE
  5
52C
330
1F
100
AcDbEntity
  8
BODY
  6
CONTINUOUS
 62
     7
100
AcDbLine
 10
3626.700819835129
 20
1697.778896495638
 30
0.0
 11
3627.202081758027
 21
1697.380695702138
 31
0.0
  0
LINE
  5
52D
330
1F
100
AcDbEntity
  8
BODY
  6
CONTINUOUS
 62
     7
100
AcDbLine
 10
3627.202081758027
 20
1697.380695702138
 30
0.0
 11
3627.734959098229
 21
1697.029239252637
 31
0.0
  0
LINE
  5
52E
330
1F
100
AcDbEntity
  8
BODY
  6
CONTINUOUS
 62
     7
100
AcDbLine
 10
3627.734959098229
 20
1697.029239252637
 30
0.0
 11
3628.295396337629
 21
1696.727201942938
 31
0.0
  0
LINE
  5
52F
330
1F
100
AcDbEntity
  8
BODY
  6
CONTINUOUS
 62
     7
100
AcDbLine
 10
3628.295396337629
 20
1696.727201942938
 30
0.0
 11
3628.879128210228
 21
1696.476882459537
 31
0.0
  0
LINE
  5
530
330
1F
100
AcDbEntity
  8
BODY
  6
CONTINUOUS
 62
     7
100
AcDbLine
 10
3628.879128210228
 20
1696.476882459537
 30
0.0
 11
3629.481712164128
 21
1696.280185884638
 31
0.0
  0
LINE
  5
531
330
1F
100
AcDbEntity
  8
BODY
  6
CONTINUOUS
 62
     7
100
AcDbLine
 10
3629.481712164128
 20
1696.280185884638
 30
0.0
 11
3630.098562171527
 21
1696.138609198137
 31
0.0
  0
LINE
  5
532
330
1F
100
AcDbEntity
  8
BODY
  6
CONTINUOUS
 62
     7
100
AcDbLine
 10
3630.098562171527
 20
1696.138609198137
 30
0.0
 11
3630.724983631427
 21
1696.053229883938
 31
0.0
  0
LINE
  5
533
330
1F
100
AcDbEntity
  8
BODY
  6
CONTINUOUS
 62
     7
100
AcDbLine
 10
3630.724983631427
 20
1696.053229883938
 30
0.0
 11
3631.356209098228
 21
1696.024697730138
 31
0.0
  0
ARC
  5
534
330
1F
100
AcDbEntity
  8
BODY
  6
CONTINUOUS
 62
     7
100
AcDbCircle
 10
3600.656209098227
 20
1703.522697730138
 30
0.0
 40
15.0
100
AcDbArc
 50
90.0
 51
180.0
  0
LINE
  5
535
330
1F
100
AcDbEntity
  8
BODY
  6
CONTINUOUS
 62
     7
100
AcDbLine
 10
3611.656209098228
 20
1718.522697730137
 30
0.0
 11
3600.656209098227
 21
1718.522697730137
 31
0.0
  0
ARC
  5
536
330
1F
100
AcDbEntity
  8
BODY
  6
CONTINUOUS
 62
     7
100
AcDbCircle
 10
3611.656209098228
 20
1720.522697730137
 30
0.0
 40
2.0
100
AcDbArc
 50
270.0
 51
0.0
  0
ARC
  5
537
330
1F
100
AcDbEntity
  8
BODY
  6
CONTINUOUS
 62
     7
100
AcDbCircle
 10
3618.656209098228
 20
1720.522697730137
 30
0.0
 40
2.0
100
AcDbArc
 50
180.0
 51
270.0
  0
LINE
  5
538
330
1F
100
AcDbEntity
  8
BODY
  6
CONTINUOUS
 62
     7
100
AcDbLine
 10
3618.656209098228
 20
1718.522697730137
 30
0.0
 11
3629.656209098228
 21
1718.522697730137
 31
0.0
  0
ARC
  5
539
330
1F
100
AcDbEntity
  8
BODY
  6
CONTINUOUS
 62
     7
100
AcDbCircle
 10
3629.656209098228
 20
1703.522697730138
 30
0.0
 40
15.0
100
AcDbArc
 50
0.0
 51
90.0
  0
LINE
  5
53A
330
1F
100
AcDbEntity
  8
BODY
  6
CONTINUOUS
 62
     7
100
AcDbLine
 10
3640.193969098227
 20
1747.522697730138
 30
0.0
 11
3640.193969098227
 21
1716.122134048438
 31
0.0
  0
LINE
  5
53B
330
1F
100
AcDbEntity
  8
BODY
  6
CONTINUOUS
 62
     7
100
AcDbLine
 10
3585.656209098228
 20
1741.522697730137
 30
0.0
 11
3644.656209098228
 21
1741.522697730137
 31
0.0
  0
LINE
  5
53C
330
1F
100
AcDbEntity
  8
BODY
  6
CONTINUOUS
 62
     7
100
AcDbLine
 10
3644.656209098228
 20
1747.522697730138
 30
0.0
 11
3644.656209098228
 21
1687.522697730138
 31
0.0
  0
LINE
  5
53D
330
1F
100
AcDbEntity
  8
BODY
  6
CONTINUOUS
 62
     7
100
AcDbLine
 10
3585.656209098228
 20
1747.522697730138
 30
0.0
 11
3644.656209098228
 21
1747.522697730138
 31
0.0
  0
ARC
  5
53E
330
1F
100
AcDbEntity
  8
BODY
  6
CONTINUOUS
 62
     7
100
AcDbCircle
 10
3642.556209098228
 20
1748.122697730137
 30
0.0
 40
0.6
100
AcDbArc
 50
270.0
 51
0.0
  0
ARC
  5
53F
330
1F
100
AcDbEntity
  8
BODY
  6
CONTINUOUS
 62
     7
100
AcDbCircle
 10
3642.556209098228
 20
1752.922697730137
 30
0.0
 40
0.6
100
AcDbArc
 50
0.0
 51
90.0
  0
LINE
  5
540
330
1F
100
AcDbEntity
  8
BODY
  6
CONTINUOUS
 62
     7
100
AcDbLine
 10
3643.156209098228
 20
1748.122697730137
 30
0.0
 11
3643.156209098228
 21
1752.922697730137
 31
0.0
  0
LINE
  5
541
330
1F
100
AcDbEntity
  8
BODY
  6
CONTINUOUS
 62
     7
100
AcDbLine
 10
3632.156209098229
 20
1757.110908364338
 30
0.0
 11
3598.156209098228
 21
1757.110908364338
 31
0.0
  0
LINE
  5
542
330
1F
100
AcDbEntity
  8
BODY
  6
CONTINUOUS
 62
     7
100
AcDbLine
 10
3598.156209098228
 20
1754.081279232838
 30
0.0
 11
3632.156209098229
 21
1754.081279232838
 31
0.0
  0
LINE
  5
543
330
1F
100
AcDbEntity
  8
BODY
  6
CONTINUOUS
 62
     7
100
AcDbLine
 10
3598.156209098228
 20
1753.522697730138
 30
0.0
 11
3632.156209098229
 21
1753.522697730138
 31
0.0
  0
LINE
  5
544
330
1F
100
AcDbEntity
  8
BODY
  6
CONTINUOUS
 62
     7
100
AcDbLine
 10
3632.156209098229
 20
1757.110908364338
 30
0.0
 11
3632.156209098229
 21
1754.081279232838
 31
0.0
  0
LINE
  5
545
330
1F
100
AcDbEntity
  8
BODY
  6
CONTINUOUS
 62
     7
100
AcDbLine
 10
3633.756209098228
 20
1753.522697730138
 30
0.0
 11
3642.556209098228
 21
1753.522697730138
 31
0.0
  0
LINE
  5
546
330
1F
100
AcDbEntity
  8
BODY
  6
CONTINUOUS
 62
     7
100
AcDbLine
 10
3633.156209098228
 20
1748.122697730137
 30
0.0
 11
3633.156209098228
 21
1752.922697730137
 31
0.0
  0
ARC
  5
547
330
1F
100
AcDbEntity
  8
BODY
  6
CONTINUOUS
 62
     7
100
AcDbCircle
 10
3633.756209098228
 20
1748.122697730137
 30
0.0
 40
0.6
100
AcDbArc
 50
180.0
 51
270.0
  0
ARC
  5
548
330
1F
100
AcDbEntity
  8
BODY
  6
CONTINUOUS
 62
     7
100
AcDbCircle
 10
3633.756209098228
 20
1752.922697730137
 30
0.0
 40
0.6
100
AcDbArc
 50
90.0
 51
180.0
  0
LINE
  5
549
330
1F
100
AcDbEntity
  8
BODY
  6
CONTINUOUS
 62
     7
100
AcDbLine
 10
3632.156209098229
 20
1753.522697730138
 30
0.0
 11
3632.156209098229
 21
1747.522697730138
 31
0.0
  0
LINE
  5
54A
330
1F
100
AcDbEntity
  8
BODY
  6
CONTINUOUS
 62
     7
100
AcDbLine
 10
3590.118449098228
 20
1747.522697730138
 30
0.0
 11
3590.118449098228
 21
1716.122134048438
 31
0.0
  0
LINE
  5
54B
330
1F
100
AcDbEntity
  8
BODY
  6
CONTINUOUS
 62
     7
100
AcDbLine
 10
3597.156209098228
 20
1748.122697730137
 30
0.0
 11
3597.156209098228
 21
1752.922697730137
 31
0.0
  0
ARC
  5
54C
330
1F
100
AcDbEntity
  8
BODY
  6
CONTINUOUS
 62
     7
100
AcDbCircle
 10
3596.556209098229
 20
1748.122697730137
 30
0.0
 40
0.6
100
AcDbArc
 50
270.0
 51
0.0
  0
LINE
  5
54D
330
1F
100
AcDbEntity
  8
BODY
  6
CONTINUOUS
 62
     7
100
AcDbLine
 10
3598.156209098228
 20
1753.522697730138
 30
0.0
 11
3598.156209098228
 21
1747.522697730138
 31
0.0
  0
LINE
  5
54E
330
1F
100
AcDbEntity
  8
BODY
  6
CONTINUOUS
 62
     7
100
AcDbLine
 10
3587.756209098228
 20
1753.522697730138
 30
0.0
 11
3596.556209098229
 21
1753.522697730138
 31
0.0
  0
ARC
  5
54F
330
1F
100
AcDbEntity
  8
BODY
  6
CONTINUOUS
 62
     7
100
AcDbCircle
 10
3596.556209098229
 20
1752.922697730137
 30
0.0
 40
0.6
100
AcDbArc
 50
0.0
 51
90.0
  0
ARC
  5
550
330
1F
100
AcDbEntity
  8
BODY
  6
CONTINUOUS
 62
     7
100
AcDbCircle
 10
3587.756209098228
 20
1748.122697730137
 30
0.0
 40
0.6
100
AcDbArc
 50
180.0
 51
270.0
  0
LINE
  5
551
330
1F
100
AcDbEntity
  8
BODY
  6
CONTINUOUS
 62
     7
100
AcDbLine
 10
3587.156209098228
 20
1748.122697730137
 30
0.0
 11
3587.156209098228
 21
1752.922697730137
 31
0.0
  0
ARC
  5
552
330
1F
100
AcDbEntity
  8
BODY
  6
CONTINUOUS
 62
     7
100
AcDbCircle
 10
3587.756209098228
 20
1752.922697730137
 30
0.0
 40
0.6
100
AcDbArc
 50
90.0
 51
180.0
  0
LINE
  5
553
330
1F
100
AcDbEntity
  8
BODY
  6
CONTINUOUS
 62
     7
100
AcDbLine
 10
3585.656209098228
 20
1747.522697730138
 30
0.0
 11
3585.656209098228
 21
1687.522697730138
 31
0.0
  0
LINE
  5
554
330
1F
100
AcDbEntity
  8
BODY
  6
CONTINUOUS
 62
     7
100
AcDbLine
 10
3612.556209098227
 20
1754.081279232838
 30
0.0
 11
3612.556209098227
 21
1753.522697730138
 31
0.0
  0
LINE
  5
555
330
1F
100
AcDbEntity
  8
BODY
  6
CONTINUOUS
 62
     7
100
AcDbLine
 10
3609.656209098228
 20
1754.081279232838
 30
0.0
 11
3609.656209098228
 21
1753.522697730138
 31
0.0
  0
LINE
  5
556
330
1F
100
AcDbEntity
  8
BODY
  6
CONTINUOUS
 62
     7
100
AcDbLine
 10
3610.156209098228
 20
1748.122697730137
 30
0.0
 11
3610.156209098228
 21
1752.922697730137
 31
0.0
  0
ARC
  5
557
330
1F
100
AcDbEntity
  8
BODY
  6
CONTINUOUS
 62
     7
100
AcDbCircle
 10
3610.756209098229
 20
1748.122697730137
 30
0.0
 40
0.6
100
AcDbArc
 50
180.0
 51
270.0
  0
ARC
  5
558
330
1F
100
AcDbEntity
  8
BODY
  6
CONTINUOUS
 62
     7
100
AcDbCircle
 10
3610.756209098229
 20
1752.922697730137
 30
0.0
 40
0.6
100
AcDbArc
 50
90.0
 51
180.0
  0
LINE
  5
559
330
1F
100
AcDbEntity
  8
BODY
  6
CONTINUOUS
 62
     7
100
AcDbLine
 10
3620.656209098228
 20
1754.081279232838
 30
0.0
 11
3620.656209098228
 21
1753.522697730138
 31
0.0
  0
LINE
  5
55A
330
1F
100
AcDbEntity
  8
BODY
  6
CONTINUOUS
 62
     7
100
AcDbLine
 10
3620.156209098227
 20
1748.122697730137
 30
0.0
 11
3620.156209098227
 21
1752.922697730137
 31
0.0
  0
LINE
  5
55B
330
1F
100
AcDbEntity
  8
BODY
  6
CONTINUOUS
 62
     7
100
AcDbLine
 10
3617.756209098228
 20
1754.081279232838
 30
0.0
 11
3617.756209098228
 21
1753.522697730138
 31
0.0
  0
ARC
  5
55C
330
1F
100
AcDbEntity
  8
BODY
  6
CONTINUOUS
 62
     7
100
AcDbCircle
 10
3619.556209098227
 20
1752.922697730137
 30
0.0
 40
0.6
100
AcDbArc
 50
0.0
 51
90.0
  0
ARC
  5
55D
330
1F
100
AcDbEntity
  8
BODY
  6
CONTINUOUS
 62
     7
100
AcDbCircle
 10
3619.556209098227
 20
1748.122697730137
 30
0.0
 40
0.6
100
AcDbArc
 50
270.0
 51
0.0
  0
LINE
  5
55E
330
1F
100
AcDbEntity
  8
BODY
  6
CONTINUOUS
 62
     7
100
AcDbLine
 10
3621.328589098228
 20
1719.884547545738
 30
0.0
 11
3621.328589098228
 21
1747.522697730138
 31
0.0
  0
LINE
  5
55F
330
1F
100
AcDbEntity
  8
BODY
  6
CONTINUOUS
 62
     7
100
AcDbLine
 10
3608.983829098227
 20
1719.884547545738
 30
0.0
 11
3608.983829098227
 21
1747.522697730138
 31
0.0
  0
ARC
  5
560
330
1F
100
AcDbEntity
  8
BODY
  6
CONTINUOUS
 62
     7
100
AcDbCircle
 10
3611.156209098227
 20
1785.138412049137
 30
0.0
 40
5.0
100
AcDbArc
 50
90.0
 51
180.0
  0
ARC
  5
561
330
1F
100
AcDbEntity
  8
BODY
  6
CONTINUOUS
 62
     7
100
AcDbCircle
 10
3619.156209098227
 20
1785.138412049137
 30
0.0
 40
5.0
100
AcDbArc
 50
0.0
 51
90.0
  0
ARC
  5
562
330
1F
100
AcDbEntity
  8
BODY
  6
CONTINUOUS
 62
     7
100
AcDbCircle
 10
3623.156209098228
 20
1758.110908364338
 30
0.0
 40
1.0
100
AcDbArc
 50
270.0
 51
0.0
  0
ARC
  5
563
330
1F
100
AcDbEntity
  8
BODY
  6
CONTINUOUS
 62
     7
100
AcDbCircle
 10
3607.156209098228
 20
1758.110908364338
 30
0.0
 40
1.0
100
AcDbArc
 50
180.0
 51
270.0
  0
LINE
  5
564
330
1F
100
AcDbEntity
  8
BODY
  6
CONTINUOUS
 62
     7
100
AcDbLine
 10
3624.156209098228
 20
1758.110908364338
 30
0.0
 11
3624.156209098228
 21
1785.138412049137
 31
0.0
  0
LINE
  5
565
330
1F
100
AcDbEntity
  8
BODY
  6
CONTINUOUS
 62
     7
100
AcDbLine
 10
3606.156209098228
 20
1758.110908364338
 30
0.0
 11
3606.156209098228
 21
1785.138412049137
 31
0.0
  0
LINE
  5
566
330
1F
100
AcDbEntity
  8
BODY
  6
CONTINUOUS
 62
     7
100
AcDbLine
 10
3609.156209098228
 20
1778.767637262538
 30
0.0
 11
3609.156209098228
 21
1758.110908364338
 31
0.0
  0
LINE
  5
567
330
1F
100
AcDbEntity
  8
BODY
  6
CONTINUOUS
 62
     7
100
AcDbLine
 10
3621.156209098227
 20
1778.767637262538
 30
0.0
 11
3621.156209098227
 21
1758.110908364338
 31
0.0
  0
LINE
  5
568
330
1F
100
AcDbEntity
  8
BODY
  6
CONTINUOUS
 62
     7
100
AcDbLine
 10
3621.156209098227
 20
1770.110908364338
 30
0.0
 11
3609.156209098228
 21
1770.110908364338
 31
0.0
  0
LINE
  5
569
330
1F
100
AcDbEntity
  8
BODY
  6
CONTINUOUS
 62
     7
100
AcDbLine
 10
3609.156209098228
 20
1758.110908364338
 30
0.0
 11
3606.156209098228
 21
1758.110908364338
 31
0.0
  0
LINE
  5
56A
330
1F
100
AcDbEntity
  8
BODY
  6
CONTINUOUS
 62
     7
100
AcDbLine
 10
3624.156209098228
 20
1758.110908364338
 30
0.0
 11
3621.156209098227
 21
1758.110908364338
 31
0.0
  0
LINE
  5
56B
330
1F
100
AcDbEntity
  8
BODY
  6
CONTINUOUS
 62
     7
100
AcDbLine
 10
3619.156209098227
 20
1790.138412049138
 30
0.0
 11
3611.156209098227
 21
1790.138412049138
 31
0.0
  0
LINE
  5
56C
330
1F
100
AcDbEntity
  8
BODY
  6
CONTINUOUS
 62
     7
100
AcDbLine
 10
3624.156209098228
 20
1780.767637262538
 30
0.0
 11
3606.156209098228
 21
1780.767637262538
 31
0.0
  0
ARC
  5
56D
330
1F
100
AcDbEntity
  8
BODY
  6
CONTINUOUS
 62
     7
100
AcDbCircle
 10
3611.156209098227
 20
1778.767637262538
 30
0.0
 40
2.0
100
AcDbArc
 50
90.0
 51
180.0
  0
ARC
  5
56E
330
1F
100
AcDbEntity
  8
BODY
  6
CONTINUOUS
 62
     7
100
AcDbCircle
 10
3619.156209098227
 20
1778.767637262538
 30
0.0
 40
2.0
100
AcDbArc
 50
0.0
 51
90.0
  0
LINE
  5
56F
330
1F
100
AcDbEntity
  8
BODY
  6
CONTINUOUS
 62
     7
100
AcDbLine
 10
3598.156209098228
 20
1757.110908364338
 30
0.0
 11
3598.156209098228
 21
1754.081279232838
 31
0.0
  0
ARC
  5
570
330
1F
100
AcDbEntity
  8
BODY
  6
CONTINUOUS
 62
     7
100
AcDbCircle
 10
3125.156448104022
 20
1587.522700864537
 30
0.0
 40
10.0
100
AcDbArc
 50
180.0017047173958
 51
269.9999988712148
  0
LINE
  5
571
330
1F
100
AcDbEntity
  8
BODY
  6
CONTINUOUS
 62
     7
100
AcDbLine
 10
3538.958201195438
 20
1677.522697730137
 30
0.0
 11
3691.35421700102
 21
1677.522697730138
 31
0.0
  0
ARC
  5
572
330
1F
100
AcDbEntity
  8
BODY
  6
CONTINUOUS
 62
     7
100
AcDbCircle
 10
3658.435059218302
 20
1880.022697730138
 30
0.0
 40
5.0
100
AcDbArc
 50
1.999999990683106
 51
90.0
  0
ARC
  5
573
330
1F
100
AcDbEntity
  8
BODY
  6
CONTINUOUS
 62
     7
100
AcDbCircle
 10
3571.877357629521
 20
1880.022697730138
 30
0.0
 40
5.0
100
AcDbArc
 50
90.0
 51
178.000001645297
  0
ARC
  5
574
330
1F
100
AcDbEntity
  8
BODY
  6
CONTINUOUS
 62
     7
100
AcDbCircle
 10
3605.156209098228
 20
1961.022697730138
 30
0.0
 40
5.0
100
AcDbArc
 50
90.0
 51
180.0
  0
ARC
  5
575
330
1F
100
AcDbEntity
  8
BODY
  6
CONTINUOUS
 62
     7
100
AcDbCircle
 10
3625.156209098228
 20
1961.022697730138
 30
0.0
 40
5.0
100
AcDbArc
 50
0.0
 51
90.0
  0
ARC
  5
576
330
1F
100
AcDbEntity
  8
BODY
  6
CONTINUOUS
 62
     7
100
AcDbCircle
 10
3625.156209098227
 20
1878.022697730138
 30
0.0
 40
5.0
100
AcDbArc
 50
270.0
 51
0.0
  0
ARC
  5
577
330
1F
100
AcDbEntity
  8
BODY
  6
CONTINUOUS
 62
     7
100
AcDbCircle
 10
3605.156209098228
 20
1878.022697730138
 30
0.0
 40
5.0
100
AcDbArc
 50
180.0
 51
270.0
  0
ARC
  5
578
330
1F
100
AcDbEntity
  8
BODY
  6
CONTINUOUS
 62
     7
100
AcDbCircle
 10
3605.156209098228
 20
1867.022697730138
 30
0.0
 40
5.0
100
AcDbArc
 50
180.0
 51
270.0
  0
ARC
  5
579
330
1F
100
AcDbEntity
  8
BODY
  6
CONTINUOUS
 62
     7
100
AcDbCircle
 10
3625.156209098228
 20
1867.022697730138
 30
0.0
 40
5.0
100
AcDbArc
 50
270.0
 51
0.0
  0
LINE
  5
57A
330
1F
100
AcDbEntity
  8
BODY
  6
CONTINUOUS
 62
     7
100
AcDbLine
 10
3632.156209098229
 20
1931.022697730139
 30
0.0
 11
3630.156209098228
 21
1931.022697730139
 31
0.0
  0
ARC
  5
57B
330
1F
100
AcDbEntity
  8
BODY
  6
CONTINUOUS
 62
     7
100
AcDbCircle
 10
3632.156209098229
 20
1929.022697730139
 30
0.0
 40
2.0
100
AcDbArc
 50
0.0
 51
90.0
  0
LINE
  5
57C
330
1F
100
AcDbEntity
  8
BODY
  6
CONTINUOUS
 62
     7
100
AcDbLine
 10
3095.806608748685
 20
1703.796413730138
 30
0.0
 11
3110.50580944797
 21
1707.735052686894
 31
0.0
  0
LINE
  5
57D
330
1F
100
AcDbEntity
  8
BODY
  6
CONTINUOUS
 62
     7
100
AcDbLine
 10
3098.756209098329
 20
1704.586756761819
 30
0.0
 11
3098.756209098329
 21
1724.022697730138
 31
0.0
  0
LINE
  5
57E
330
1F
100
AcDbEntity
  8
BODY
  6
CONTINUOUS
 62
     7
100
AcDbLine
 10
3107.556209098329
 20
1706.944709655213
 30
0.0
 11
3107.556209098329
 21
1724.022697730138
 31
0.0
  0
LINE
  5
57F
330
1F
100
AcDbEntity
  8
BODY
  6
CONTINUOUS
 62
     7
100
AcDbLine
 10
3110.656209098327
 20
1724.022697730138
 30
0.0
 11
3095.656209098328
 21
1724.022697730138
 31
0.0
  0
LINE
  5
580
330
1F
100
AcDbEntity
  8
BODY
  6
CONTINUOUS
 62
     7
100
AcDbLine
 10
3110.656209098327
 20
1726.022697730138
 30
0.0
 11
3095.656209098328
 21
1726.022697730138
 31
0.0
  0
LINE
  5
581
330
1F
100
AcDbEntity
  8
BODY
  6
CONTINUOUS
 62
     7
100
AcDbLine
 10
3110.656209098327
 20
1724.022697730138
 30
0.0
 11
3110.656209098327
 21
1726.022697730138
 31
0.0
  0
LINE
  5
582
330
1F
100
AcDbEntity
  8
BODY
  6
CONTINUOUS
 62
     7
100
AcDbLine
 10
3110.620239098328
 20
1790.522697730138
 30
0.0
 11
3110.156209098328
 21
1726.022697730138
 31
0.0
  0
LINE
  5
583
330
1F
100
AcDbEntity
  8
BODY
  6
CONTINUOUS
 62
     7
100
AcDbLine
 10
3095.656209098328
 20
1724.022697730138
 30
0.0
 11
3095.656209098328
 21
1726.022697730138
 31
0.0
  0
LINE
  5
584
330
1F
100
AcDbEntity
  8
BODY
  6
CONTINUOUS
 62
     7
100
AcDbLine
 10
3095.692181098327
 20
1790.522697730138
 30
0.0
 11
3096.156209098327
 21
1726.022697730138
 31
0.0
  0
ARC
  5
585
330
1F
100
AcDbEntity
  8
BODY
  6
CONTINUOUS
 62
     7
100
AcDbCircle
 10
3225.656209098278
 20
1756.022697730138
 30
0.0
 40
1.5
100
AcDbArc
 50
270.0
 51
0.0
  0
ARC
  5
586
330
1F
100
AcDbEntity
  8
BODY
  6
CONTINUOUS
 62
     7
100
AcDbCircle
 10
3164.656209098277
 20
1756.022697730138
 30
0.0
 40
1.5
100
AcDbArc
 50
179.999999999987
 51
270.0
  0
ARC
  5
587
330
1F
100
AcDbEntity
  8
BODY
  6
CONTINUOUS
 62
     7
100
AcDbCircle
 10
3225.656209098278
 20
1800.022697730138
 30
0.0
 40
1.5
100
AcDbArc
 50
0.0
 51
90.0
  0
ARC
  5
588
330
1F
100
AcDbEntity
  8
BODY
  6
CONTINUOUS
 62
     7
100
AcDbCircle
 10
3164.656209098278
 20
1800.022697730138
 30
0.0
 40
1.5
100
AcDbArc
 50
90.0
 51
179.999999999987
  0
LINE
  5
589
330
1F
100
AcDbEntity
  8
BODY
  6
CONTINUOUS
 62
     7
100
AcDbLine
 10
3164.656209098277
 20
1754.522697730138
 30
0.0
 11
3225.656209098278
 21
1754.522697730138
 31
0.0
  0
LINE
  5
58A
330
1F
100
AcDbEntity
  8
BODY
  6
CONTINUOUS
 62
     7
100
AcDbLine
 10
3227.156209098279
 20
1756.022697730138
 30
0.0
 11
3227.156209098279
 21
1800.022697730138
 31
0.0
  0
LINE
  5
58B
330
1F
100
AcDbEntity
  8
BODY
  6
CONTINUOUS
 62
     7
100
AcDbLine
 10
3163.156209098277
 20
1756.022697730138
 30
0.0
 11
3163.156209098278
 21
1800.022697730138
 31
0.0
  0
LINE
  5
58C
330
1F
100
AcDbEntity
  8
BODY
  6
CONTINUOUS
 62
     7
100
AcDbLine
 10
3164.656209098278
 20
1801.522697730138
 30
0.0
 11
3225.656209098278
 21
1801.522697730138
 31
0.0
  0
LINE
  5
58D
330
1F
100
AcDbEntity
  8
BODY
  6
EXLTYPE1
 62
     2
100
AcDbLine
 10
3647.656192100228
 20
1779.223512159338
 30
0.0
 11
3647.656192100228
 21
1785.829862859138
 31
0.0
  0
LINE
  5
58E
330
1F
100
AcDbEntity
  8
BODY
  6
EXLTYPE1
 62
     2
100
AcDbLine
 10
3664.656226099228
 20
1785.829862859138
 30
0.0
 11
3664.656226099228
 21
1779.223512159338
 31
0.0
  0
CIRCLE
  5
58F
330
1F
100
AcDbEntity
  8
BODY
  6
EXLTYPE1
 62
     2
100
AcDbCircle
 10
3656.156209098227
 20
1824.522697730138
 30
0.0
 40
39.49999975
  0
CIRCLE
  5
590
330
1F
100
AcDbEntity
  8
BODY
  6
EXLTYPE1
 62
     2
100
AcDbCircle
 10
3656.156209098227
 20
1824.522697730138
 30
0.0
 40
36.09999975
  0
LINE
  5
591
330
1F
100
AcDbEntity
  8
BODY
  6
EXLTYPE1
 62
     2
100
AcDbLine
 10
3262.656226098329
 20
1778.493478161937
 30
0.0
 11
3262.656226098329
 21
1785.022748980138
 31
0.0
  0
LINE
  5
592
330
1F
100
AcDbEntity
  8
BODY
  6
EXLTYPE1
 62
     2
100
AcDbLine
 10
3245.656192100329
 20
1778.493478161937
 30
0.0
 11
3245.656192100329
 21
1785.522749980138
 31
0.0
  0
LINE
  5
593
330
1F
100
AcDbEntity
  8
BODY
  6
EXLTYPE1
 62
     2
100
AcDbLine
 10
3242.156213099327
 20
1785.522749980138
 30
0.0
 11
3259.656220099329
 21
1785.522749980138
 31
0.0
  0
ARC
  5
594
330
1F
100
AcDbEntity
  8
BODY
  6
EXLTYPE1
 62
     2
100
AcDbCircle
 10
3242.156213099327
 20
1787.522753980137
 30
0.0
 40
2.000004
100
AcDbArc
 50
180.0
 51
270.0
  0
ARC
  5
595
330
1F
100
AcDbEntity
  8
BODY
  6
EXLTYPE1
 62
     2
100
AcDbCircle
 10
3277.156205108329
 20
1787.022752980138
 30
0.0
 40
2.000004
100
AcDbArc
 50
270.0
 51
0.0
  0
LINE
  5
596
330
1F
100
AcDbEntity
  8
BODY
  6
EXLTYPE1
 62
     2
100
AcDbLine
 10
3259.656220099329
 20
1785.022748980138
 30
0.0
 11
3277.156205108329
 21
1785.022748980138
 31
0.0
  0
LINE
  5
597
330
1F
100
AcDbEntity
  8
BODY
  6
EXLTYPE1
 62
     2
100
AcDbLine
 10
3279.156209098327
 20
1862.022693920138
 30
0.0
 11
3279.156209098327
 21
1787.022752980138
 31
0.0
  0
LINE
  5
598
330
1F
100
AcDbEntity
  8
BODY
  6
EXLTYPE1
 62
     2
100
AcDbLine
 10
3240.156209098329
 20
1861.522692480138
 30
0.0
 11
3240.156209098329
 21
1787.522753980137
 31
0.0
  0
ARC
  5
599
330
1F
100
AcDbEntity
  8
BODY
  6
EXLTYPE1
 62
     2
100
AcDbCircle
 10
3277.156205108329
 20
1862.022693920138
 30
0.0
 40
2.000004
100
AcDbArc
 50
0.0
 51
90.00000000000001
  0
LINE
  5
59A
330
1F
100
AcDbEntity
  8
BODY
  6
EXLTYPE1
 62
     2
100
AcDbLine
 10
3259.656220099329
 20
1864.022697480137
 30
0.0
 11
3277.156205108329
 21
1864.022697480137
 31
0.0
  0
LINE
  5
59B
330
1F
100
AcDbEntity
  8
BODY
  6
EXLTYPE1
 62
     2
100
AcDbLine
 10
3242.156213099327
 20
1863.522696480137
 30
0.0
 11
3259.656220099329
 21
1863.522696480137
 31
0.0
  0
ARC
  5
59C
330
1F
100
AcDbEntity
  8
BODY
  6
EXLTYPE1
 62
     2
100
AcDbCircle
 10
3242.156213099327
 20
1861.522692480138
 30
0.0
 40
2.000004
100
AcDbArc
 50
90.00000000000001
 51
180.0
  0
LINE
  5
59D
330
1F
100
AcDbEntity
  8
BODY
  6
EXLTYPE1
 62
     2
100
AcDbLine
 10
3259.656220099329
 20
1864.022697480137
 30
0.0
 11
3259.656220099329
 21
1785.022748980138
 31
0.0
  0
LINE
  5
59E
330
1F
100
AcDbEntity
  8
CENTER
  6
EXLTYPE0
 62
     1
100
AcDbLine
 10
3547.156209098278
 20
1692.842871143644
 30
0.0
 11
3547.156209098278
 21
1682.21932029047
 31
0.0
  0
LINE
  5
59F
330
1F
100
AcDbEntity
  8
CENTER
  6
EXLTYPE0
 62
     1
100
AcDbLine
 10
3230.718627559827
 20
1824.522697730138
 30
0.0
 11
3289.526297282627
 21
1824.522697730138
 31
0.0
  0
LINE
  5
5A0
330
1F
100
AcDbEntity
  8
CENTER
  6
EXLTYPE0
 62
     1
100
AcDbLine
 10
3611.881368201475
 20
1824.522697730138
 30
0.0
 11
3700.431049994981
 21
1824.522697730138
 31
0.0
  0
LINE
  5
5A1
330
1F
100
AcDbEntity
  8
CENTER
  6
EXLTYPE0
 62
     1
100
AcDbLine
 10
3656.156209098227
 20
1681.732048805414
 30
0.0
 11
3656.156209098227
 21
1870.569921775882
 31
0.0
  0
LINE
  5
5A2
330
1F
100
AcDbEntity
  8
CENTER
  6
EXLTYPE0
 62
     1
100
AcDbLine
 10
3574.156209098228
 20
1694.549836261738
 30
0.0
 11
3574.156209098228
 21
1702.495559105738
 31
0.0
  0
LINE
  5
5A3
330
1F
100
AcDbEntity
  8
CENTER
  6
EXLTYPE0
 62
     1
100
AcDbLine
 10
3574.156209098228
 20
1797.955910367864
 30
0.0
 11
3574.156209098228
 21
1681.089484982411
 31
0.0
  0
LINE
  5
5A4
330
1F
100
AcDbEntity
  8
CENTER
  6
EXLTYPE0
 62
     1
100
AcDbLine
 10
3230.156209098327
 20
1696.255524280766
 30
0.0
 11
3230.156209098327
 21
1682.625946329854
 31
0.0
  0
LINE
  5
5A5
330
1F
100
AcDbEntity
  8
CENTER
  6
EXLTYPE0
 62
     1
100
AcDbLine
 10
3295.162794012651
 20
1582.375410206233
 30
0.0
 11
3295.156209098277
 21
1572.522700648562
 31
0.0
  0
LINE
  5
5A6
330
1F
100
AcDbEntity
  8
CENTER
  6
EXLTYPE0
 62
     1
100
AcDbLine
 10
3683.156209098228
 20
1693.967216710538
 30
0.0
 11
3683.156209098228
 21
1681.475616035461
 31
0.0
  0
LINE
  5
5A7
330
1F
100
AcDbEntity
  8
CENTER
  6
EXLTYPE0
 62
     1
100
AcDbLine
 10
3680.156209098228
 20
1582.410556071737
 30
0.0
 11
3680.156209098228
 21
1572.522700648557
 31
0.0
  0
LINE
  5
5A8
330
1F
100
AcDbEntity
  8
CENTER
  6
EXLTYPE0
 62
     1
100
AcDbLine
 10
3615.156209098228
 20
1989.127866627698
 30
0.0
 11
3615.156209098228
 21
1569.485990740308
 31
0.0
  0
LINE
  5
5A9
330
1F
100
AcDbEntity
  8
CENTER
  6
EXLTYPE0
 62
     1
100
AcDbLine
 10
3550.156209098227
 20
1582.410556071738
 30
0.0
 11
3550.156209098227
 21
1572.522700648558
 31
0.0
  0
LINE
  5
5AA
330
1F
100
AcDbEntity
  8
CENTER
  6
EXLTYPE0
 62
     1
100
AcDbLine
 10
3680.156209098228
 20
1681.475616035461
 30
0.0
 11
3680.156209098228
 21
1695.890264991768
 31
0.0
  0
LINE
  5
5AB
330
1F
100
AcDbEntity
  8
CENTER
  6
EXLTYPE0
 62
     1
100
AcDbLine
 10
3112.739388256816
 20
1587.52270100296
 30
0.0
 11
3117.425425321481
 21
1587.52270100296
 31
0.0
  0
LINE
  5
5AC
330
1F
100
AcDbEntity
  8
CENTER
  6
EXLTYPE0
 62
     1
100
AcDbLine
 10
3135.154117083546
 20
1701.666375011792
 30
0.0
 11
3135.154117083546
 21
1670.169897793239
 31
0.0
  0
LINE
  5
5AD
330
1F
100
AcDbEntity
  8
CENTER
  6
EXLTYPE0
 62
     1
100
AcDbLine
 10
3135.165432819273
 20
1582.375410206233
 30
0.0
 11
3135.158847904899
 21
1572.522700648562
 31
0.0
  0
LINE
  5
5AE
330
1F
100
AcDbEntity
  8
CENTER
  6
EXLTYPE0
 62
     1
100
AcDbLine
 10
3127.156209098327
 20
1699.950345455841
 30
0.0
 11
3127.156209098327
 21
1798.721067960321
 31
0.0
  0
LINE
  5
5AF
330
1F
100
AcDbEntity
  8
CENTER
  6
EXLTYPE0
 62
     1
100
AcDbLine
 10
3270.095145098278
 20
1954.022697730138
 30
0.0
 11
3260.685303098278
 21
1954.022697730138
 31
0.0
  0
LINE
  5
5B0
330
1F
100
AcDbEntity
  8
CENTER
  6
EXLTYPE0
 62
     1
100
AcDbLine
 10
3265.156209098278
 20
1958.787965730138
 30
0.0
 11
3265.156209098278
 21
1949.231021730138
 31
0.0
  0
LINE
  5
5B1
330
1F
100
AcDbEntity
  8
CENTER
  6
EXLTYPE0
 62
     1
100
AcDbLine
 10
3101.095145098279
 20
1954.022697730138
 30
0.0
 11
3091.685303098279
 21
1954.022697730138
 31
0.0
  0
LINE
  5
5B2
330
1F
100
AcDbEntity
  8
CENTER
  6
EXLTYPE0
 62
     1
100
AcDbLine
 10
3096.156209098278
 20
1958.787965730138
 30
0.0
 11
3096.156209098278
 21
1949.231021730138
 31
0.0
  0
LINE
  5
5B3
330
1F
100
AcDbEntity
  8
CENTER
  6
EXLTYPE0
 62
     1
100
AcDbLine
 10
3195.156209098278
 20
1682.261703916769
 30
0.0
 11
3195.156209098278
 21
1982.379029779177
 31
0.0
  0
LINE
  5
5B4
330
1F
100
AcDbEntity
  8
CENTER
  6
EXLTYPE0
 62
     1
100
AcDbLine
 10
3093.156209098278
 20
1825.545069730138
 30
0.0
 11
3093.156209098278
 21
1816.521487730138
 31
0.0
  0
LINE
  5
5B5
330
1F
100
AcDbEntity
  8
CENTER
  6
EXLTYPE0
 62
     1
100
AcDbLine
 10
3208.683555098278
 20
1858.022697730138
 30
0.0
 11
3181.034193098279
 21
1858.022697730138
 31
0.0
  0
LINE
  5
5B6
330
1F
100
AcDbEntity
  8
CENTER
  6
EXLTYPE0
 62
     1
100
AcDbLine
 10
3259.156209098278
 20
1885.480237730138
 30
0.0
 11
3259.156209098278
 21
1865.846149730138
 31
0.0
  0
LINE
  5
5B7
330
1F
100
AcDbEntity
  8
CENTER
  6
EXLTYPE0
 62
     1
100
AcDbLine
 10
3097.519053098277
 20
1821.022697730138
 30
0.0
 11
3088.654945098279
 21
1821.022697730138
 31
0.0
  0
LINE
  5
5B8
330
1F
100
AcDbEntity
  8
CENTER
  6
EXLTYPE0
 62
     1
100
AcDbLine
 10
3550.156209098278
 20
1682.247939243317
 30
0.0
 11
3550.156209098278
 21
1702.040331021647
 31
0.0
  0
LINE
  5
5B9
330
1F
100
AcDbEntity
  8
CENTER
  6
EXLTYPE0
 62
     1
100
AcDbLine
 10
3667.156209098228
 20
1688.022697730138
 30
0.0
 11
3667.156209098228
 21
1702.805868444278
 31
0.0
  0
LINE
  5
5BA
330
1F
100
AcDbEntity
  8
CENTER
  6
EXLTYPE0
 62
     1
100
AcDbLine
 10
3183.156209098278
 20
1703.706463234059
 30
0.0
 11
3183.156209098278
 21
1684.895746242376
 31
0.0
  0
LINE
  5
5BB
330
1F
100
AcDbEntity
  8
CENTER
  6
EXLTYPE0
 62
     1
100
AcDbLine
 10
3207.156209098278
 20
1703.46329124937
 30
0.0
 11
3207.156209098278
 21
1684.213439391647
 31
0.0
  0
LINE
  5
5BC
330
1F
100
AcDbEntity
  8
CENTER
  6
EXLTYPE0
 62
     1
100
AcDbLine
 10
3302.464342595828
 20
1714.349336271938
 30
0.0
 11
3302.464342595828
 21
1691.954545956038
 31
0.0
  0
LINE
  5
5BD
330
1F
100
AcDbEntity
  8
CENTER
  6
EXLTYPE0
 62
     1
100
AcDbLine
 10
3296.079991164928
 20
1703.522697730138
 30
0.0
 11
3306.656209098227
 21
1703.522697730138
 31
0.0
  0
LINE
  5
5BE
330
1F
100
AcDbEntity
  8
CENTER
  6
EXLTYPE0
 62
     1
100
AcDbLine
 10
3254.156209098227
 20
1795.339761206849
 30
0.0
 11
3254.156209098227
 21
1683.513926972699
 31
0.0
  0
LINE
  5
5BF
330
1F
100
AcDbEntity
  8
CENTER
  6
EXLTYPE0
 62
     1
100
AcDbLine
 10
3300.156209098227
 20
1757.901362780337
 30
0.0
 11
3300.156209098227
 21
1744.459032389937
 31
0.0
  0
LINE
  5
5C0
330
1F
100
AcDbEntity
  8
CENTER
  6
EXLTYPE0
 62
     1
100
AcDbLine
 10
3277.156209098227
 20
1779.431134964637
 30
0.0
 11
3277.156209098227
 21
1734.579117145988
 31
0.0
  0
LINE
  5
5C1
330
1F
100
AcDbEntity
  8
CENTER
  6
EXLTYPE0
 62
     1
100
AcDbLine
 10
3631.656209098228
 20
1716.514687911387
 30
0.0
 11
3631.656209098228
 21
1690.530707548887
 31
0.0
  0
LINE
  5
5C2
330
1F
100
AcDbEntity
  8
CENTER
  6
EXLTYPE0
 62
     1
100
AcDbLine
 10
3587.748205257828
 20
1703.522697730138
 30
0.0
 11
3642.564212938629
 21
1703.522697730138
 31
0.0
  0
LINE
  5
5C3
330
1F
100
AcDbEntity
  8
CENTER
  6
EXLTYPE0
 62
     1
100
AcDbLine
 10
3598.656209098227
 20
1716.335300599288
 30
0.0
 11
3598.656209098227
 21
1690.710094860987
 31
0.0
  0
LINE
  5
5C4
330
1F
100
AcDbEntity
  8
CENTER
  6
EXLTYPE0
 62
     1
100
AcDbLine
 10
3592.156209098227
 20
1756.786129543538
 30
0.0
 11
3592.156209098227
 21
1743.301151311638
 31
0.0
  0
LINE
  5
5C5
330
1F
100
AcDbEntity
  8
CENTER
  6
EXLTYPE0
 62
     1
100
AcDbLine
 10
3638.156209098227
 20
1756.786129543538
 30
0.0
 11
3638.156209098227
 21
1743.301151311638
 31
0.0
  0
LINE
  5
5C6
330
1F
100
AcDbEntity
  8
CENTER
  6
EXLTYPE0
 62
     1
100
AcDbLine
 10
3103.156209098328
 20
1699.950345455841
 30
0.0
 11
3103.156209098328
 21
1798.721067960321
 31
0.0
  0
DIMENSION
  5
5C8
330
1F
100
AcDbEntity
  8
SIZE
  6
CONTINUOUS
 62
     1
100
AcDbDimension
  2
*D15
 10
3115.156735341516
 20
1476.522700648558
 30
0.0
 11
3243.656472219872
 21
1483.647700648558
 31
0.0
 70
   160
  1
約<>
  3
ISO-25
100
AcDbAlignedDimension
 13
3372.156209098227
 23
1781.366327781837
 33
0.0
 14
3115.156735341516
 24
1579.52270100296
 34
0.0
100
AcDbRotatedDimension
1001
ACAD
1000
DSTYLE
1002
{
1070
   270
1070
     2
1070
     6
1000
EX_BNORM
1070
     7
1000
EX_BNORM
1070
    41
1040
7.5
1070
    42
1040
1.875
1070
    44
1040
3.75
1070
    73
1070
     1
1070
    74
1070
     1
1070
    75
1070
     0
1070
    76
1070
     0
1070
    77
1070
     1
1070
    78
1070
     8
1070
   140
1040
10.49999983062744
1070
   147
1040
0.0
1070
   173
1070
     1
1070
   176
1070
     1
1070
   177
1070
     1
1070
   178
1070
     1
1070
   271
1070
     2
1070
   277
1070
     2
1070
   279
1070
     2
1070
   280
1070
     0
1070
   287
1070
     5
1070
   340
1005
5C7
1002
}
  0
DIMENSION
  5
5D5
330
1F
100
AcDbEntity
  8
SIZE
  6
CONTINUOUS
 62
     1
100
AcDbDimension
  2
*D16
 10
3315.156209098277
 20
1506.522700648558
 30
0.0
 11
3215.15647222034
 21
1513.647700648558
 31
0.0
 70
   160
  3
ISO-25
100
AcDbAlignedDimension
 13
3115.156735342401
 23
1579.522641497117
 33
0.0
 14
3315.156209098277
 24
1587.522697730138
 34
0.0
100
AcDbRotatedDimension
1001
ACAD
1000
DSTYLE
1002
{
1070
   270
1070
     2
1070
     6
1000
EX_BNORM
1070
     7
1000
EX_BNORM
1070
    41
1040
7.5
1070
    42
1040
1.875
1070
    44
1040
3.75
1070
    73
1070
     1
1070
    74
1070
     1
1070
    75
1070
     0
1070
    76
1070
     0
1070
    77
1070
     1
1070
    78
1070
     8
1070
   140
1040
10.49999983062744
1070
   147
1040
0.0
1070
   173
1070
     1
1070
   176
1070
     1
1070
   177
1070
     1
1070
   178
1070
     1
1070
   271
1070
     2
1070
   277
1070
     2
1070
   279
1070
     2
1070
   280
1070
     0
1070
   287
1070
     5
1070
   340
1005
5C7
1002
}
  0
DIMENSION
  5
5E2
330
1F
100
AcDbEntity
  8
SIZE
  6
CONTINUOUS
 62
     1
100
AcDbDimension
  2
*D17
 10
3295.156209098277
 20
1536.522700648558
 30
0.0
 11
3215.157528501588
 21
1543.647700648558
 31
0.0
 70
   160
  3
ISO-25
100
AcDbAlignedDimension
 13
3135.158847904899
 23
1572.522700648562
 33
0.0
 14
3295.156209098277
 24
1572.522700648562
 34
0.0
100
AcDbRotatedDimension
1001
ACAD
1000
DSTYLE
1002
{
1070
   270
1070
     2
1070
     6
1000
EX_BNORM
1070
     7
1000
EX_BNORM
1070
    41
1040
7.5
1070
    42
1040
1.875
1070
    44
1040
3.75
1070
    73
1070
     1
1070
    74
1070
     1
1070
    75
1070
     0
1070
    76
1070
     0
1070
    77
1070
     1
1070
    78
1070
     8
1070
   140
1040
10.49999983062744
1070
   147
1040
0.0
1070
   173
1070
     1
1070
   176
1070
     1
1070
   177
1070
     1
1070
   178
1070
     1
1070
   271
1070
     2
1070
   277
1070
     2
1070
   279
1070
     2
1070
   280
1070
     0
1070
   287
1070
     5
1070
   340
1005
5C7
1002
}
  0
DIMENSION
  5
5EF
330
1F
100
AcDbEntity
  8
SIZE
  6
CONTINUOUS
 62
     1
100
AcDbDimension
  2
*D18
 10
3402.156209098228
 20
1572.522700648562
 30
0.0
 11
3395.031209098227
 21
1638.02269918935
 31
0.0
 70
   160
  1
約<>
  3
ISO-25
100
AcDbAlignedDimension
 13
3306.656209098227
 23
1703.522697730138
 33
0.0
 14
3302.156209098277
 24
1572.522700648562
 34
0.0
 50
90.0
100
AcDbRotatedDimension
1001
ACAD
1000
DSTYLE
1002
{
1070
   270
1070
     2
1070
     6
1000
EX_BNORM
1070
     7
1000
EX_BNORM
1070
    41
1040
7.5
1070
    42
1040
1.875
1070
    44
1040
3.75
1070
    73
1070
     0
1070
    74
1070
     0
1070
    75
1070
     0
1070
    76
1070
     0
1070
    77
1070
     1
1070
    78
1070
     8
1070
   140
1040
10.49999983062744
1070
   147
1040
0.0
1070
   173
1070
     1
1070
   176
1070
     1
1070
   177
1070
     1
1070
   178
1070
     1
1070
   271
1070
     2
1070
   277
1070
     2
1070
   279
1070
     2
1070
   280
1070
     0
1070
   287
1070
     5
1070
   340
1005
5C7
1002
}
  0
DIMENSION
  5
5FC
330
1F
100
AcDbEntity
  8
SIZE
  6
CONTINUOUS
 62
     1
100
AcDbDimension
  2
*D19
 10
3432.156209098228
 20
1572.522700648562
 30
0.0
 11
3425.031209098228
 21
1769.27269918935
 31
0.0
 70
   160
  1
約393
  3
ISO-25
100
AcDbAlignedDimension
 13
3264.156209098278
 23
1966.022697730138
 33
0.0
 14
3302.156209098277
 24
1572.522700648562
 34
0.0
 50
90.0
100
AcDbRotatedDimension
1001
ACAD
1000
DSTYLE
1002
{
1070
   270
1070
     2
1070
     6
1000
EX_BNORM
1070
     7
1000
EX_BNORM
1070
    41
1040
7.5
1070
    42
1040
1.875
1070
    44
1040
3.75
1070
    73
1070
     0
1070
    74
1070
     0
1070
    75
1070
     0
1070
    76
1070
     0
1070
    77
1070
     1
1070
    78
1070
     8
1070
   140
1040
10.49999983062744
1070
   147
1040
0.0
1070
   173
1070
     1
1070
   176
1070
     1
1070
   177
1070
     1
1070
   178
1070
     1
1070
   271
1070
     2
1070
   277
1070
     2
1070
   279
1070
     2
1070
   280
1070
     0
1070
   287
1070
     5
1070
   340
1005
5C7
1002
}
  0
DIMENSION
  5
609
330
1F
100
AcDbEntity
  8
SIZE
  6
CONTINUOUS
 62
     1
100
AcDbDimension
  2
*D20
 10
3342.156209098227
 20
1572.522700648562
 30
0.0
 11
3335.031209098227
 21
1626.02269918935
 31
0.0
 70
   160
  3
ISO-25
100
AcDbAlignedDimension
 13
3305.150181927403
 23
1679.522697730137
 33
0.0
 14
3302.156209098277
 24
1572.522700648562
 34
0.0
 50
90.0
100
AcDbRotatedDimension
1001
ACAD
1000
DSTYLE
1002
{
1070
   270
1070
     2
1070
     6
1000
EX_BNORM
1070
     7
1000
EX_BNORM
1070
    41
1040
7.5
1070
    42
1040
1.875
1070
    44
1040
3.75
1070
    73
1070
     0
1070
    74
1070
     0
1070
    75
1070
     0
1070
    76
1070
     0
1070
    77
1070
     1
1070
    78
1070
     8
1070
   140
1040
10.49999983062744
1070
   147
1040
0.0
1070
   173
1070
     1
1070
   176
1070
     1
1070
   177
1070
     1
1070
   178
1070
     1
1070
   271
1070
     2
1070
   277
1070
     2
1070
   279
1070
     2
1070
   280
1070
     0
1070
   287
1070
     5
1070
   340
1005
5C7
1002
}
  0
DIMENSION
  5
616
330
1F
100
AcDbEntity
  8
SIZE
  6
CONTINUOUS
 62
     1
100
AcDbDimension
  2
*D21
 10
3530.156209098227
 20
1506.522700648558
 30
0.0
 11
3615.156209098227
 21
1513.647700648558
 31
0.0
 70
   160
  3
ISO-25
100
AcDbAlignedDimension
 13
3700.156209098228
 23
1587.522697730137
 33
0.0
 14
3530.156209098227
 24
1587.522697730137
 34
0.0
100
AcDbRotatedDimension
1001
ACAD
1000
DSTYLE
1002
{
1070
   270
1070
     2
1070
     6
1000
EX_BNORM
1070
     7
1000
EX_BNORM
1070
    41
1040
7.5
1070
    42
1040
1.875
1070
    44
1040
3.75
1070
    73
1070
     1
1070
    74
1070
     1
1070
    75
1070
     0
1070
    76
1070
     0
1070
    77
1070
     1
1070
    78
1070
     8
1070
   140
1040
10.49999983062744
1070
   147
1040
0.0
1070
   173
1070
     1
1070
   176
1070
     1
1070
   177
1070
     1
1070
   178
1070
     1
1070
   271
1070
     2
1070
   277
1070
     2
1070
   279
1070
     2
1070
   280
1070
     0
1070
   287
1070
     5
1070
   340
1005
5C7
1002
}
  0
DIMENSION
  5
623
330
1F
100
AcDbEntity
  8
SIZE
  6
CONTINUOUS
 62
     1
100
AcDbDimension
  2
*D22
 10
3680.156209098228
 20
1536.522700648558
 30
0.0
 11
3615.156209098227
 21
1543.647700648558
 31
0.0
 70
   160
  3
ISO-25
100
AcDbAlignedDimension
 13
3550.156209098227
 23
1572.522700648558
 33
0.0
 14
3680.156209098228
 24
1572.522700648557
 34
0.0
100
AcDbRotatedDimension
1001
ACAD
1000
DSTYLE
1002
{
1070
   270
1070
     2
1070
     6
1000
EX_BNORM
1070
     7
1000
EX_BNORM
1070
    41
1040
7.5
1070
    42
1040
1.875
1070
    44
1040
3.75
1070
    73
1070
     1
1070
    74
1070
     1
1070
    75
1070
     0
1070
    76
1070
     0
1070
    77
1070
     1
1070
    78
1070
     8
1070
   140
1040
10.49999983062744
1070
   147
1040
0.0
1070
   173
1070
     1
1070
   176
1070
     1
1070
   177
1070
     1
1070
   178
1070
     1
1070
   271
1070
     2
1070
   277
1070
     2
1070
   279
1070
     2
1070
   280
1070
     0
1070
   287
1070
     5
1070
   340
1005
5C7
1002
}
  0
TEXT
  5
630
330
1F
100
AcDbEntity
  8
SIZE
  6
CONTINUOUS
 62
     1
100
AcDbText
 10
3003.886610493366
 20
1490.674243893551
 30
0.0
 40
9.000000067227935
  1
4-M6ネジ深さ9
 41
0.8665362991835163
  7
EXCADSTD
 72
     5
 11
3077.715503735287
 21
1490.674243893551
 31
0.0
100
AcDbText
  0
LEADER
  5
631
330
1F
100
AcDbEntity
  8
SIZE
  6
CONTINUOUS
 62
     1
100
AcDbLeader
  3
ISO-25
 76
     3
 10
3135.160184573705
 20
1574.522697730138
 30
0.0
 10
3085.508063108349
 20
1488.522700648558
 30
0.0
 10
2999.244091671506
 20
1488.522700648558
 30
0.0
1001
ACAD
1000
DSTYLE
1002
{
1070
     5
1000
EX_BNORM
1070
    41
1040
7.5
1070
   341
1005
81
1002
}
  0
TEXT
  5
633
330
1F
100
AcDbEntity
  8
SIZE
  6
CONTINUOUS
 62
     1
100
AcDbText
 10
3637.698478584889
 20
1689.033591963444
 30
0.0
 40
7.999999706561749
  1
B
 41
1.011875708436548
  7
EXCADTTF1
 72
     5
 11
3645.234928584889
 21
1689.033591963444
 31
0.0
100
AcDbText
  0
TEXT
  5
634
330
1F
100
AcDbEntity
  8
SIZE
  6
CONTINUOUS
 62
     1
100
AcDbText
 10
3604.079798710952
 20
1689.587436524834
 30
0.0
 40
7.999999706561749
  1
A
 41
1.011875708436548
  7
EXCADTTF1
 72
     5
 11
3611.616248710952
 21
1689.587436524834
 31
0.0
100
AcDbText
  0
TEXT
  5
636
330
1F
100
AcDbEntity
  8
SIZE
  6
CONTINUOUS
 62
     1
100
AcDbText
 10
3692.143798195712
 20
1480.342282435003
 30
0.0
 40
10.72500026226044
  1
タンク容量　6.0L
 41
1.01282491135624
  7
EXCADTTF2
 72
     5
 11
3800.212358195712
 21
1480.342282435003
 31
0.0
100
AcDbText
  0
TEXT
  5
637
330
1F
100
AcDbEntity
  8
SIZE
  6
CONTINUOUS
 62
     1
100
AcDbText
 10
3692.143798195712
 20
1458.502282282415
 30
0.0
 40
10.72500026226044
  1
重量　16.5kg
 41
0.9823677253027724
  7
EXCADTTF2
 72
     5
 11
3773.195218195712
 21
1458.502282282415
 31
0.0
100
AcDbText
  0
ENDSEC
  0
SECTION
  2
OBJECTS
  0
DICTIONARY
  5
C
330
0
100
AcDbDictionary
  3
ACAD_GROUP
350
D
  3
ACAD_LAYOUT
350
1A
  3
ACAD_MATERIAL
350
43
  3
ACAD_MLEADERSTYLE
350
6B
  3
ACAD_MLINESTYLE
350
17
  3
ACAD_PLOTSETTINGS
350
19
  3
ACAD_SCALELIST
350
47
  3
ACAD_VISUALSTYLE
350
2A
  3
ACDBHEADERROUNDTRIPXREC
350
638
  3
ACDBVARIABLEDICTIONARY
350
659
  0
DICTIONARY
  5
664
330
8
100
AcDbDictionary
280
     1
  3
ACAD_XREC_ROUNDTRIP
360
665
  0
DICTIONARY
  5
D
102
{ACAD_REACTORS
330
C
102
}
330
C
100
AcDbDictionary
  0
DICTIONARY
  5
1A
102
{ACAD_REACTORS
330
C
102
}
330
C
100
AcDbDictionary
  0
DICTIONARY
  5
43
102
{ACAD_REACTORS
330
C
102
}
330
C
100
AcDbDictionary
  3
BYBLOCK
350
45
  3
BYLAYER
350
44
  3
GLOBAL
350
46
  0
DICTIONARY
  5
6B
102
{ACAD_REACTORS
330
C
102
}
330
C
100
AcDbDictionary
  3
STANDARD
350
6C
  0
DICTIONARY
  5
17
102
{ACAD_REACTORS
330
C
102
}
330
C
100
AcDbDictionary
  3
STANDARD
350
18
  0
DICTIONARY
  5
19
102
{ACAD_REACTORS
330
C
102
}
330
C
100
AcDbDictionary
  0
DICTIONARY
  5
47
102
{ACAD_REACTORS
330
C
102
}
330
C
100
AcDbDictionary
  3
A0
350
48
  3
A1
350
49
  3
A2
350
4A
  3
A3
350
4B
  3
A4
350
4C
  3
A5
350
4D
  3
A6
350
4E
  3
A7
350
4F
  3
A8
350
50
  3
A9
350
51
  3
B0
350
52
  3
B1
350
53
  3
B2
350
54
  3
B3
350
55
  3
B4
350
56
  3
B5
350
57
  3
B6
350
58
  3
B7
350
59
  3
B8
350
5A
  3
B9
350
5B
  3
C0
350
5C
  3
C1
350
5D
  3
C2
350
5E
  3
C3
350
5F
  3
C4
350
60
  3
C5
350
61
  3
C6
350
62
  3
C7
350
63
  3
C8
350
64
  3
C9
350
65
  3
D0
350
66
  3
D1
350
67
  3
D2
350
68
  0
DICTIONARY
  5
2A
102
{ACAD_REACTORS
330
C
102
}
330
C
100
AcDbDictionary
  3
2DWIREFRAME
350
2F
  3
BASIC
350
32
  3
BRIGHTEN
350
36
  3
COLORCHANGE
350
3A
  3
CONCEPTUAL
350
34
  3
DIM
350
35
  3
EDGECOLOROFF
350
3D
  3
FACEPATTERN
350
39
  3
FLAT
350
2B
  3
FLATWITHEDGES
350
2C
  3
GOURAUD
350
2D
  3
GOURAUDWITHEDGES
350
2E
  3
HIDDEN
350
31
  3
JITTEROFF
350
3B
  3
LINEPATTERN
350
38
  3
OVERHANGOFF
350
3C
  3
REALISTIC
350
33
  3
SHADED
350
42
  3
SHADED_WITH_EDGES
350
41
  3
SHADES_OF_GRAY
350
3E
  3
SKETCHY
350
3F
  3
THICKEN
350
37
  3
WIREFRAME
350
30
  3
X-RAY
350
40
  0
DICTIONARY
  5
638
102
{ACAD_REACTORS
330
C
102
}
330
C
100
AcDbDictionary
  3
CEPSNID
350
642
  3
CEPSNTYPE
350
641
  3
DIMSTYLEDATA
350
658
  3
FINGERPRINTGUID
350
643
  3
HYPERLINKBASE
350
63B
  3
INSUNITS
350
640
  3
LAYOUTDICT
350
63D
  3
LWETCUNION
350
63F
  3
PLOTSETDICT
350
63E
  3
PSVPSCALE
350
645
  3
PUCSBASE
350
648
  3
PUCSORGBACK
350
64E
  3
PUCSORGBOTTOM
350
64A
  3
PUCSORGFRONT
350
64D
  3
PUCSORGLEFT
350
64B
  3
PUCSORGRIGHT
350
64C
  3
PUCSORGTOP
350
649
  3
PUCSORTHOREF
350
646
  3
PUCSORTHOVIEW
350
647
  3
STYLESHEET
350
63C
  3
TSTACKALIGN
350
639
  3
TSTACKSIZE
350
63A
  3
UCSBASE
350
651
  3
UCSORGBACK
350
657
  3
UCSORGBOTTOM
350
653
  3
UCSORGFRONT
350
656
  3
UCSORGLEFT
350
654
  3
UCSORGRIGHT
350
655
  3
UCSORGTOP
350
652
  3
UCSORTHOREF
350
64F
  3
UCSORTHOVIEW
350
650
  3
VERSIONGUID
350
644
  0
DICTIONARY
  5
659
102
{ACAD_REACTORS
330
C
102
}
330
C
100
AcDbDictionary
  3
CANNOSCALE
350
666
  3
CENTEREXE
350
660
  3
CENTERLTYPEFILE
350
661
  3
CMLEADERSTYLE
350
65B
  3
CTABLESTYLE
350
65A
  3
DIMASSOC
350
662
  3
HIDETEXT
350
663
  3
MSLTSCALE
350
667
  3
PSOLHEIGHT
350
65D
  3
PSOLWIDTH
350
65C
  0
XRECORD
  5
665
102
{ACAD_REACTORS
330
664
102
}
330
664
100
AcDbXrecord
102
VTR_0.000_0.000_1.000_1.000_VISUALSTYLE
340
2F
102
VTR_0.000_0.000_1.000_1.000_GRIDDISPLAY
 70
     3
102
VTR_0.000_0.000_1.000_1.000_GRIDMAJOR
 70
     5
102
VTR_0.000_0.000_1.000_1.000_DEFAULTLIGHTING
280
     1
102
VTR_0.000_0.000_1.000_1.000_DEFAULTLIGHTINGTYPE
 70
     1
102
VTR_0.000_0.000_1.000_1.000_BRIGHTNESS
141
0.0
102
VTR_0.000_0.000_1.000_1.000_CONTRAST
142
0.0
  0
MATERIAL
  5
45
102
{ACAD_REACTORS
330
43
102
}
102
{ACAD_XDICTIONARY
360
66A
102
}
330
43
100
AcDbMaterial
  1
BYBLOCK
  0
MATERIAL
  5
44
102
{ACAD_REACTORS
330
43
102
}
102
{ACAD_XDICTIONARY
360
668
102
}
330
43
100
AcDbMaterial
  1
BYLAYER
  0
MATERIAL
  5
46
102
{ACAD_REACTORS
330
43
102
}
102
{ACAD_XDICTIONARY
360
66C
102
}
330
43
100
AcDbMaterial
  1
GLOBAL
  0
ACAD_PROXY_OBJECT
  5
6C
102
{ACAD_REACTORS
330
6B
102
}
330
6B
100
AcDbProxyObject
 90
      499
 91
      505
 93
      610
310
40901902A4063FBFFFFFE0000000000000020400000000000020404214DD185B99185C990000000000000104090141901A00000000000004100000000000000041025764000000000000039000
340
14
340
0
340
11
340
0
 94
        0
1001
ACAD_MLEADERVER
1070
     2
  0
MLINESTYLE
  5
18
102
{ACAD_REACTORS
330
17
102
}
330
17
100
AcDbMlineStyle
  2
Standard
 70
     0
  3

 62
   256
 51
90.0
 52
90.0
 71
     2
 49
0.5
 62
   256
  6
BYLAYER
 49
-0.5
 62
   256
  6
BYLAYER
  0
ACAD_PROXY_OBJECT
  5
48
102
{ACAD_REACTORS
330
47
102
}
330
47
100
AcDbProxyObject
 90
      499
 91
      503
 93
       41
310
903313A31580
  0
ACAD_PROXY_OBJECT
  5
49
102
{ACAD_REACTORS
330
47
102
}
330
47
100
AcDbProxyObject
 90
      499
 91
      503
 93
      105
310
903313A324000000000000004000
  0
ACAD_PROXY_OBJECT
  5
4A
102
{ACAD_REACTORS
330
47
102
}
330
47
100
AcDbProxyObject
 90
      499
 91
      503
 93
      105
310
903313A344000000000000104000
  0
ACAD_PROXY_OBJECT
  5
4B
102
{ACAD_REACTORS
330
47
102
}
330
47
100
AcDbProxyObject
 90
      499
 91
      503
 93
      105
310
903313A354000000000000144000
  0
ACAD_PROXY_OBJECT
  5
4C
102
{ACAD_REACTORS
330
47
102
}
330
47
100
AcDbProxyObject
 90
      499
 91
      503
 93
      105
310
903313A384000000000000204000
  0
ACAD_PROXY_OBJECT
  5
4D
102
{ACAD_REACTORS
330
47
102
}
330
47
100
AcDbProxyObject
 90
      499
 91
      503
 93
      113
310
904313A31304000000000000244000
  0
ACAD_PROXY_OBJECT
  5
4E
102
{ACAD_REACTORS
330
47
102
}
330
47
100
AcDbProxyObject
 90
      499
 91
      503
 93
      113
310
904313A31364000000000000304000
  0
ACAD_PROXY_OBJECT
  5
4F
102
{ACAD_REACTORS
330
47
102
}
330
47
100
AcDbProxyObject
 90
      499
 91
      503
 93
      113
310
904313A32304000000000000344000
  0
ACAD_PROXY_OBJECT
  5
50
102
{ACAD_REACTORS
330
47
102
}
330
47
100
AcDbProxyObject
 90
      499
 91
      503
 93
      113
310
904313A333040000000000003E4000
  0
ACAD_PROXY_OBJECT
  5
51
102
{ACAD_REACTORS
330
47
102
}
330
47
100
AcDbProxyObject
 90
      499
 91
      503
 93
      113
310
904313A34304000000000000444000
  0
ACAD_PROXY_OBJECT
  5
52
102
{ACAD_REACTORS
330
47
102
}
330
47
100
AcDbProxyObject
 90
      499
 91
      503
 93
      113
310
904313A35304000000000000494000
  0
ACAD_PROXY_OBJECT
  5
53
102
{ACAD_REACTORS
330
47
102
}
330
47
100
AcDbProxyObject
 90
      499
 91
      503
 93
      121
310
905313A3130304000000000000594000
  0
ACAD_PROXY_OBJECT
  5
54
102
{ACAD_REACTORS
330
47
102
}
330
47
100
AcDbProxyObject
 90
      499
 91
      503
 93
      105
310
903323A310000000000000010100
  0
ACAD_PROXY_OBJECT
  5
55
102
{ACAD_REACTORS
330
47
102
}
330
47
100
AcDbProxyObject
 90
      499
 91
      503
 93
      105
310
903343A310000000000000410100
  0
ACAD_PROXY_OBJECT
  5
56
102
{ACAD_REACTORS
330
47
102
}
330
47
100
AcDbProxyObject
 90
      499
 91
      503
 93
      105
310
903383A310000000000000810100
  0
ACAD_PROXY_OBJECT
  5
57
102
{ACAD_REACTORS
330
47
102
}
330
47
100
AcDbProxyObject
 90
      499
 91
      503
 93
      113
310
90431303A310000000000000910100
  0
ACAD_PROXY_OBJECT
  5
58
102
{ACAD_REACTORS
330
47
102
}
330
47
100
AcDbProxyObject
 90
      499
 91
      503
 93
      121
310
9053130303A310000000000001650100
  0
ACAD_PROXY_OBJECT
  5
59
102
{ACAD_REACTORS
330
47
102
}
330
47
100
AcDbProxyObject
 90
      499
 91
      503
 93
      257
310
90E312F31323822203D2031272D3022000000000000200FC000000000000284000
  0
ACAD_PROXY_OBJECT
  5
5A
102
{ACAD_REACTORS
330
47
102
}
330
47
100
AcDbProxyObject
 90
      499
 91
      503
 93
      249
310
90D312F363422203D2031272D3022000000000000240FC000000000000284000
  0
ACAD_PROXY_OBJECT
  5
5B
102
{ACAD_REACTORS
330
47
102
}
330
47
100
AcDbProxyObject
 90
      499
 91
      503
 93
      249
310
90D312F333222203D2031272D3022000000000000280FC000000000000284000
  0
ACAD_PROXY_OBJECT
  5
5C
102
{ACAD_REACTORS
330
47
102
}
330
47
100
AcDbProxyObject
 90
      499
 91
      503
 93
      249
310
90D312F313622203D2031272D30220000000000002C0FC000000000000284000
  0
ACAD_PROXY_OBJECT
  5
5D
102
{ACAD_REACTORS
330
47
102
}
330
47
100
AcDbProxyObject
 90
      499
 91
      503
 93
      249
310
90D332F333222203D2031272D30220000000000002E0FC000000000000284000
  0
ACAD_PROXY_OBJECT
  5
5E
102
{ACAD_REACTORS
330
47
102
}
330
47
100
AcDbProxyObject
 90
      499
 91
      503
 93
      241
310
90C312F3822203D2031272D3022000000000000300FC000000000000284000
  0
ACAD_PROXY_OBJECT
  5
5F
102
{ACAD_REACTORS
330
47
102
}
330
47
100
AcDbProxyObject
 90
      499
 91
      503
 93
      249
310
90D332F313622203D2031272D3022000000000000320FC000000000000284000
  0
ACAD_PROXY_OBJECT
  5
60
102
{ACAD_REACTORS
330
47
102
}
330
47
100
AcDbProxyObject
 90
      499
 91
      503
 93
      241
310
90C312F3422203D2031272D3022000000000000340FC000000000000284000
  0
ACAD_PROXY_OBJECT
  5
61
102
{ACAD_REACTORS
330
47
102
}
330
47
100
AcDbProxyObject
 90
      499
 91
      503
 93
      241
310
90C332F3822203D2031272D3022000000000000360FC000000000000284000
  0
ACAD_PROXY_OBJECT
  5
62
102
{ACAD_REACTORS
330
47
102
}
330
47
100
AcDbProxyObject
 90
      499
 91
      503
 93
      241
310
90C312F3222203D2031272D3022000000000000380FC000000000000284000
  0
ACAD_PROXY_OBJECT
  5
63
102
{ACAD_REACTORS
330
47
102
}
330
47
100
AcDbProxyObject
 90
      499
 91
      503
 93
      241
310
90C332F3422203D2031272D30220000000000003A0FC000000000000284000
  0
ACAD_PROXY_OBJECT
  5
64
102
{ACAD_REACTORS
330
47
102
}
330
47
100
AcDbProxyObject
 90
      499
 91
      503
 93
      161
310
90A3122203D2031272D30224000000000000284000
  0
ACAD_PROXY_OBJECT
  5
65
102
{ACAD_REACTORS
330
47
102
}
330
47
100
AcDbProxyObject
 90
      499
 91
      503
 93
      257
310
90E312D312F3222203D2031272D30220000000000003E0FC000000000000284000
  0
ACAD_PROXY_OBJECT
  5
66
102
{ACAD_REACTORS
330
47
102
}
330
47
100
AcDbProxyObject
 90
      499
 91
      503
 93
      225
310
90A3322203D2031272D302200000000000002100000000000000284000
  0
ACAD_PROXY_OBJECT
  5
67
102
{ACAD_REACTORS
330
47
102
}
330
47
100
AcDbProxyObject
 90
      499
 91
      503
 93
      225
310
90A3622203D2031272D302200000000000006100000000000000284000
  0
ACAD_PROXY_OBJECT
  5
68
102
{ACAD_REACTORS
330
47
102
}
330
47
100
AcDbProxyObject
 90
      499
 91
      503
 93
      249
310
90D31272D3022203D2031272D30220000000000000A100000000000000284000
  0
ACAD_PROXY_OBJECT
  5
2F
102
{ACAD_REACTORS
330
2A
102
}
330
2A
100
AcDbProxyObject
 90
      499
 91
      501
 93
      436
310
42CC9915DA5C99599C985B595049028333333333333E33F0000000000000F90107901411070040501600405405064090741402480A0340
1001
ACAD
1000
AcDbSavedByObjectVersion
1070
     0
  0
ACAD_PROXY_OBJECT
  5
32
102
{ACAD_REACTORS
330
2A
102
}
330
2A
100
AcDbProxyObject
 90
      499
 91
      501
 93
      388
310
4150985CDA58D07406404333333333333E33F0000000000000F90107A41107004050150841D405064090741402480A0350
1001
ACAD
1000
AcDbSavedByObjectVersion
1070
     0
  0
ACAD_PROXY_OBJECT
  5
36
102
{ACAD_REACTORS
330
2A
102
}
330
2A
100
AcDbProxyObject
 90
      499
 91
      501
 93
      428
310
42109C9A59DA1D195B90C409028333333333333E33F0000000000000F9010790141107004050150841D405064090741402480A029950
1001
ACAD
1000
AcDbSavedByObjectVersion
1070
     0
  0
ACAD_PROXY_OBJECT
  5
3A
102
{ACAD_REACTORS
330
2A
102
}
330
2A
100
AcDbProxyObject
 90
      499
 91
      501
 93
      452
310
42D0DBDB1BDC90DA185B99D95104090240C333333333333E33F0000000000000F90108901411070040501508421405064090741402480A0350
1001
ACAD
1000
AcDbSavedByObjectVersion
1070
     0
  0
ACAD_PROXY_OBJECT
  5
34
102
{ACAD_REACTORS
330
2A
102
}
330
2A
100
AcDbProxyObject
 90
      499
 91
      501
 93
      500
310
4290DBDB98D95C1D1D585B10940D028333333333333E33F0000000000000F90107902409070040501000000000018199010841D405064090740C02480A0340
1001
ACAD
1000
AcDbSavedByObjectVersion
1070
     0
  0
ACAD_PROXY_OBJECT
  5
35
102
{ACAD_REACTORS
330
2A
102
}
330
2A
100
AcDbProxyObject
 90
      499
 91
      501
 93
      412
310
40D11A5B50B409028333333333333E33F0000000000000F9010790141107004050150841D405064090741402480A02677FFFFFD0
1001
ACAD
1000
AcDbSavedByObjectVersion
1070
     0
  0
ACAD_PROXY_OBJECT
  5
3D
102
{ACAD_REACTORS
330
2A
102
}
330
2A
100
AcDbProxyObject
 90
      499
 91
      501
 93
      452
310
43115919D950DBDB1BDC93D999916409028333333333333E33F0000000000000F9010790141107004050150841D405064090741402480A0350
1001
ACAD
1000
AcDbSavedByObjectVersion
1070
     0
  0
ACAD_PROXY_OBJECT
  5
39
102
{ACAD_REACTORS
330
2A
102
}
330
2A
100
AcDbProxyObject
 90
      499
 91
      501
 93
      444
310
42D19858D95C185D1D195C9B90F409028333333333333E33F0000000000000F9010790141107004050150841D405064090741402480A0350
1001
ACAD
1000
AcDbSavedByObjectVersion
1070
     0
  0
ACAD_PROXY_OBJECT
  5
2B
102
{ACAD_REACTORS
330
2A
102
}
330
2A
100
AcDbProxyObject
 90
      499
 91
      501
 93
      380
310
41119B185D240901404333333333333E33F0000000000000F9010740A907004050150841D405064090741402480A1B50
1001
ACAD
1000
AcDbSavedByObjectVersion
1070
     0
  0
ACAD_PROXY_OBJECT
  5
2C
102
{ACAD_REACTORS
330
2A
102
}
330
2A
100
AcDbProxyObject
 90
      499
 91
      501
 93
      468
310
43519B185D15DA5D1A115919D95CD0140901404333333333333E33F0000000000000F90107409019070040501600405405064090741402480A1B50
1001
ACAD
1000
AcDbSavedByObjectVersion
1070
     0
  0
ACAD_PROXY_OBJECT
  5
2D
102
{ACAD_REACTORS
330
2A
102
}
330
2A
100
AcDbProxyObject
 90
      499
 91
      501
 93
      404
310
41D1DBDD5C985D5910240902404333333333333E33F0000000000000F9010740A9070040501641D405064090741402480A1B50
1001
ACAD
1000
AcDbSavedByObjectVersion
1070
     0
  0
ACAD_PROXY_OBJECT
  5
2E
102
{ACAD_REACTORS
330
2A
102
}
330
2A
100
AcDbProxyObject
 90
      499
 91
      501
 93
      492
310
4411DBDD5C985D5915DA5D1A115919D95CD0340902404333333333333E33F0000000000000F90107409019070040501600405405064090741402480A1B50
1001
ACAD
1000
AcDbSavedByObjectVersion
1070
     0
  0
ACAD_PROXY_OBJECT
  5
31
102
{ACAD_REACTORS
330
2A
102
}
330
2A
100
AcDbProxyObject
 90
      499
 91
      501
 93
      476
310
41921A5919195B90640502408333333333333E33F0000000000000F901079024090700405020000000000001110200405405064090740C02480A0340
1001
ACAD
1000
AcDbSavedByObjectVersion
1070
     0
  0
ACAD_PROXY_OBJECT
  5
3B
102
{ACAD_REACTORS
330
2A
102
}
330
2A
100
AcDbProxyObject
 90
      499
 91
      501
 93
      428
310
42529A5D1D195C93D999914409028333333333333E33F0000000000000F9010790141107004050150A41D405064090741402480A0350
1001
ACAD
1000
AcDbSavedByObjectVersion
1070
     0
  0
ACAD_PROXY_OBJECT
  5
38
102
{ACAD_REACTORS
330
2A
102
}
330
2A
100
AcDbProxyObject
 90
      499
 91
      501
 93
      444
310
42D31A5B995C185D1D195C9B90E409028333333333333E33F0000000000000F9010790141107004050750841D405064090741402483A0350
1001
ACAD
1000
AcDbSavedByObjectVersion
1070
     0
  0
ACAD_PROXY_OBJECT
  5
3C
102
{ACAD_REACTORS
330
2A
102
}
330
2A
100
AcDbProxyObject
 90
      499
 91
      501
 93
      444
310
42D3DD995C9A185B99D3D999915409028333333333333E33F0000000000000F9010790141107004050150941D405064090741402480A0350
1001
ACAD
1000
AcDbSavedByObjectVersion
1070
     0
  0
ACAD_PROXY_OBJECT
  5
33
102
{ACAD_REACTORS
330
2A
102
}
330
2A
100
AcDbProxyObject
 90
      499
 91
      501
 93
      428
310
425499585B1A5CDD1A58D08409038333333333333E33F0000000000000F9010740A907004050150800405405064090740C02480A1B40
1001
ACAD
1000
AcDbSavedByObjectVersion
1070
     0
  0
ACAD_PROXY_OBJECT
  5
42
102
{ACAD_REACTORS
330
2A
102
}
330
2A
100
AcDbProxyObject
 90
      499
 91
      501
 93
      420
310
4194DA1859195911B40902404333333333333E33F0000000000000F9010740A41107004050150800405405064090840C02480A0B40
1001
ACAD
1000
AcDbSavedByObjectVersion
1070
     0
  0
ACAD_PROXY_OBJECT
  5
41
102
{ACAD_REACTORS
330
2A
102
}
330
2A
100
AcDbProxyObject
 90
      499
 91
      501
 93
      516
310
4454DA18591959081DDA5D1A08195919D95CD1A40902404333333333333E33F0000000000000F901074090142907004050250800405405064090740C02480A0B40
1001
ACAD
1000
AcDbSavedByObjectVersion
1070
     0
  0
ACAD_PROXY_OBJECT
  5
3E
102
{ACAD_REACTORS
330
2A
102
}
330
2A
100
AcDbProxyObject
 90
      499
 91
      501
 93
      532
310
4394DA1859195CC81BD98811DC985E5174090240C333333333333E33F0000000000000F901079024090741D01000000000000111010841D405064090740C02480A0340
1001
ACAD
1000
AcDbSavedByObjectVersion
1070
     0
  0
ACAD_PROXY_OBJECT
  5
3F
102
{ACAD_REACTORS
330
2A
102
}
330
2A
100
AcDbProxyObject
 90
      499
 91
      501
 93
      476
310
41D4DAD95D18DA1E51840502408333333333333E33F0000000000000F901079024090741D01000000000000111010B41D405064090741802480A0340
1001
ACAD
1000
AcDbSavedByObjectVersion
1070
     0
  0
ACAD_PROXY_OBJECT
  5
37
102
{ACAD_REACTORS
330
2A
102
}
330
2A
100
AcDbProxyObject
 90
      499
 91
      501
 93
      412
310
41D51A1A58DAD95B90D409028333333333333E33F0000000000000F9010790141107004050150C41D405064090741402480A0350
1001
ACAD
1000
AcDbSavedByObjectVersion
1070
     0
  0
ACAD_PROXY_OBJECT
  5
30
102
{ACAD_REACTORS
330
2A
102
}
330
2A
100
AcDbProxyObject
 90
      499
 91
      501
 93
      420
310
4255DA5C99599C985B595059028333333333333E33F0000000000000F90107901411070040501600405405064090740C02480A0340
1001
ACAD
1000
AcDbSavedByObjectVersion
1070
     0
  0
ACAD_PROXY_OBJECT
  5
40
102
{ACAD_REACTORS
330
2A
102
}
330
2A
100
AcDbProxyObject
 90
      499
 91
      501
 93
      404
310
41560B54985E51940902404000000000000E03F0000000000000F9010740501907004050150841D405064090740C02480A1B40
1001
ACAD
1000
AcDbSavedByObjectVersion
1070
     0
  0
XRECORD
  5
642
102
{ACAD_REACTORS
330
638
102
}
330
638
100
AcDbXrecord
340
0
  0
XRECORD
  5
641
102
{ACAD_REACTORS
330
638
102
}
330
638
100
AcDbXrecord
 90
        0
  0
XRECORD
  5
658
102
{ACAD_REACTORS
330
638
102
}
330
638
100
AcDbXrecord
1000
DSTYLE
1002
{
1070
   340
340
11
1002
}
  0
XRECORD
  5
643
102
{ACAD_REACTORS
330
638
102
}
330
638
100
AcDbXrecord
  1
{7cb93551-c215-4d57-9c20-44caf6aa89e4}
  0
XRECORD
  5
63B
102
{ACAD_REACTORS
330
638
102
}
330
638
100
AcDbXrecord
  1

  0
XRECORD
  5
640
102
{ACAD_REACTORS
330
638
102
}
330
638
100
AcDbXrecord
 90
        4
  0
XRECORD
  5
63D
102
{ACAD_REACTORS
330
638
102
}
330
638
100
AcDbXrecord
340
1A
  0
XRECORD
  5
63F
102
{ACAD_REACTORS
330
638
102
}
330
638
100
AcDbXrecord
 90
    10781
  0
XRECORD
  5
63E
102
{ACAD_REACTORS
330
638
102
}
330
638
100
AcDbXrecord
340
19
  0
XRECORD
  5
645
102
{ACAD_REACTORS
330
638
102
}
330
638
100
AcDbXrecord
 40
0.0
  0
XRECORD
  5
648
102
{ACAD_REACTORS
330
638
102
}
330
638
100
AcDbXrecord
340
0
  0
XRECORD
  5
64E
102
{ACAD_REACTORS
330
638
102
}
330
638
100
AcDbXrecord
 10
0.0
 20
0.0
 30
0.0
  0
XRECORD
  5
64A
102
{ACAD_REACTORS
330
638
102
}
330
638
100
AcDbXrecord
 10
0.0
 20
0.0
 30
0.0
  0
XRECORD
  5
64D
102
{ACAD_REACTORS
330
638
102
}
330
638
100
AcDbXrecord
 10
0.0
 20
0.0
 30
0.0
  0
XRECORD
  5
64B
102
{ACAD_REACTORS
330
638
102
}
330
638
100
AcDbXrecord
 10
0.0
 20
0.0
 30
0.0
  0
XRECORD
  5
64C
102
{ACAD_REACTORS
330
638
102
}
330
638
100
AcDbXrecord
 10
0.0
 20
0.0
 30
0.0
  0
XRECORD
  5
649
102
{ACAD_REACTORS
330
638
102
}
330
638
100
AcDbXrecord
 10
0.0
 20
0.0
 30
0.0
  0
XRECORD
  5
646
102
{ACAD_REACTORS
330
638
102
}
330
638
100
AcDbXrecord
340
0
  0
XRECORD
  5
647
102
{ACAD_REACTORS
330
638
102
}
330
638
100
AcDbXrecord
 70
     0
  0
XRECORD
  5
63C
102
{ACAD_REACTORS
330
638
102
}
330
638
100
AcDbXrecord
  1

  0
XRECORD
  5
639
102
{ACAD_REACTORS
330
638
102
}
330
638
100
AcDbXrecord
 90
        1
  0
XRECORD
  5
63A
102
{ACAD_REACTORS
330
638
102
}
330
638
100
AcDbXrecord
 90
       70
  0
XRECORD
  5
651
102
{ACAD_REACTORS
330
638
102
}
330
638
100
AcDbXrecord
340
0
  0
XRECORD
  5
657
102
{ACAD_REACTORS
330
638
102
}
330
638
100
AcDbXrecord
 10
0.0
 20
0.0
 30
0.0
  0
XRECORD
  5
653
102
{ACAD_REACTORS
330
638
102
}
330
638
100
AcDbXrecord
 10
0.0
 20
0.0
 30
0.0
  0
XRECORD
  5
656
102
{ACAD_REACTORS
330
638
102
}
330
638
100
AcDbXrecord
 10
0.0
 20
0.0
 30
0.0
  0
XRECORD
  5
654
102
{ACAD_REACTORS
330
638
102
}
330
638
100
AcDbXrecord
 10
0.0
 20
0.0
 30
0.0
  0
XRECORD
  5
655
102
{ACAD_REACTORS
330
638
102
}
330
638
100
AcDbXrecord
 10
0.0
 20
0.0
 30
0.0
  0
XRECORD
  5
652
102
{ACAD_REACTORS
330
638
102
}
330
638
100
AcDbXrecord
 10
0.0
 20
0.0
 30
0.0
  0
XRECORD
  5
64F
102
{ACAD_REACTORS
330
638
102
}
330
638
100
AcDbXrecord
340
0
  0
XRECORD
  5
650
102
{ACAD_REACTORS
330
638
102
}
330
638
100
AcDbXrecord
 70
     0
  0
XRECORD
  5
644
102
{ACAD_REACTORS
330
638
102
}
330
638
100
AcDbXrecord
  1
{FAEB1C32-E019-11D5-929B-00C0DF256EC4}
  0
DICTIONARYVAR
  5
666
102
{ACAD_REACTORS
330
659
102
}
330
659
100
DictionaryVariables
280
     0
  1
1:1
  0
DICTIONARYVAR
  5
660
102
{ACAD_REACTORS
330
659
102
}
330
659
100
DictionaryVariables
280
     0
  1
3.500000
  0
DICTIONARYVAR
  5
661
102
{ACAD_REACTORS
330
659
102
}
330
659
100
DictionaryVariables
280
     0
  1
acadiso.lin
  0
DICTIONARYVAR
  5
65B
102
{ACAD_REACTORS
330
659
102
}
330
659
100
DictionaryVariables
280
     0
  1
Standard
  0
DICTIONARYVAR
  5
65A
102
{ACAD_REACTORS
330
659
102
}
330
659
100
DictionaryVariables
280
     0
  1
Standard
  0
DICTIONARYVAR
  5
662
102
{ACAD_REACTORS
330
659
102
}
330
659
100
DictionaryVariables
280
     0
  1
2
  0
DICTIONARYVAR
  5
663
102
{ACAD_REACTORS
330
659
102
}
330
659
100
DictionaryVariables
280
     0
  1
1
  0
DICTIONARYVAR
  5
667
102
{ACAD_REACTORS
330
659
102
}
330
659
100
DictionaryVariables
280
     0
  1
1
  0
DICTIONARYVAR
  5
65D
102
{ACAD_REACTORS
330
659
102
}
330
659
100
DictionaryVariables
280
     0
  1
80.000000
  0
DICTIONARYVAR
  5
65C
102
{ACAD_REACTORS
330
659
102
}
330
659
100
DictionaryVariables
280
     0
  1
5.000000
  0
DICTIONARY
  5
66A
330
45
100
AcDbDictionary
280
     1
  3
ACAD_XREC_ROUNDTRIP
360
66B
  0
DICTIONARY
  5
668
330
44
100
AcDbDictionary
280
     1
  3
ACAD_XREC_ROUNDTRIP
360
669
  0
DICTIONARY
  5
66C
330
46
100
AcDbDictionary
280
     1
  3
ACAD_XREC_ROUNDTRIP
360
66D
  0
XRECORD
  5
66B
102
{ACAD_REACTORS
330
66A
102
}
330
66A
100
AcDbXrecord
102
MATERIAL
148
0.0
149
0.0
149
0.0
 93
        0
 94
      127
282
     0
 72
     1
 77
     1
171
     1
175
     1
179
     1
273
     0
  0
XRECORD
  5
669
102
{ACAD_REACTORS
330
668
102
}
330
668
100
AcDbXrecord
102
MATERIAL
148
0.0
149
0.0
149
0.0
 93
        0
 94
      127
282
     0
 72
     1
 77
     1
171
     1
175
     1
179
     1
273
     0
  0
XRECORD
  5
66D
102
{ACAD_REACTORS
330
66C
102
}
330
66C
100
AcDbXrecord
102
MATERIAL
148
0.0
149
0.0
149
0.0
 93
        0
 94
      127
282
     0
 72
     1
 77
     1
171
     1
175
     1
179
     1
273
     0
  0
ENDSEC
  0
EOF
