  0
SECTION
  2
HEADER
  9
$ACADVER
  1
AC1014
  9
$ACADMAINTVER
 70
     9
  9
$DWGCODEPAGE
  3
ANSI_932
  9
$INSBASE
 10
0.0
 20
0.0
 30
0.0
  9
$EXTMIN
 10
48.0
 20
40.0
 30
0.0
  9
$EXTMAX
 10
2328.0
 20
1640.0
 30
0.0
  9
$LIMMIN
 10
0.0
 20
0.0
  9
$LIMMAX
 10
594.0
 20
420.0
  9
$ORTHOMODE
 70
     0
  9
$REGENMODE
 70
     1
  9
$FILLMODE
 70
     1
  9
$QTEXTMODE
 70
     0
  9
$MIRRTEXT
 70
     1
  9
$DRAGMODE
 70
     2
  9
$LTSCALE
 40
1.0
  9
$OSMODE
 70
    37
  9
$ATTMODE
 70
     1
  9
$TEXTSIZE
 40
2.5
  9
$TRACEWID
 40
1.0
  9
$TEXTSTYLE
  7
STANDARD
  9
$CLAYER
  8
調整材穴有475_492_502_
  9
$CELTYPE
  6
BYLAYER
  9
$CECOLOR
 62
   256
  9
$CELTSCALE
 40
1.0
  9
$DELOBJ
 70
     1
  9
$DISPSILH
 70
     0
  9
$DIMSCALE
 40
1.0
  9
$DIMASZ
 40
2.5
  9
$DIMEXO
 40
0.625
  9
$DIMDLI
 40
3.75
  9
$DIMRND
 40
0.0
  9
$DIMDLE
 40
0.0
  9
$DIMEXE
 40
1.25
  9
$DIMTP
 40
0.0
  9
$DIMTM
 40
0.0
  9
$DIMTXT
 40
2.5
  9
$DIMCEN
 40
2.5
  9
$DIMTSZ
 40
0.0
  9
$DIMTOL
 70
     0
  9
$DIMLIM
 70
     0
  9
$DIMTIH
 70
     0
  9
$DIMTOH
 70
     0
  9
$DIMSE1
 70
     0
  9
$DIMSE2
 70
     0
  9
$DIMTAD
 70
     1
  9
$DIMZIN
 70
     8
  9
$DIMBLK
  1

  9
$DIMASO
 70
     1
  9
$DIMSHO
 70
     1
  9
$DIMPOST
  1

  9
$DIMAPOST
  1

  9
$DIMALT
 70
     0
  9
$DIMALTD
 70
     3
  9
$DIMALTF
 40
0.03937007874016
  9
$DIMLFAC
 40
1.0
  9
$DIMTOFL
 70
     1
  9
$DIMTVP
 40
0.0
  9
$DIMTIX
 70
     0
  9
$DIMSOXD
 70
     0
  9
$DIMSAH
 70
     0
  9
$DIMBLK1
  1

  9
$DIMBLK2
  1

  9
$DIMSTYLE
  2
ISO-25
  9
$DIMCLRD
 70
     0
  9
$DIMCLRE
 70
     0
  9
$DIMCLRT
 70
     0
  9
$DIMTFAC
 40
1.0
  9
$DIMGAP
 40
0.625
  9
$DIMJUST
 70
     0
  9
$DIMSD1
 70
     0
  9
$DIMSD2
 70
     0
  9
$DIMTOLJ
 70
     0
  9
$DIMTZIN
 70
     8
  9
$DIMALTZ
 70
     0
  9
$DIMALTTZ
 70
     0
  9
$DIMFIT
 70
     3
  9
$DIMUPT
 70
     0
  9
$DIMUNIT
 70
     2
  9
$DIMDEC
 70
     2
  9
$DIMTDEC
 70
     2
  9
$DIMALTU
 70
     2
  9
$DIMALTTD
 70
     3
  9
$DIMTXSTY
  7
STANDARD
  9
$DIMAUNIT
 70
     0
  9
$LUNITS
 70
     2
  9
$LUPREC
 70
     4
  9
$SKETCHINC
 40
1.0
  9
$FILLETRAD
 40
10.0
  9
$AUNITS
 70
     0
  9
$AUPREC
 70
     0
  9
$MENU
  1
.
  9
$ELEVATION
 40
0.0
  9
$PELEVATION
 40
0.0
  9
$THICKNESS
 40
0.0
  9
$LIMCHECK
 70
     0
  9
$CHAMFERA
 40
0.0
  9
$CHAMFERB
 40
0.0
  9
$CHAMFERC
 40
0.0
  9
$CHAMFERD
 40
0.0
  9
$SKPOLY
 70
     0
  9
$TDCREATE
 40
2457806.65879434
  9
$TDUPDATE
 40
2457806.65879463
  9
$TDINDWG
 40
0.0000000116
  9
$TDUSRTIMER
 40
0.0000000116
  9
$USRTIMER
 70
     1
  9
$ANGBASE
 50
0.0
  9
$ANGDIR
 70
     0
  9
$PDMODE
 70
     0
  9
$PDSIZE
 40
0.0
  9
$PLINEWID
 40
0.0
  9
$COORDS
 70
     1
  9
$SPLFRAME
 70
     0
  9
$SPLINETYPE
 70
     6
  9
$SPLINESEGS
 70
     8
  9
$ATTDIA
 70
     0
  9
$ATTREQ
 70
     1
  9
$HANDLING
 70
     1
  9
$HANDSEED
  5
6C5
  9
$SURFTAB1
 70
     6
  9
$SURFTAB2
 70
     6
  9
$SURFTYPE
 70
     6
  9
$SURFU
 70
     6
  9
$SURFV
 70
     6
  9
$UCSNAME
  2

  9
$UCSORG
 10
0.0
 20
0.0
 30
0.0
  9
$UCSXDIR
 10
1.0
 20
0.0
 30
0.0
  9
$UCSYDIR
 10
0.0
 20
1.0
 30
0.0
  9
$PUCSNAME
  2

  9
$PUCSORG
 10
0.0
 20
0.0
 30
0.0
  9
$PUCSXDIR
 10
1.0
 20
0.0
 30
0.0
  9
$PUCSYDIR
 10
0.0
 20
1.0
 30
0.0
  9
$USERI1
 70
     0
  9
$USERI2
 70
     0
  9
$USERI3
 70
     0
  9
$USERI4
 70
     0
  9
$USERI5
 70
     0
  9
$USERR1
 40
0.0
  9
$USERR2
 40
0.0
  9
$USERR3
 40
0.0
  9
$USERR4
 40
0.0
  9
$USERR5
 40
0.0
  9
$WORLDVIEW
 70
     1
  9
$SHADEDGE
 70
     3
  9
$SHADEDIF
 70
    70
  9
$TILEMODE
 70
     1
  9
$MAXACTVP
 70
    64
  9
$PINSBASE
 10
0.0
 20
0.0
 30
0.0
  9
$PLIMCHECK
 70
     0
  9
$PEXTMIN
 10
1.000000000000000E+20
 20
1.000000000000000E+20
 30
1.000000000000000E+20
  9
$PEXTMAX
 10
-1.000000000000000E+20
 20
-1.000000000000000E+20
 30
-1.000000000000000E+20
  9
$PLIMMIN
 10
0.0
 20
0.0
  9
$PLIMMAX
 10
420.0
 20
297.0
  9
$UNITMODE
 70
     0
  9
$VISRETAIN
 70
     1
  9
$PLINEGEN
 70
     0
  9
$PSLTSCALE
 70
     1
  9
$TREEDEPTH
 70
  3020
  9
$PICKSTYLE
 70
     1
  9
$CMLSTYLE
  2
STANDARD
  9
$CMLJUST
 70
     0
  9
$CMLSCALE
 40
20.0
  9
$PROXYGRAPHICS
 70
     1
  9
$MEASUREMENT
 70
     1
  0
ENDSEC
  0
SECTION
  2
CLASSES
  0
CLASS
  1
ACDBDICTIONARYWDFLT
  2
AcDbDictionaryWithDefault
  3
ObjectDBX Classes
 90
        0
280
     0
281
     0
  0
CLASS
  1
VISUALSTYLE
  2
AcDbVisualStyle
  3
ObjectDBX Classes
 90
     4095
280
     0
281
     0
  0
CLASS
  1
MATERIAL
  2
AcDbMaterial
  3
ObjectDBX Classes
 90
     1153
280
     0
281
     0
  0
CLASS
  1
SCALE
  2
AcDbScale
  3
ObjectDBX Classes
 90
     1153
280
     0
281
     0
  0
CLASS
  1
TABLESTYLE
  2
AcDbTableStyle
  3
ObjectDBX Classes
 90
     4095
280
     0
281
     0
  0
CLASS
  1
MLEADERSTYLE
  2
AcDbMLeaderStyle
  3
ACDB_MLEADERSTYLE_CLASS
 90
     4095
280
     0
281
     0
  0
CLASS
  1
SUN
  2
AcDbSun
  3
SCENEOE
 90
     1153
280
     0
281
     0
  0
CLASS
  1
DICTIONARYVAR
  2
AcDbDictionaryVar
  3
ObjectDBX Classes
 90
        0
280
     0
281
     0
  0
CLASS
  1
XRECORD
  2
AcDbXrecord
  3
ObjectDBX Classes
 90
        0
280
     0
281
     0
  0
CLASS
  1
LWPOLYLINE
  2
AcDbPolyline
  3
ObjectDBX Classes
 90
        0
280
     0
281
     1
  0
CLASS
  1
HATCH
  2
AcDbHatch
  3
ObjectDBX Classes
 90
        0
280
     0
281
     1
  0
CLASS
  1
ACDBPLACEHOLDER
  2
AcDbPlaceHolder
  3
ObjectDBX Classes
 90
        0
280
     0
281
     0
  0
CLASS
  1
LAYOUT
  2
AcDbLayout
  3
ObjectDBX Classes
 90
        0
280
     0
281
     0
  0
ENDSEC
  0
SECTION
  2
TABLES
  0
TABLE
  2
VPORT
  5
8
102
{ACAD_XDICTIONARY
360
6BA
102
}
330
0
100
AcDbSymbolTable
 70
     1
  0
VPORT
  5
29
330
8
100
AcDbSymbolTableRecord
100
AcDbViewportTableRecord
  2
*ACTIVE
 70
     0
 10
0.0
 20
0.0
 11
1.0
 21
1.0
 12
1188.0
 22
840.0
 13
0.0
 23
0.0
 14
10.0
 24
10.0
 15
10.0
 25
10.0
 16
0.0
 26
0.0
 36
1.0
 17
0.0
 27
0.0
 37
0.0
 40
1600.0
 41
1.425
 42
50.0
 43
0.0
 44
0.0
 50
0.0
 51
0.0
 71
     0
 72
  1000
 73
     1
 74
     3
 75
     0
 76
     0
 77
     0
 78
     0
  0
ENDTAB
  0
TABLE
  2
LTYPE
  5
5
330
0
100
AcDbSymbolTable
 70
     7
  0
LTYPE
  5
14
330
5
100
AcDbSymbolTableRecord
100
AcDbLinetypeTableRecord
  2
BYBLOCK
 70
     0
  3

 72
    65
 73
     0
 40
0.0
  0
LTYPE
  5
15
330
5
100
AcDbSymbolTableRecord
100
AcDbLinetypeTableRecord
  2
BYLAYER
 70
     0
  3

 72
    65
 73
     0
 40
0.0
  0
LTYPE
  5
16
330
5
100
AcDbSymbolTableRecord
100
AcDbLinetypeTableRecord
  2
CONTINUOUS
 70
     0
  3
Solid line
 72
    65
 73
     0
 40
0.0
  0
LTYPE
  5
6E
330
5
100
AcDbSymbolTableRecord
100
AcDbLinetypeTableRecord
  2
EXLTYPE0
 70
     0
  3
破線
 72
    65
 73
     2
 40
4.0
 49
3.0
 74
     0
 49
-1.0
 74
     0
  0
LTYPE
  5
6F
330
5
100
AcDbSymbolTableRecord
100
AcDbLinetypeTableRecord
  2
EXLTYPE1
 70
     0
  3
点線
 72
    65
 73
     2
 40
2.0
 49
1.0
 74
     0
 49
-1.0
 74
     0
  0
LTYPE
  5
70
330
5
100
AcDbSymbolTableRecord
100
AcDbLinetypeTableRecord
  2
EXLTYPE2
 70
     0
  3
一点鎖線
 72
    65
 73
     4
 40
33.0
 49
30.0
 74
     0
 49
-1.0
 74
     0
 49
1.0
 74
     0
 49
-1.0
 74
     0
  0
LTYPE
  5
71
330
5
100
AcDbSymbolTableRecord
100
AcDbLinetypeTableRecord
  2
EXLTYPE3
 70
     0
  3
二点鎖線
 72
    65
 73
     6
 40
35.0
 49
30.0
 74
     0
 49
-1.0
 74
     0
 49
1.0
 74
     0
 49
-1.0
 74
     0
 49
1.0
 74
     0
 49
-1.0
 74
     0
  0
LTYPE
  5
72
330
5
100
AcDbSymbolTableRecord
100
AcDbLinetypeTableRecord
  2
EXLTYPE4
 70
     0
  3
三点鎖線
 72
    65
 73
     8
 40
37.0
 49
30.0
 74
     0
 49
-1.0
 74
     0
 49
1.0
 74
     0
 49
-1.0
 74
     0
 49
1.0
 74
     0
 49
-1.0
 74
     0
 49
1.0
 74
     0
 49
-1.0
 74
     0
  0
LTYPE
  5
73
330
5
100
AcDbSymbolTableRecord
100
AcDbLinetypeTableRecord
  2
EXLTYPE5
 70
     0
  3
四点鎖線
 72
    65
 73
    10
 40
39.0
 49
30.0
 74
     0
 49
-1.0
 74
     0
 49
1.0
 74
     0
 49
-1.0
 74
     0
 49
1.0
 74
     0
 49
-1.0
 74
     0
 49
1.0
 74
     0
 49
-1.0
 74
     0
 49
1.0
 74
     0
 49
-1.0
 74
     0
  0
ENDTAB
  0
TABLE
  2
LAYER
  5
2
330
0
100
AcDbSymbolTable
 70
     3
  0
LAYER
  5
10
330
2
100
AcDbSymbolTableRecord
100
AcDbLayerTableRecord
  2
0
 70
     0
 62
     7
  6
CONTINUOUS
  0
LAYER
  5
76
330
2
100
AcDbSymbolTableRecord
100
AcDbLayerTableRecord
  2
調整材穴有475_492_502_
 70
     0
 62
     7
  6
CONTINUOUS
  0
LAYER
  5
109
330
2
100
AcDbSymbolTableRecord
100
AcDbLayerTableRecord
  2
DEFPOINTS
 70
     0
 62
     7
  6
CONTINUOUS
  0
ENDTAB
  0
TABLE
  2
STYLE
  5
3
330
0
100
AcDbSymbolTable
 70
     4
  0
STYLE
  5
11
330
3
100
AcDbSymbolTableRecord
100
AcDbTextStyleTableRecord
  2
STANDARD
 70
     0
 40
0.0
 41
1.0
 50
0.0
 71
     0
 42
2.5
  3
monotxt
  4
extfont
  0
STYLE
  5
74
330
3
100
AcDbSymbolTableRecord
100
AcDbTextStyleTableRecord
  2
EXCADSTD
 70
     0
 40
0.0
 41
1.0
 50
0.0
 71
     0
 42
2.5
  3
monotxt
  4
extfont
  0
STYLE
  5
75
330
3
100
AcDbSymbolTableRecord
100
AcDbTextStyleTableRecord
  2
EXCADVERT
 70
     4
 40
0.0
 41
1.0
 50
0.0
 71
     0
 42
2.5
  3
monotxt
  4
extfont
  0
STYLE
  5
107
330
3
100
AcDbSymbolTableRecord
100
AcDbTextStyleTableRecord
  2
EXCADDIM1
 70
     0
 40
0.0
 41
0.84
 50
0.0
 71
     0
 42
2.5
  3
monotxt
  4
extfont
  0
ENDTAB
  0
TABLE
  2
VIEW
  5
6
330
0
100
AcDbSymbolTable
 70
     0
  0
ENDTAB
  0
TABLE
  2
UCS
  5
7
330
0
100
AcDbSymbolTable
 70
     0
  0
ENDTAB
  0
TABLE
  2
APPID
  5
9
330
0
100
AcDbSymbolTable
 70
     2
  0
APPID
  5
12
330
9
100
AcDbSymbolTableRecord
100
AcDbRegAppTableRecord
  2
ACAD
 70
     0
  0
APPID
  5
6C4
330
9
100
AcDbSymbolTableRecord
100
AcDbRegAppTableRecord
  2
ACAD_MLEADERVER
 70
     0
  0
ENDTAB
  0
TABLE
  2
DIMSTYLE
  5
A
330
0
100
AcDbSymbolTable
 70
     1
  0
DIMSTYLE
105
27
102
{ACAD_REACTORS
330
108
330
116
330
123
330
131
330
140
330
14F
330
15C
330
169
330
17F
330
18C
330
1AE
330
1BB
330
1C8
330
1D5
330
1E2
330
1EF
330
205
330
212
330
221
330
230
330
23B
330
248
330
25E
330
26A
330
276
330
281
330
28D
330
299
330
2EA
330
2F7
330
304
330
311
330
31E
330
32B
330
338
330
345
330
352
330
35F
330
36C
330
37A
330
391
330
3A1
330
3BF
330
3CC
102
}
330
A
100
AcDbSymbolTableRecord
100
AcDbDimStyleTableRecord
  2
ISO-25
 70
     0
  3

  4

  5

  6

  7

 40
1.0
 41
2.5
 42
0.625
 43
3.75
 44
1.25
 45
0.0
 46
0.0
 47
0.0
 48
0.0
140
2.5
141
2.5
142
0.0
143
0.03937007874016
144
1.0
145
0.0
146
1.0
147
0.625
 71
     0
 72
     0
 73
     0
 74
     0
 75
     0
 76
     0
 77
     1
 78
     8
170
     0
171
     3
172
     1
173
     0
174
     0
175
     0
176
     0
177
     0
178
     0
270
     2
271
     2
272
     2
273
     2
274
     3
340
11
275
     0
280
     0
281
     0
282
     0
283
     0
284
     8
285
     0
286
     0
287
     5
288
     0
  0
ENDTAB
  0
TABLE
  2
BLOCK_RECORD
  5
1
330
0
100
AcDbSymbolTable
 70
    59
  0
BLOCK_RECORD
  5
1F
330
1
100
AcDbSymbolTableRecord
100
AcDbBlockTableRecord
  2
*MODEL_SPACE
  0
BLOCK_RECORD
  5
1B
330
1
100
AcDbSymbolTableRecord
100
AcDbBlockTableRecord
  2
*PAPER_SPACE
  0
BLOCK_RECORD
  5
77
330
1
100
AcDbSymbolTableRecord
100
AcDbBlockTableRecord
  2
EX_NORM
  0
BLOCK_RECORD
  5
7A
330
1
100
AcDbSymbolTableRecord
100
AcDbBlockTableRecord
  2
EX_BNORM
  0
BLOCK_RECORD
  5
7D
330
1
100
AcDbSymbolTableRecord
100
AcDbBlockTableRecord
  2
EX_BCIR
  0
BLOCK_RECORD
  5
80
330
1
100
AcDbSymbolTableRecord
100
AcDbBlockTableRecord
  2
EX_RCIVIL
  0
BLOCK_RECORD
  5
83
330
1
100
AcDbSymbolTableRecord
100
AcDbBlockTableRecord
  2
EX_SLANT
  0
BLOCK_RECORD
  5
86
330
1
100
AcDbSymbolTableRecord
100
AcDbBlockTableRecord
  2
EX_NONE
  0
BLOCK_RECORD
  5
89
330
1
100
AcDbSymbolTableRecord
100
AcDbBlockTableRecord
  2
EX_CIVIL
  0
BLOCK_RECORD
  5
8C
330
1
100
AcDbSymbolTableRecord
100
AcDbBlockTableRecord
  2
EX_WCIR
  0
BLOCK_RECORD
  5
8F
330
1
100
AcDbSymbolTableRecord
100
AcDbBlockTableRecord
  2
EX_WCIR2
  0
BLOCK_RECORD
  5
92
330
1
100
AcDbSymbolTableRecord
100
AcDbBlockTableRecord
  2
EX_WNORM
  0
BLOCK_RECORD
  5
95
330
1
100
AcDbSymbolTableRecord
100
AcDbBlockTableRecord
  2
EX_NNORM
  0
BLOCK_RECORD
  5
98
330
1
100
AcDbSymbolTableRecord
100
AcDbBlockTableRecord
  2
EX_BBOX
  0
BLOCK_RECORD
  5
9B
330
1
100
AcDbSymbolTableRecord
100
AcDbBlockTableRecord
  2
EX_WBOX
  0
BLOCK_RECORD
  5
9E
330
1
100
AcDbSymbolTableRecord
100
AcDbBlockTableRecord
  2
EX_INTEGRAL
  0
BLOCK_RECORD
  5
10A
330
1
100
AcDbSymbolTableRecord
100
AcDbBlockTableRecord
  2
*D15
  0
BLOCK_RECORD
  5
117
330
1
100
AcDbSymbolTableRecord
100
AcDbBlockTableRecord
  2
*D16
  0
BLOCK_RECORD
  5
124
330
1
100
AcDbSymbolTableRecord
100
AcDbBlockTableRecord
  2
*D17
  0
BLOCK_RECORD
  5
132
330
1
100
AcDbSymbolTableRecord
100
AcDbBlockTableRecord
  2
*D18
  0
BLOCK_RECORD
  5
141
330
1
100
AcDbSymbolTableRecord
100
AcDbBlockTableRecord
  2
*D19
  0
BLOCK_RECORD
  5
150
330
1
100
AcDbSymbolTableRecord
100
AcDbBlockTableRecord
  2
*D20
  0
BLOCK_RECORD
  5
15D
330
1
100
AcDbSymbolTableRecord
100
AcDbBlockTableRecord
  2
*D21
  0
BLOCK_RECORD
  5
16A
330
1
100
AcDbSymbolTableRecord
100
AcDbBlockTableRecord
  2
*D22
  0
BLOCK_RECORD
  5
180
330
1
100
AcDbSymbolTableRecord
100
AcDbBlockTableRecord
  2
*D23
  0
BLOCK_RECORD
  5
18D
330
1
100
AcDbSymbolTableRecord
100
AcDbBlockTableRecord
  2
*D24
  0
BLOCK_RECORD
  5
1AF
330
1
100
AcDbSymbolTableRecord
100
AcDbBlockTableRecord
  2
*D25
  0
BLOCK_RECORD
  5
1BC
330
1
100
AcDbSymbolTableRecord
100
AcDbBlockTableRecord
  2
*D26
  0
BLOCK_RECORD
  5
1C9
330
1
100
AcDbSymbolTableRecord
100
AcDbBlockTableRecord
  2
*D27
  0
BLOCK_RECORD
  5
1D6
330
1
100
AcDbSymbolTableRecord
100
AcDbBlockTableRecord
  2
*D28
  0
BLOCK_RECORD
  5
1E3
330
1
100
AcDbSymbolTableRecord
100
AcDbBlockTableRecord
  2
*D29
  0
BLOCK_RECORD
  5
1F0
330
1
100
AcDbSymbolTableRecord
100
AcDbBlockTableRecord
  2
*D30
  0
BLOCK_RECORD
  5
206
330
1
100
AcDbSymbolTableRecord
100
AcDbBlockTableRecord
  2
*D31
  0
BLOCK_RECORD
  5
213
330
1
100
AcDbSymbolTableRecord
100
AcDbBlockTableRecord
  2
*D32
  0
BLOCK_RECORD
  5
222
330
1
100
AcDbSymbolTableRecord
100
AcDbBlockTableRecord
  2
*D33
  0
BLOCK_RECORD
  5
231
330
1
100
AcDbSymbolTableRecord
100
AcDbBlockTableRecord
  2
*D34
  0
BLOCK_RECORD
  5
23C
330
1
100
AcDbSymbolTableRecord
100
AcDbBlockTableRecord
  2
*D35
  0
BLOCK_RECORD
  5
249
330
1
100
AcDbSymbolTableRecord
100
AcDbBlockTableRecord
  2
*D36
  0
BLOCK_RECORD
  5
25F
330
1
100
AcDbSymbolTableRecord
100
AcDbBlockTableRecord
  2
*D37
  0
BLOCK_RECORD
  5
26B
330
1
100
AcDbSymbolTableRecord
100
AcDbBlockTableRecord
  2
*D38
  0
BLOCK_RECORD
  5
277
330
1
100
AcDbSymbolTableRecord
100
AcDbBlockTableRecord
  2
*D39
  0
BLOCK_RECORD
  5
282
330
1
100
AcDbSymbolTableRecord
100
AcDbBlockTableRecord
  2
*D40
  0
BLOCK_RECORD
  5
28E
330
1
100
AcDbSymbolTableRecord
100
AcDbBlockTableRecord
  2
*D41
  0
BLOCK_RECORD
  5
29A
330
1
100
AcDbSymbolTableRecord
100
AcDbBlockTableRecord
  2
*D42
  0
BLOCK_RECORD
  5
2EB
330
1
100
AcDbSymbolTableRecord
100
AcDbBlockTableRecord
  2
*D43
  0
BLOCK_RECORD
  5
2F8
330
1
100
AcDbSymbolTableRecord
100
AcDbBlockTableRecord
  2
*D44
  0
BLOCK_RECORD
  5
305
330
1
100
AcDbSymbolTableRecord
100
AcDbBlockTableRecord
  2
*D45
  0
BLOCK_RECORD
  5
312
330
1
100
AcDbSymbolTableRecord
100
AcDbBlockTableRecord
  2
*D46
  0
BLOCK_RECORD
  5
31F
330
1
100
AcDbSymbolTableRecord
100
AcDbBlockTableRecord
  2
*D47
  0
BLOCK_RECORD
  5
32C
330
1
100
AcDbSymbolTableRecord
100
AcDbBlockTableRecord
  2
*D48
  0
BLOCK_RECORD
  5
339
330
1
100
AcDbSymbolTableRecord
100
AcDbBlockTableRecord
  2
*D49
  0
BLOCK_RECORD
  5
346
330
1
100
AcDbSymbolTableRecord
100
AcDbBlockTableRecord
  2
*D50
  0
BLOCK_RECORD
  5
353
330
1
100
AcDbSymbolTableRecord
100
AcDbBlockTableRecord
  2
*D51
  0
BLOCK_RECORD
  5
360
330
1
100
AcDbSymbolTableRecord
100
AcDbBlockTableRecord
  2
*D52
  0
BLOCK_RECORD
  5
36D
330
1
100
AcDbSymbolTableRecord
100
AcDbBlockTableRecord
  2
*D53
  0
BLOCK_RECORD
  5
37B
330
1
100
AcDbSymbolTableRecord
100
AcDbBlockTableRecord
  2
*D54
  0
BLOCK_RECORD
  5
392
330
1
100
AcDbSymbolTableRecord
100
AcDbBlockTableRecord
  2
*D55
  0
BLOCK_RECORD
  5
3A2
330
1
100
AcDbSymbolTableRecord
100
AcDbBlockTableRecord
  2
*D56
  0
BLOCK_RECORD
  5
3C0
330
1
100
AcDbSymbolTableRecord
100
AcDbBlockTableRecord
  2
*D57
  0
BLOCK_RECORD
  5
3CD
330
1
100
AcDbSymbolTableRecord
100
AcDbBlockTableRecord
  2
*D58
  0
ENDTAB
  0
ENDSEC
  0
SECTION
  2
BLOCKS
  0
BLOCK
  5
20
330
1F
100
AcDbEntity
  8
0
100
AcDbBlockBegin
  2
*MODEL_SPACE
 70
     0
 10
0.0
 20
0.0
 30
0.0
  3
*MODEL_SPACE
  1

  0
ENDBLK
  5
21
330
1F
100
AcDbEntity
  8
0
100
AcDbBlockEnd
  0
BLOCK
  5
1C
330
1B
100
AcDbEntity
 67
     1
  8
0
100
AcDbBlockBegin
  2
*PAPER_SPACE
 70
     0
 10
0.0
 20
0.0
 30
0.0
  3
*PAPER_SPACE
  1

  0
ENDBLK
  5
1D
330
1B
100
AcDbEntity
 67
     1
  8
0
100
AcDbBlockEnd
  0
BLOCK
  5
78
330
77
100
AcDbEntity
  8
0
100
AcDbBlockBegin
  2
EX_NORM
 70
     0
 10
0.0
 20
0.0
 30
0.0
  3
EX_NORM
  1

  0
LINE
  5
A1
330
77
100
AcDbEntity
  8
0
  6
CONTINUOUS
 62
     0
100
AcDbLine
 10
0.0
 20
0.0
 30
0.0
 11
-1.0
 21
0.0
 31
0.0
  0
LINE
  5
A2
330
77
100
AcDbEntity
  8
0
  6
CONTINUOUS
 62
     0
100
AcDbLine
 10
0.0
 20
0.0
 30
0.0
 11
-1.0
 21
0.166666667
 31
0.0
  0
LINE
  5
A3
330
77
100
AcDbEntity
  8
0
  6
CONTINUOUS
 62
     0
100
AcDbLine
 10
0.0
 20
0.0
 30
0.0
 11
-1.0
 21
-0.166666667
 31
0.0
  0
ENDBLK
  5
79
330
77
100
AcDbEntity
  8
0
100
AcDbBlockEnd
  0
BLOCK
  5
7B
330
7A
100
AcDbEntity
  8
0
100
AcDbBlockBegin
  2
EX_BNORM
 70
     0
 10
0.0
 20
0.0
 30
0.0
  3
EX_BNORM
  1

  0
LINE
  5
A4
330
7A
100
AcDbEntity
  8
0
  6
CONTINUOUS
 62
     0
100
AcDbLine
 10
0.0
 20
0.0
 30
0.0
 11
-1.0
 21
0.0
 31
0.0
  0
LINE
  5
A5
330
7A
100
AcDbEntity
  8
0
  6
CONTINUOUS
 62
     0
100
AcDbLine
 10
0.0
 20
0.0
 30
0.0
 11
-1.0
 21
0.166666667
 31
0.0
  0
LINE
  5
A6
330
7A
100
AcDbEntity
  8
0
  6
CONTINUOUS
 62
     0
100
AcDbLine
 10
0.0
 20
0.0
 30
0.0
 11
-1.0
 21
-0.166666667
 31
0.0
  0
LINE
  5
A7
330
7A
100
AcDbEntity
  8
0
  6
CONTINUOUS
 62
     0
100
AcDbLine
 10
0.0
 20
0.0
 30
0.0
 11
-1.0
 21
0.083333333
 31
0.0
  0
LINE
  5
A8
330
7A
100
AcDbEntity
  8
0
  6
CONTINUOUS
 62
     0
100
AcDbLine
 10
0.0
 20
0.0
 30
0.0
 11
-1.0
 21
-0.083333333
 31
0.0
  0
LINE
  5
A9
330
7A
100
AcDbEntity
  8
0
  6
CONTINUOUS
 62
     0
100
AcDbLine
 10
-1.0
 20
0.166666667
 30
0.0
 11
-1.0
 21
-0.166666667
 31
0.0
  0
ENDBLK
  5
7C
330
7A
100
AcDbEntity
  8
0
100
AcDbBlockEnd
  0
BLOCK
  5
7E
330
7D
100
AcDbEntity
  8
0
100
AcDbBlockBegin
  2
EX_BCIR
 70
     0
 10
0.0
 20
0.0
 30
0.0
  3
EX_BCIR
  1

  0
LINE
  5
AA
330
7D
100
AcDbEntity
  8
0
  6
CONTINUOUS
 62
     0
100
AcDbLine
 10
0.0
 20
0.0
 30
0.0
 11
-1.0
 21
0.0
 31
0.0
  0
CIRCLE
  5
AB
330
7D
100
AcDbEntity
  8
0
  6
CONTINUOUS
 62
     0
100
AcDbCircle
 10
0.0
 20
0.0
 30
0.0
 40
0.5
  0
CIRCLE
  5
AC
330
7D
100
AcDbEntity
  8
0
  6
CONTINUOUS
 62
     0
100
AcDbCircle
 10
0.0
 20
0.0
 30
0.0
 40
0.25
  0
ENDBLK
  5
7F
330
7D
100
AcDbEntity
  8
0
100
AcDbBlockEnd
  0
BLOCK
  5
81
330
80
100
AcDbEntity
  8
0
100
AcDbBlockBegin
  2
EX_RCIVIL
 70
     0
 10
0.0
 20
0.0
 30
0.0
  3
EX_RCIVIL
  1

  0
LINE
  5
AD
330
80
100
AcDbEntity
  8
0
  6
CONTINUOUS
 62
     0
100
AcDbLine
 10
0.0
 20
0.0
 30
0.0
 11
-1.0
 21
0.0
 31
0.0
  0
LINE
  5
AE
330
80
100
AcDbEntity
  8
0
  6
CONTINUOUS
 62
     0
100
AcDbLine
 10
-1.0
 20
-0.25
 30
0.0
 11
0.0
 21
-0.25
 31
0.0
  0
LINE
  5
AF
330
80
100
AcDbEntity
  8
0
  6
CONTINUOUS
 62
     0
100
AcDbLine
 10
-1.0
 20
-0.125
 30
0.0
 11
0.0
 21
-0.125
 31
0.0
  0
ENDBLK
  5
82
330
80
100
AcDbEntity
  8
0
100
AcDbBlockEnd
  0
BLOCK
  5
84
330
83
100
AcDbEntity
  8
0
100
AcDbBlockBegin
  2
EX_SLANT
 70
     0
 10
0.0
 20
0.0
 30
0.0
  3
EX_SLANT
  1

  0
LINE
  5
B0
330
83
100
AcDbEntity
  8
0
  6
CONTINUOUS
 62
     0
100
AcDbLine
 10
0.0
 20
0.0
 30
0.0
 11
-1.0
 21
0.0
 31
0.0
  0
LINE
  5
B1
330
83
100
AcDbEntity
  8
0
  6
CONTINUOUS
 62
     0
100
AcDbLine
 10
0.707106781
 20
0.707106781
 30
0.0
 11
-0.707106781
 21
-0.707106781
 31
0.0
  0
ENDBLK
  5
85
330
83
100
AcDbEntity
  8
0
100
AcDbBlockEnd
  0
BLOCK
  5
87
330
86
100
AcDbEntity
  8
0
100
AcDbBlockBegin
  2
EX_NONE
 70
     0
 10
0.0
 20
0.0
 30
0.0
  3
EX_NONE
  1

  0
LINE
  5
B2
330
86
100
AcDbEntity
  8
0
  6
CONTINUOUS
 62
     0
100
AcDbLine
 10
0.0
 20
0.0
 30
0.0
 11
-1.0
 21
0.0
 31
0.0
  0
ENDBLK
  5
88
330
86
100
AcDbEntity
  8
0
100
AcDbBlockEnd
  0
BLOCK
  5
8A
330
89
100
AcDbEntity
  8
0
100
AcDbBlockBegin
  2
EX_CIVIL
 70
     0
 10
0.0
 20
0.0
 30
0.0
  3
EX_CIVIL
  1

  0
LINE
  5
B3
330
89
100
AcDbEntity
  8
0
  6
CONTINUOUS
 62
     0
100
AcDbLine
 10
0.0
 20
0.0
 30
0.0
 11
-1.0
 21
0.0
 31
0.0
  0
LINE
  5
B4
330
89
100
AcDbEntity
  8
0
  6
CONTINUOUS
 62
     0
100
AcDbLine
 10
-1.0
 20
0.25
 30
0.0
 11
0.0
 21
0.25
 31
0.0
  0
LINE
  5
B5
330
89
100
AcDbEntity
  8
0
  6
CONTINUOUS
 62
     0
100
AcDbLine
 10
-1.0
 20
0.125
 30
0.0
 11
0.0
 21
0.125
 31
0.0
  0
ENDBLK
  5
8B
330
89
100
AcDbEntity
  8
0
100
AcDbBlockEnd
  0
BLOCK
  5
8D
330
8C
100
AcDbEntity
  8
0
100
AcDbBlockBegin
  2
EX_WCIR
 70
     0
 10
0.0
 20
0.0
 30
0.0
  3
EX_WCIR
  1

  0
LINE
  5
B6
330
8C
100
AcDbEntity
  8
0
  6
CONTINUOUS
 62
     0
100
AcDbLine
 10
0.0
 20
0.0
 30
0.0
 11
-1.0
 21
0.0
 31
0.0
  0
CIRCLE
  5
B7
330
8C
100
AcDbEntity
  8
0
  6
CONTINUOUS
 62
     0
100
AcDbCircle
 10
0.0
 20
0.0
 30
0.0
 40
0.5
  0
ENDBLK
  5
8E
330
8C
100
AcDbEntity
  8
0
100
AcDbBlockEnd
  0
BLOCK
  5
90
330
8F
100
AcDbEntity
  8
0
100
AcDbBlockBegin
  2
EX_WCIR2
 70
     0
 10
0.0
 20
0.0
 30
0.0
  3
EX_WCIR2
  1

  0
LINE
  5
B8
330
8F
100
AcDbEntity
  8
0
  6
CONTINUOUS
 62
     0
100
AcDbLine
 10
-0.5
 20
0.0
 30
0.0
 11
-1.0
 21
0.0
 31
0.0
  0
CIRCLE
  5
B9
330
8F
100
AcDbEntity
  8
0
  6
CONTINUOUS
 62
     0
100
AcDbCircle
 10
0.0
 20
0.0
 30
0.0
 40
0.5
  0
ENDBLK
  5
91
330
8F
100
AcDbEntity
  8
0
100
AcDbBlockEnd
  0
BLOCK
  5
93
330
92
100
AcDbEntity
  8
0
100
AcDbBlockBegin
  2
EX_WNORM
 70
     0
 10
0.0
 20
0.0
 30
0.0
  3
EX_WNORM
  1

  0
LINE
  5
BA
330
92
100
AcDbEntity
  8
0
  6
CONTINUOUS
 62
     0
100
AcDbLine
 10
-1.0
 20
0.0
 30
0.0
 11
-1.0
 21
0.0
 31
0.0
  0
LINE
  5
BB
330
92
100
AcDbEntity
  8
0
  6
CONTINUOUS
 62
     0
100
AcDbLine
 10
0.0
 20
0.0
 30
0.0
 11
-1.0
 21
0.166666667
 31
0.0
  0
LINE
  5
BC
330
92
100
AcDbEntity
  8
0
  6
CONTINUOUS
 62
     0
100
AcDbLine
 10
0.0
 20
0.0
 30
0.0
 11
-1.0
 21
-0.166666667
 31
0.0
  0
LINE
  5
BD
330
92
100
AcDbEntity
  8
0
  6
CONTINUOUS
 62
     0
100
AcDbLine
 10
-1.0
 20
0.166666667
 30
0.0
 11
-1.0
 21
-0.166666667
 31
0.0
  0
ENDBLK
  5
94
330
92
100
AcDbEntity
  8
0
100
AcDbBlockEnd
  0
BLOCK
  5
96
330
95
100
AcDbEntity
  8
0
100
AcDbBlockBegin
  2
EX_NNORM
 70
     0
 10
0.0
 20
0.0
 30
0.0
  3
EX_NNORM
  1

  0
LINE
  5
BE
330
95
100
AcDbEntity
  8
0
  6
CONTINUOUS
 62
     0
100
AcDbLine
 10
0.0
 20
0.0
 30
0.0
 11
-1.0
 21
0.0
 31
0.0
  0
LINE
  5
BF
330
95
100
AcDbEntity
  8
0
  6
CONTINUOUS
 62
     0
100
AcDbLine
 10
0.0
 20
0.0
 30
0.0
 11
-1.0
 21
0.166666667
 31
0.0
  0
LINE
  5
C0
330
95
100
AcDbEntity
  8
0
  6
CONTINUOUS
 62
     0
100
AcDbLine
 10
0.0
 20
0.0
 30
0.0
 11
-1.0
 21
-0.166666667
 31
0.0
  0
LINE
  5
C1
330
95
100
AcDbEntity
  8
0
  6
CONTINUOUS
 62
     0
100
AcDbLine
 10
-1.0
 20
0.166666667
 30
0.0
 11
-1.0
 21
-0.166666667
 31
0.0
  0
ENDBLK
  5
97
330
95
100
AcDbEntity
  8
0
100
AcDbBlockEnd
  0
BLOCK
  5
99
330
98
100
AcDbEntity
  8
0
100
AcDbBlockBegin
  2
EX_BBOX
 70
     0
 10
0.0
 20
0.0
 30
0.0
  3
EX_BBOX
  1

  0
LINE
  5
C2
330
98
100
AcDbEntity
  8
0
  6
CONTINUOUS
 62
     0
100
AcDbLine
 10
0.0
 20
0.0
 30
0.0
 11
-1.0
 21
0.0
 31
0.0
  0
LINE
  5
C3
330
98
100
AcDbEntity
  8
0
  6
CONTINUOUS
 62
     0
100
AcDbLine
 10
-0.5
 20
0.5
 30
0.0
 11
0.5
 21
0.5
 31
0.0
  0
LINE
  5
C4
330
98
100
AcDbEntity
  8
0
  6
CONTINUOUS
 62
     0
100
AcDbLine
 10
0.5
 20
0.5
 30
0.0
 11
0.5
 21
-0.5
 31
0.0
  0
LINE
  5
C5
330
98
100
AcDbEntity
  8
0
  6
CONTINUOUS
 62
     0
100
AcDbLine
 10
0.5
 20
-0.5
 30
0.0
 11
-0.5
 21
-0.5
 31
0.0
  0
LINE
  5
C6
330
98
100
AcDbEntity
  8
0
  6
CONTINUOUS
 62
     0
100
AcDbLine
 10
-0.5
 20
-0.5
 30
0.0
 11
-0.5
 21
0.5
 31
0.0
  0
LINE
  5
C7
330
98
100
AcDbEntity
  8
0
  6
CONTINUOUS
 62
     0
100
AcDbLine
 10
-0.25
 20
0.25
 30
0.0
 11
0.25
 21
0.25
 31
0.0
  0
LINE
  5
C8
330
98
100
AcDbEntity
  8
0
  6
CONTINUOUS
 62
     0
100
AcDbLine
 10
0.25
 20
0.25
 30
0.0
 11
0.25
 21
-0.25
 31
0.0
  0
LINE
  5
C9
330
98
100
AcDbEntity
  8
0
  6
CONTINUOUS
 62
     0
100
AcDbLine
 10
0.25
 20
-0.25
 30
0.0
 11
-0.25
 21
-0.25
 31
0.0
  0
LINE
  5
CA
330
98
100
AcDbEntity
  8
0
  6
CONTINUOUS
 62
     0
100
AcDbLine
 10
-0.25
 20
-0.25
 30
0.0
 11
-0.25
 21
0.25
 31
0.0
  0
ENDBLK
  5
9A
330
98
100
AcDbEntity
  8
0
100
AcDbBlockEnd
  0
BLOCK
  5
9C
330
9B
100
AcDbEntity
  8
0
100
AcDbBlockBegin
  2
EX_WBOX
 70
     0
 10
0.0
 20
0.0
 30
0.0
  3
EX_WBOX
  1

  0
LINE
  5
CB
330
9B
100
AcDbEntity
  8
0
  6
CONTINUOUS
 62
     0
100
AcDbLine
 10
-0.5
 20
0.0
 30
0.0
 11
-1.0
 21
0.0
 31
0.0
  0
LINE
  5
CC
330
9B
100
AcDbEntity
  8
0
  6
CONTINUOUS
 62
     0
100
AcDbLine
 10
-0.5
 20
0.5
 30
0.0
 11
0.5
 21
0.5
 31
0.0
  0
LINE
  5
CD
330
9B
100
AcDbEntity
  8
0
  6
CONTINUOUS
 62
     0
100
AcDbLine
 10
0.5
 20
0.5
 30
0.0
 11
0.5
 21
-0.5
 31
0.0
  0
LINE
  5
CE
330
9B
100
AcDbEntity
  8
0
  6
CONTINUOUS
 62
     0
100
AcDbLine
 10
0.5
 20
-0.5
 30
0.0
 11
-0.5
 21
-0.5
 31
0.0
  0
LINE
  5
CF
330
9B
100
AcDbEntity
  8
0
  6
CONTINUOUS
 62
     0
100
AcDbLine
 10
-0.5
 20
-0.5
 30
0.0
 11
-0.5
 21
0.5
 31
0.0
  0
ENDBLK
  5
9D
330
9B
100
AcDbEntity
  8
0
100
AcDbBlockEnd
  0
BLOCK
  5
9F
330
9E
100
AcDbEntity
  8
0
100
AcDbBlockBegin
  2
EX_INTEGRAL
 70
     0
 10
0.0
 20
0.0
 30
0.0
  3
EX_INTEGRAL
  1

  0
LINE
  5
D0
330
9E
100
AcDbEntity
  8
0
  6
CONTINUOUS
 62
     0
100
AcDbLine
 10
0.0
 20
0.0
 30
0.0
 11
-1.0
 21
0.0
 31
0.0
  0
ARC
  5
D1
330
9E
100
AcDbEntity
  8
0
  6
CONTINUOUS
 62
     0
100
AcDbCircle
 10
0.542115
 20
0.164992
 30
0.0
 40
0.56667
100
AcDbArc
 50
73.07249033629006
 51
196.9275130221199
  0
ARC
  5
D2
330
9E
100
AcDbEntity
  8
0
  6
CONTINUOUS
 62
     0
100
AcDbCircle
 10
-0.542115
 20
-0.164992
 30
0.0
 40
0.56667
100
AcDbArc
 50
253.0724869220464
 51
16.9275130559125
  0
ENDBLK
  5
A0
330
9E
100
AcDbEntity
  8
0
100
AcDbBlockEnd
  0
BLOCK
  5
10B
330
10A
100
AcDbEntity
  8
0
100
AcDbBlockBegin
  2
*D15
 70
     1
 10
0.0
 20
0.0
 30
0.0
  3
*D15
  1

  0
LINE
  5
10D
330
10A
100
AcDbEntity
  8
調整材穴有475_492_502_
  6
CONTINUOUS
 62
     1
100
AcDbLine
 10
1101.811401
 20
943.0000000000001
 30
0.0
 11
1009.802026
 21
943.0000000000001
 31
0.0
  0
LINE
  5
10E
330
10A
100
AcDbEntity
  8
調整材穴有475_492_502_
  6
CONTINUOUS
 62
     1
100
AcDbLine
 10
1101.811401
 20
911.0000000000001
 30
0.0
 11
1009.802026
 21
911.0000000000001
 31
0.0
  0
LINE
  5
10F
330
10A
100
AcDbEntity
  8
調整材穴有475_492_502_
  6
CONTINUOUS
 62
     1
100
AcDbLine
 10
1015.802026
 20
931.0000000000001
 30
0.0
 11
1015.802026
 21
923.0000000000001
 31
0.0
  0
INSERT
  5
110
330
10A
100
AcDbEntity
  8
調整材穴有475_492_502_
 62
     1
100
AcDbBlockReference
  2
EX_BNORM
 10
1015.802026
 20
943.0000000000001
 30
0.0
 41
12.0
 42
12.0
 43
12.0
 50
90.0
  0
INSERT
  5
111
330
10A
100
AcDbEntity
  8
調整材穴有475_492_502_
 62
     1
100
AcDbBlockReference
  2
EX_BNORM
 10
1015.802026
 20
911.0000000000001
 30
0.0
 41
12.0
 42
12.0
 43
12.0
 50
270.0
  0
MTEXT
  5
112
330
10A
100
AcDbEntity
  8
調整材穴有475_492_502_
 62
     1
100
AcDbMText
 10
1007.802026
 20
927.0
 30
0.0
 40
9.3543312
 41
0.0
 71
     5
 72
     1
  1
32
  7
EXCADDIM1
 11
0.0
 21
1.0
 31
0.0
  0
POINT
  5
113
330
10A
100
AcDbEntity
  8
DEFPOINTS
 62
     0
100
AcDbPoint
 10
1107.811401
 20
943.0000000000001
 30
0.0
  0
POINT
  5
114
330
10A
100
AcDbEntity
  8
DEFPOINTS
 62
     0
100
AcDbPoint
 10
1107.811401
 20
911.0000000000001
 30
0.0
  0
POINT
  5
115
330
10A
100
AcDbEntity
  8
DEFPOINTS
 62
     0
100
AcDbPoint
 10
1015.802026
 20
911.0000000000001
 30
0.0
  0
ENDBLK
  5
10C
330
10A
100
AcDbEntity
  8
0
100
AcDbBlockEnd
  0
BLOCK
  5
118
330
117
100
AcDbEntity
  8
0
100
AcDbBlockBegin
  2
*D16
 70
     1
 10
0.0
 20
0.0
 30
0.0
  3
*D16
  1

  0
LINE
  5
11A
330
117
100
AcDbEntity
  8
調整材穴有475_492_502_
  6
CONTINUOUS
 62
     1
100
AcDbLine
 10
1101.811401
 20
1148.0
 30
0.0
 11
1009.802026
 21
1148.0
 31
0.0
  0
LINE
  5
11B
330
117
100
AcDbEntity
  8
調整材穴有475_492_502_
  6
CONTINUOUS
 62
     1
100
AcDbLine
 10
1101.811401
 20
1173.0
 30
0.0
 11
1009.802026
 21
1173.0
 31
0.0
  0
LINE
  5
11C
330
117
100
AcDbEntity
  8
調整材穴有475_492_502_
  6
CONTINUOUS
 62
     1
100
AcDbLine
 10
1015.802026
 20
1160.0
 30
0.0
 11
1015.802026
 21
1161.0
 31
0.0
  0
INSERT
  5
11D
330
117
100
AcDbEntity
  8
調整材穴有475_492_502_
 62
     1
100
AcDbBlockReference
  2
EX_BNORM
 10
1015.802026
 20
1148.0
 30
0.0
 41
12.0
 42
12.0
 43
12.0
 50
270.0
  0
INSERT
  5
11E
330
117
100
AcDbEntity
  8
調整材穴有475_492_502_
 62
     1
100
AcDbBlockReference
  2
EX_BNORM
 10
1015.802026
 20
1173.0
 30
0.0
 41
12.0
 42
12.0
 43
12.0
 50
90.0
  0
MTEXT
  5
11F
330
117
100
AcDbEntity
  8
調整材穴有475_492_502_
 62
     1
100
AcDbMText
 10
1007.802026
 20
1160.5
 30
0.0
 40
9.3543312
 41
0.0
 71
     5
 72
     1
  1
25
  7
EXCADDIM1
 11
0.0
 21
1.0
 31
0.0
  0
POINT
  5
120
330
117
100
AcDbEntity
  8
DEFPOINTS
 62
     0
100
AcDbPoint
 10
1107.811401
 20
1148.0
 30
0.0
  0
POINT
  5
121
330
117
100
AcDbEntity
  8
DEFPOINTS
 62
     0
100
AcDbPoint
 10
1107.811401
 20
1173.0
 30
0.0
  0
POINT
  5
122
330
117
100
AcDbEntity
  8
DEFPOINTS
 62
     0
100
AcDbPoint
 10
1015.802026
 20
1173.0
 30
0.0
  0
ENDBLK
  5
119
330
117
100
AcDbEntity
  8
0
100
AcDbBlockEnd
  0
BLOCK
  5
125
330
124
100
AcDbEntity
  8
0
100
AcDbBlockBegin
  2
*D17
 70
     1
 10
0.0
 20
0.0
 30
0.0
  3
*D17
  1

  0
LINE
  5
127
330
124
100
AcDbEntity
  8
調整材穴有475_492_502_
  6
CONTINUOUS
 62
     1
100
AcDbLine
 10
1101.811401
 20
706.0000000000001
 30
0.0
 11
1009.802026
 21
706.0000000000001
 31
0.0
  0
LINE
  5
128
330
124
100
AcDbEntity
  8
調整材穴有475_492_502_
  6
CONTINUOUS
 62
     1
100
AcDbLine
 10
1101.811401
 20
681.0000000000001
 30
0.0
 11
1009.802026
 21
681.0000000000001
 31
0.0
  0
LINE
  5
129
330
124
100
AcDbEntity
  8
調整材穴有475_492_502_
  6
CONTINUOUS
 62
     1
100
AcDbLine
 10
1015.802026
 20
694.0000000000001
 30
0.0
 11
1015.802026
 21
693.0000000000001
 31
0.0
  0
INSERT
  5
12A
330
124
100
AcDbEntity
  8
調整材穴有475_492_502_
 62
     1
100
AcDbBlockReference
  2
EX_BNORM
 10
1015.802026
 20
706.0000000000001
 30
0.0
 41
12.0
 42
12.0
 43
12.0
 50
90.0
  0
INSERT
  5
12B
330
124
100
AcDbEntity
  8
調整材穴有475_492_502_
 62
     1
100
AcDbBlockReference
  2
EX_BNORM
 10
1015.802026
 20
681.0000000000001
 30
0.0
 41
12.0
 42
12.0
 43
12.0
 50
270.0
  0
MTEXT
  5
12C
330
124
100
AcDbEntity
  8
調整材穴有475_492_502_
 62
     1
100
AcDbMText
 10
1007.802026
 20
693.5
 30
0.0
 40
9.3543312
 41
0.0
 71
     5
 72
     1
  1
25
  7
EXCADDIM1
 11
0.0
 21
1.0
 31
0.0
  0
POINT
  5
12D
330
124
100
AcDbEntity
  8
DEFPOINTS
 62
     0
100
AcDbPoint
 10
1107.811401
 20
706.0000000000001
 30
0.0
  0
POINT
  5
12E
330
124
100
AcDbEntity
  8
DEFPOINTS
 62
     0
100
AcDbPoint
 10
1107.811401
 20
681.0000000000001
 30
0.0
  0
POINT
  5
12F
330
124
100
AcDbEntity
  8
DEFPOINTS
 62
     0
100
AcDbPoint
 10
1015.802026
 20
681.0000000000001
 30
0.0
  0
ENDBLK
  5
126
330
124
100
AcDbEntity
  8
0
100
AcDbBlockEnd
  0
BLOCK
  5
133
330
132
100
AcDbEntity
  8
0
100
AcDbBlockBegin
  2
*D18
 70
     1
 10
0.0
 20
0.0
 30
0.0
  3
*D18
  1

  0
LINE
  5
135
330
132
100
AcDbEntity
  8
調整材穴有475_492_502_
  6
CONTINUOUS
 62
     1
100
AcDbLine
 10
1213.811401
 20
1173.0
 30
0.0
 11
1337.302026
 21
1173.0
 31
0.0
  0
LINE
  5
136
330
132
100
AcDbEntity
  8
調整材穴有475_492_502_
  6
CONTINUOUS
 62
     1
100
AcDbLine
 10
1238.811401
 20
1168.0
 30
0.0
 11
1337.302026
 21
1168.0
 31
0.0
  0
LINE
  5
137
330
132
100
AcDbEntity
  8
調整材穴有475_492_502_
  6
CONTINUOUS
 62
     1
100
AcDbLine
 10
1331.302026
 20
1173.0
 30
0.0
 11
1331.302026
 21
1168.0
 31
0.0
  0
LINE
  5
138
330
132
100
AcDbEntity
  8
調整材穴有475_492_502_
  6
CONTINUOUS
 62
     1
100
AcDbLine
 10
1331.302026
 20
1185.0
 30
0.0
 11
1331.302026
 21
1197.0
 31
0.0
  0
LINE
  5
139
330
132
100
AcDbEntity
  8
調整材穴有475_492_502_
  6
CONTINUOUS
 62
     1
100
AcDbLine
 10
1331.302026
 20
1156.0
 30
0.0
 11
1331.302026
 21
1144.0
 31
0.0
  0
INSERT
  5
13A
330
132
100
AcDbEntity
  8
調整材穴有475_492_502_
 62
     1
100
AcDbBlockReference
  2
EX_BNORM
 10
1331.302026
 20
1173.0
 30
0.0
 41
12.0
 42
12.0
 43
12.0
 50
270.0
  0
INSERT
  5
13B
330
132
100
AcDbEntity
  8
調整材穴有475_492_502_
 62
     1
100
AcDbBlockReference
  2
EX_BNORM
 10
1331.302026
 20
1168.0
 30
0.0
 41
12.0
 42
12.0
 43
12.0
 50
90.0
  0
MTEXT
  5
13C
330
132
100
AcDbEntity
  8
調整材穴有475_492_502_
 62
     1
100
AcDbMText
 10
1323.002026
 20
1190.1
 30
0.0
 40
9.3543312
 41
0.0
 71
     5
 72
     1
  1
5
  7
EXCADDIM1
 11
-3.828568698926949E-16
 21
1.0
 31
0.0
  0
POINT
  5
13D
330
132
100
AcDbEntity
  8
DEFPOINTS
 62
     0
100
AcDbPoint
 10
1207.811401
 20
1173.0
 30
0.0
  0
POINT
  5
13E
330
132
100
AcDbEntity
  8
DEFPOINTS
 62
     0
100
AcDbPoint
 10
1232.811401
 20
1168.0
 30
0.0
  0
POINT
  5
13F
330
132
100
AcDbEntity
  8
DEFPOINTS
 62
     0
100
AcDbPoint
 10
1331.302026
 20
1168.0
 30
0.0
  0
ENDBLK
  5
134
330
132
100
AcDbEntity
  8
0
100
AcDbBlockEnd
  0
BLOCK
  5
142
330
141
100
AcDbEntity
  8
0
100
AcDbBlockBegin
  2
*D19
 70
     1
 10
0.0
 20
0.0
 30
0.0
  3
*D19
  1

  0
LINE
  5
144
330
141
100
AcDbEntity
  8
調整材穴有475_492_502_
  6
CONTINUOUS
 62
     1
100
AcDbLine
 10
1238.811401
 20
686.0000000000001
 30
0.0
 11
1337.302026
 21
686.0000000000001
 31
0.0
  0
LINE
  5
145
330
141
100
AcDbEntity
  8
調整材穴有475_492_502_
  6
CONTINUOUS
 62
     1
100
AcDbLine
 10
1213.811401
 20
681.0000000000001
 30
0.0
 11
1337.302026
 21
681.0000000000001
 31
0.0
  0
LINE
  5
146
330
141
100
AcDbEntity
  8
調整材穴有475_492_502_
  6
CONTINUOUS
 62
     1
100
AcDbLine
 10
1331.302026
 20
686.0000000000001
 30
0.0
 11
1331.302026
 21
681.0000000000001
 31
0.0
  0
LINE
  5
147
330
141
100
AcDbEntity
  8
調整材穴有475_492_502_
  6
CONTINUOUS
 62
     1
100
AcDbLine
 10
1331.302026
 20
698.0000000000001
 30
0.0
 11
1331.302026
 21
710.0000000000001
 31
0.0
  0
LINE
  5
148
330
141
100
AcDbEntity
  8
調整材穴有475_492_502_
  6
CONTINUOUS
 62
     1
100
AcDbLine
 10
1331.302026
 20
669.0000000000001
 30
0.0
 11
1331.302026
 21
657.0000000000001
 31
0.0
  0
INSERT
  5
149
330
141
100
AcDbEntity
  8
調整材穴有475_492_502_
 62
     1
100
AcDbBlockReference
  2
EX_BNORM
 10
1331.302026
 20
686.0000000000001
 30
0.0
 41
12.0
 42
12.0
 43
12.0
 50
270.0
  0
INSERT
  5
14A
330
141
100
AcDbEntity
  8
調整材穴有475_492_502_
 62
     1
100
AcDbBlockReference
  2
EX_BNORM
 10
1331.302026
 20
681.0000000000001
 30
0.0
 41
12.0
 42
12.0
 43
12.0
 50
90.0
  0
MTEXT
  5
14B
330
141
100
AcDbEntity
  8
調整材穴有475_492_502_
 62
     1
100
AcDbMText
 10
1324.302026
 20
662.6
 30
0.0
 40
9.3543312
 41
0.0
 71
     5
 72
     1
  1
5
  7
EXCADDIM1
 11
-3.828568698926949E-16
 21
1.0
 31
0.0
  0
POINT
  5
14C
330
141
100
AcDbEntity
  8
DEFPOINTS
 62
     0
100
AcDbPoint
 10
1232.811401
 20
686.0000000000001
 30
0.0
  0
POINT
  5
14D
330
141
100
AcDbEntity
  8
DEFPOINTS
 62
     0
100
AcDbPoint
 10
1207.811401
 20
681.0000000000001
 30
0.0
  0
POINT
  5
14E
330
141
100
AcDbEntity
  8
DEFPOINTS
 62
     0
100
AcDbPoint
 10
1331.302026
 20
681.0000000000001
 30
0.0
  0
ENDBLK
  5
143
330
141
100
AcDbEntity
  8
0
100
AcDbBlockEnd
  0
BLOCK
  5
151
330
150
100
AcDbEntity
  8
0
100
AcDbBlockBegin
  2
*D20
 70
     1
 10
0.0
 20
0.0
 30
0.0
  3
*D20
  1

  0
LINE
  5
153
330
150
100
AcDbEntity
  8
調整材穴有475_492_502_
  6
CONTINUOUS
 62
     1
100
AcDbLine
 10
1213.811401
 20
1173.0
 30
0.0
 11
1369.902026
 21
1173.0
 31
0.0
  0
LINE
  5
154
330
150
100
AcDbEntity
  8
調整材穴有475_492_502_
  6
CONTINUOUS
 62
     1
100
AcDbLine
 10
1213.811401
 20
681.0000000000001
 30
0.0
 11
1369.902026
 21
681.0000000000001
 31
0.0
  0
LINE
  5
155
330
150
100
AcDbEntity
  8
調整材穴有475_492_502_
  6
CONTINUOUS
 62
     1
100
AcDbLine
 10
1363.902026
 20
1161.0
 30
0.0
 11
1363.902026
 21
693.0000000000001
 31
0.0
  0
INSERT
  5
156
330
150
100
AcDbEntity
  8
調整材穴有475_492_502_
 62
     1
100
AcDbBlockReference
  2
EX_BNORM
 10
1363.902026
 20
1173.0
 30
0.0
 41
12.0
 42
12.0
 43
12.0
 50
90.0
  0
INSERT
  5
157
330
150
100
AcDbEntity
  8
調整材穴有475_492_502_
 62
     1
100
AcDbBlockReference
  2
EX_BNORM
 10
1363.902026
 20
681.0000000000001
 30
0.0
 41
12.0
 42
12.0
 43
12.0
 50
270.0
  0
MTEXT
  5
158
330
150
100
AcDbEntity
  8
調整材穴有475_492_502_
 62
     1
100
AcDbMText
 10
1355.902026
 20
927.0
 30
0.0
 40
9.3543312
 41
0.0
 71
     5
 72
     1
  1
492
  7
EXCADDIM1
 11
0.0
 21
1.0
 31
0.0
  0
POINT
  5
159
330
150
100
AcDbEntity
  8
DEFPOINTS
 62
     0
100
AcDbPoint
 10
1207.811401
 20
1173.0
 30
0.0
  0
POINT
  5
15A
330
150
100
AcDbEntity
  8
DEFPOINTS
 62
     0
100
AcDbPoint
 10
1207.811401
 20
681.0000000000001
 30
0.0
  0
POINT
  5
15B
330
150
100
AcDbEntity
  8
DEFPOINTS
 62
     0
100
AcDbPoint
 10
1363.902026
 20
681.0000000000001
 30
0.0
  0
ENDBLK
  5
152
330
150
100
AcDbEntity
  8
0
100
AcDbBlockEnd
  0
BLOCK
  5
15E
330
15D
100
AcDbEntity
  8
0
100
AcDbBlockBegin
  2
*D21
 70
     1
 10
0.0
 20
0.0
 30
0.0
  3
*D21
  1

  0
LINE
  5
160
330
15D
100
AcDbEntity
  8
調整材穴有475_492_502_
  6
CONTINUOUS
 62
     1
100
AcDbLine
 10
1082.811401
 20
680.0000000000001
 30
0.0
 11
1082.811401
 21
572.3000000000001
 31
0.0
  0
LINE
  5
161
330
15D
100
AcDbEntity
  8
調整材穴有475_492_502_
  6
CONTINUOUS
 62
     1
100
AcDbLine
 10
1232.811401
 20
680.0000000000001
 30
0.0
 11
1232.811401
 21
572.3000000000001
 31
0.0
  0
LINE
  5
162
330
15D
100
AcDbEntity
  8
調整材穴有475_492_502_
  6
CONTINUOUS
 62
     1
100
AcDbLine
 10
1094.811401
 20
578.3000000000001
 30
0.0
 11
1220.811401
 21
578.3000000000001
 31
0.0
  0
INSERT
  5
163
330
15D
100
AcDbEntity
  8
調整材穴有475_492_502_
 62
     1
100
AcDbBlockReference
  2
EX_BNORM
 10
1082.811401
 20
578.3000000000001
 30
0.0
 41
12.0
 42
12.0
 43
12.0
 50
180.0
  0
INSERT
  5
164
330
15D
100
AcDbEntity
  8
調整材穴有475_492_502_
 62
     1
100
AcDbBlockReference
  2
EX_BNORM
 10
1232.811401
 20
578.3000000000001
 30
0.0
 41
12.0
 42
12.0
 43
12.0
  0
MTEXT
  5
165
330
15D
100
AcDbEntity
  8
調整材穴有475_492_502_
 62
     1
100
AcDbMText
 10
1157.811401
 20
586.3000000000001
 30
0.0
 40
9.3543312
 41
0.0
 71
     5
 72
     1
  1
150
  7
EXCADDIM1
  0
POINT
  5
166
330
15D
100
AcDbEntity
  8
DEFPOINTS
 62
     0
100
AcDbPoint
 10
1082.811401
 20
686.0000000000001
 30
0.0
  0
POINT
  5
167
330
15D
100
AcDbEntity
  8
DEFPOINTS
 62
     0
100
AcDbPoint
 10
1232.811401
 20
686.0000000000001
 30
0.0
  0
POINT
  5
168
330
15D
100
AcDbEntity
  8
DEFPOINTS
 62
     0
100
AcDbPoint
 10
1232.811401
 20
578.3000000000001
 30
0.0
  0
ENDBLK
  5
15F
330
15D
100
AcDbEntity
  8
0
100
AcDbBlockEnd
  0
BLOCK
  5
16B
330
16A
100
AcDbEntity
  8
0
100
AcDbBlockBegin
  2
*D22
 70
     1
 10
0.0
 20
0.0
 30
0.0
  3
*D22
  1

  0
LINE
  5
16D
330
16A
100
AcDbEntity
  8
調整材穴有475_492_502_
  6
CONTINUOUS
 62
     1
100
AcDbLine
 10
1107.811401
 20
675.0000000000001
 30
0.0
 11
1107.811401
 21
606.2000000000002
 31
0.0
  0
LINE
  5
16E
330
16A
100
AcDbEntity
  8
調整材穴有475_492_502_
  6
CONTINUOUS
 62
     1
100
AcDbLine
 10
1207.811401
 20
675.0000000000001
 30
0.0
 11
1207.811401
 21
606.2000000000002
 31
0.0
  0
LINE
  5
16F
330
16A
100
AcDbEntity
  8
調整材穴有475_492_502_
  6
CONTINUOUS
 62
     1
100
AcDbLine
 10
1119.811401
 20
612.2000000000002
 30
0.0
 11
1195.811401
 21
612.2000000000002
 31
0.0
  0
INSERT
  5
170
330
16A
100
AcDbEntity
  8
調整材穴有475_492_502_
 62
     1
100
AcDbBlockReference
  2
EX_BNORM
 10
1107.811401
 20
612.2000000000002
 30
0.0
 41
12.0
 42
12.0
 43
12.0
 50
180.0
  0
INSERT
  5
171
330
16A
100
AcDbEntity
  8
調整材穴有475_492_502_
 62
     1
100
AcDbBlockReference
  2
EX_BNORM
 10
1207.811401
 20
612.2000000000002
 30
0.0
 41
12.0
 42
12.0
 43
12.0
  0
MTEXT
  5
172
330
16A
100
AcDbEntity
  8
調整材穴有475_492_502_
 62
     1
100
AcDbMText
 10
1157.811401
 20
620.2000000000002
 30
0.0
 40
9.3543312
 41
0.0
 71
     5
 72
     1
  1
100
  7
EXCADDIM1
  0
POINT
  5
173
330
16A
100
AcDbEntity
  8
DEFPOINTS
 62
     0
100
AcDbPoint
 10
1107.811401
 20
681.0000000000001
 30
0.0
  0
POINT
  5
174
330
16A
100
AcDbEntity
  8
DEFPOINTS
 62
     0
100
AcDbPoint
 10
1207.811401
 20
681.0000000000001
 30
0.0
  0
POINT
  5
175
330
16A
100
AcDbEntity
  8
DEFPOINTS
 62
     0
100
AcDbPoint
 10
1207.811401
 20
612.2000000000002
 30
0.0
  0
ENDBLK
  5
16C
330
16A
100
AcDbEntity
  8
0
100
AcDbBlockEnd
  0
BLOCK
  5
181
330
180
100
AcDbEntity
  8
0
100
AcDbBlockBegin
  2
*D23
 70
     1
 10
0.0
 20
0.0
 30
0.0
  3
*D23
  1

  0
LINE
  5
183
330
180
100
AcDbEntity
  8
調整材穴有475_492_502_
  6
CONTINUOUS
 62
     1
100
AcDbLine
 10
1500.905701
 20
943.0
 30
0.0
 11
1454.0
 21
943.0
 31
0.0
  0
LINE
  5
184
330
180
100
AcDbEntity
  8
調整材穴有475_492_502_
  6
CONTINUOUS
 62
     1
100
AcDbLine
 10
1500.905701
 20
911.0
 30
0.0
 11
1454.0
 21
911.0
 31
0.0
  0
LINE
  5
185
330
180
100
AcDbEntity
  8
調整材穴有475_492_502_
  6
CONTINUOUS
 62
     1
100
AcDbLine
 10
1460.0
 20
931.0
 30
0.0
 11
1460.0
 21
923.0
 31
0.0
  0
INSERT
  5
186
330
180
100
AcDbEntity
  8
調整材穴有475_492_502_
 62
     1
100
AcDbBlockReference
  2
EX_BNORM
 10
1460.0
 20
943.0
 30
0.0
 41
12.0
 42
12.0
 43
12.0
 50
90.0
  0
INSERT
  5
187
330
180
100
AcDbEntity
  8
調整材穴有475_492_502_
 62
     1
100
AcDbBlockReference
  2
EX_BNORM
 10
1460.0
 20
911.0
 30
0.0
 41
12.0
 42
12.0
 43
12.0
 50
270.0
  0
MTEXT
  5
188
330
180
100
AcDbEntity
  8
調整材穴有475_492_502_
 62
     1
100
AcDbMText
 10
1452.0
 20
927.0
 30
0.0
 40
9.3543312
 41
0.0
 71
     5
 72
     1
  1
32
  7
EXCADDIM1
 11
0.0
 21
1.0
 31
0.0
  0
POINT
  5
189
330
180
100
AcDbEntity
  8
DEFPOINTS
 62
     0
100
AcDbPoint
 10
1506.905701
 20
943.0
 30
0.0
  0
POINT
  5
18A
330
180
100
AcDbEntity
  8
DEFPOINTS
 62
     0
100
AcDbPoint
 10
1506.905701
 20
911.0
 30
0.0
  0
POINT
  5
18B
330
180
100
AcDbEntity
  8
DEFPOINTS
 62
     0
100
AcDbPoint
 10
1460.0
 20
911.0
 30
0.0
  0
ENDBLK
  5
182
330
180
100
AcDbEntity
  8
0
100
AcDbBlockEnd
  0
BLOCK
  5
18E
330
18D
100
AcDbEntity
  8
0
100
AcDbBlockBegin
  2
*D24
 70
     1
 10
0.0
 20
0.0
 30
0.0
  3
*D24
  1

  0
LINE
  5
190
330
18D
100
AcDbEntity
  8
調整材穴有475_492_502_
  6
CONTINUOUS
 62
     1
100
AcDbLine
 10
1726.40564
 20
1154.0
 30
0.0
 11
1726.40564
 21
1210.0
 31
0.0
  0
LINE
  5
191
330
18D
100
AcDbEntity
  8
調整材穴有475_492_502_
  6
CONTINUOUS
 62
     1
100
AcDbLine
 10
1762.40564
 20
1154.0
 30
0.0
 11
1762.40564
 21
1210.0
 31
0.0
  0
LINE
  5
192
330
18D
100
AcDbEntity
  8
調整材穴有475_492_502_
  6
CONTINUOUS
 62
     1
100
AcDbLine
 10
1738.40564
 20
1204.0
 30
0.0
 11
1750.40564
 21
1204.0
 31
0.0
  0
INSERT
  5
193
330
18D
100
AcDbEntity
  8
調整材穴有475_492_502_
 62
     1
100
AcDbBlockReference
  2
EX_BNORM
 10
1726.40564
 20
1204.0
 30
0.0
 41
12.0
 42
12.0
 43
12.0
 50
180.0
  0
INSERT
  5
194
330
18D
100
AcDbEntity
  8
調整材穴有475_492_502_
 62
     1
100
AcDbBlockReference
  2
EX_BNORM
 10
1762.40564
 20
1204.0
 30
0.0
 41
12.0
 42
12.0
 43
12.0
  0
MTEXT
  5
195
330
18D
100
AcDbEntity
  8
調整材穴有475_492_502_
 62
     1
100
AcDbMText
 10
1744.40564
 20
1212.0
 30
0.0
 40
9.3543312
 41
0.0
 71
     5
 72
     1
  1
36
  7
EXCADDIM1
  0
POINT
  5
196
330
18D
100
AcDbEntity
  8
DEFPOINTS
 62
     0
100
AcDbPoint
 10
1726.40564
 20
1148.0
 30
0.0
  0
POINT
  5
197
330
18D
100
AcDbEntity
  8
DEFPOINTS
 62
     0
100
AcDbPoint
 10
1762.40564
 20
1148.0
 30
0.0
  0
POINT
  5
198
330
18D
100
AcDbEntity
  8
DEFPOINTS
 62
     0
100
AcDbPoint
 10
1762.40564
 20
1204.0
 30
0.0
  0
ENDBLK
  5
18F
330
18D
100
AcDbEntity
  8
0
100
AcDbBlockEnd
  0
BLOCK
  5
1B0
330
1AF
100
AcDbEntity
  8
0
100
AcDbBlockBegin
  2
*D25
 70
     1
 10
0.0
 20
0.0
 30
0.0
  3
*D25
  1

  0
LINE
  5
1B2
330
1AF
100
AcDbEntity
  8
調整材穴有475_492_502_
  6
CONTINUOUS
 62
     1
100
AcDbLine
 10
232.5000610000001
 20
943.0000000000001
 30
0.0
 11
188.5943600000001
 21
943.0000000000001
 31
0.0
  0
LINE
  5
1B3
330
1AF
100
AcDbEntity
  8
調整材穴有475_492_502_
  6
CONTINUOUS
 62
     1
100
AcDbLine
 10
232.5000610000001
 20
911.0000000000001
 30
0.0
 11
188.5943600000001
 21
911.0000000000001
 31
0.0
  0
LINE
  5
1B4
330
1AF
100
AcDbEntity
  8
調整材穴有475_492_502_
  6
CONTINUOUS
 62
     1
100
AcDbLine
 10
194.5943600000001
 20
931.0000000000001
 30
0.0
 11
194.5943600000001
 21
923.0000000000001
 31
0.0
  0
INSERT
  5
1B5
330
1AF
100
AcDbEntity
  8
調整材穴有475_492_502_
 62
     1
100
AcDbBlockReference
  2
EX_BNORM
 10
194.5943600000001
 20
943.0000000000001
 30
0.0
 41
12.0
 42
12.0
 43
12.0
 50
90.0
  0
INSERT
  5
1B6
330
1AF
100
AcDbEntity
  8
調整材穴有475_492_502_
 62
     1
100
AcDbBlockReference
  2
EX_BNORM
 10
194.5943600000001
 20
911.0000000000001
 30
0.0
 41
12.0
 42
12.0
 43
12.0
 50
270.0
  0
MTEXT
  5
1B7
330
1AF
100
AcDbEntity
  8
調整材穴有475_492_502_
 62
     1
100
AcDbMText
 10
186.5943600000002
 20
927.0000000000001
 30
0.0
 40
9.3543312
 41
0.0
 71
     5
 72
     1
  1
32
  7
EXCADDIM1
 11
0.0
 21
1.0
 31
0.0
  0
POINT
  5
1B8
330
1AF
100
AcDbEntity
  8
DEFPOINTS
 62
     0
100
AcDbPoint
 10
238.5000610000001
 20
943.0000000000001
 30
0.0
  0
POINT
  5
1B9
330
1AF
100
AcDbEntity
  8
DEFPOINTS
 62
     0
100
AcDbPoint
 10
238.5000610000001
 20
911.0000000000001
 30
0.0
  0
POINT
  5
1BA
330
1AF
100
AcDbEntity
  8
DEFPOINTS
 62
     0
100
AcDbPoint
 10
194.5943600000001
 20
911.0000000000001
 30
0.0
  0
ENDBLK
  5
1B1
330
1AF
100
AcDbEntity
  8
0
100
AcDbBlockEnd
  0
BLOCK
  5
1BD
330
1BC
100
AcDbEntity
  8
0
100
AcDbBlockBegin
  2
*D26
 70
     1
 10
0.0
 20
0.0
 30
0.0
  3
*D26
  1

  0
LINE
  5
1BF
330
1BC
100
AcDbEntity
  8
調整材穴有475_492_502_
  6
CONTINUOUS
 62
     1
100
AcDbLine
 10
1101.811401
 20
1148.0
 30
0.0
 11
1009.802026
 21
1148.0
 31
0.0
  0
LINE
  5
1C0
330
1BC
100
AcDbEntity
  8
調整材穴有475_492_502_
  6
CONTINUOUS
 62
     1
100
AcDbLine
 10
1101.811401
 20
943.0000000000001
 30
0.0
 11
1009.802026
 21
943.0000000000001
 31
0.0
  0
LINE
  5
1C1
330
1BC
100
AcDbEntity
  8
調整材穴有475_492_502_
  6
CONTINUOUS
 62
     1
100
AcDbLine
 10
1015.802026
 20
1136.0
 30
0.0
 11
1015.802026
 21
955.0000000000001
 31
0.0
  0
INSERT
  5
1C2
330
1BC
100
AcDbEntity
  8
調整材穴有475_492_502_
 62
     1
100
AcDbBlockReference
  2
EX_BNORM
 10
1015.802026
 20
1148.0
 30
0.0
 41
12.0
 42
12.0
 43
12.0
 50
90.0
  0
INSERT
  5
1C3
330
1BC
100
AcDbEntity
  8
調整材穴有475_492_502_
 62
     1
100
AcDbBlockReference
  2
EX_BNORM
 10
1015.802026
 20
943.0000000000001
 30
0.0
 41
12.0
 42
12.0
 43
12.0
 50
270.0
  0
MTEXT
  5
1C4
330
1BC
100
AcDbEntity
  8
調整材穴有475_492_502_
 62
     1
100
AcDbMText
 10
1007.802026
 20
1045.5
 30
0.0
 40
9.3543312
 41
0.0
 71
     5
 72
     1
  1
205
  7
EXCADDIM1
 11
0.0
 21
1.0
 31
0.0
  0
POINT
  5
1C5
330
1BC
100
AcDbEntity
  8
DEFPOINTS
 62
     0
100
AcDbPoint
 10
1107.811401
 20
1148.0
 30
0.0
  0
POINT
  5
1C6
330
1BC
100
AcDbEntity
  8
DEFPOINTS
 62
     0
100
AcDbPoint
 10
1107.811401
 20
943.0000000000001
 30
0.0
  0
POINT
  5
1C7
330
1BC
100
AcDbEntity
  8
DEFPOINTS
 62
     0
100
AcDbPoint
 10
1015.802026
 20
943.0000000000001
 30
0.0
  0
ENDBLK
  5
1BE
330
1BC
100
AcDbEntity
  8
0
100
AcDbBlockEnd
  0
BLOCK
  5
1CA
330
1C9
100
AcDbEntity
  8
0
100
AcDbBlockBegin
  2
*D27
 70
     1
 10
0.0
 20
0.0
 30
0.0
  3
*D27
  1

  0
LINE
  5
1CC
330
1C9
100
AcDbEntity
  8
調整材穴有475_492_502_
  6
CONTINUOUS
 62
     1
100
AcDbLine
 10
1101.811401
 20
911.0000000000001
 30
0.0
 11
1009.802026
 21
911.0000000000001
 31
0.0
  0
LINE
  5
1CD
330
1C9
100
AcDbEntity
  8
調整材穴有475_492_502_
  6
CONTINUOUS
 62
     1
100
AcDbLine
 10
1101.811401
 20
706.0000000000001
 30
0.0
 11
1009.802026
 21
706.0000000000001
 31
0.0
  0
LINE
  5
1CE
330
1C9
100
AcDbEntity
  8
調整材穴有475_492_502_
  6
CONTINUOUS
 62
     1
100
AcDbLine
 10
1015.802026
 20
899.0000000000001
 30
0.0
 11
1015.802026
 21
718.0000000000001
 31
0.0
  0
INSERT
  5
1CF
330
1C9
100
AcDbEntity
  8
調整材穴有475_492_502_
 62
     1
100
AcDbBlockReference
  2
EX_BNORM
 10
1015.802026
 20
911.0000000000001
 30
0.0
 41
12.0
 42
12.0
 43
12.0
 50
90.0
  0
INSERT
  5
1D0
330
1C9
100
AcDbEntity
  8
調整材穴有475_492_502_
 62
     1
100
AcDbBlockReference
  2
EX_BNORM
 10
1015.802026
 20
706.0000000000001
 30
0.0
 41
12.0
 42
12.0
 43
12.0
 50
270.0
  0
MTEXT
  5
1D1
330
1C9
100
AcDbEntity
  8
調整材穴有475_492_502_
 62
     1
100
AcDbMText
 10
1007.802026
 20
808.5
 30
0.0
 40
9.3543312
 41
0.0
 71
     5
 72
     1
  1
205
  7
EXCADDIM1
 11
0.0
 21
1.0
 31
0.0
  0
POINT
  5
1D2
330
1C9
100
AcDbEntity
  8
DEFPOINTS
 62
     0
100
AcDbPoint
 10
1107.811401
 20
911.0000000000001
 30
0.0
  0
POINT
  5
1D3
330
1C9
100
AcDbEntity
  8
DEFPOINTS
 62
     0
100
AcDbPoint
 10
1107.811401
 20
706.0000000000001
 30
0.0
  0
POINT
  5
1D4
330
1C9
100
AcDbEntity
  8
DEFPOINTS
 62
     0
100
AcDbPoint
 10
1015.802026
 20
706.0000000000001
 30
0.0
  0
ENDBLK
  5
1CB
330
1C9
100
AcDbEntity
  8
0
100
AcDbBlockEnd
  0
BLOCK
  5
1D7
330
1D6
100
AcDbEntity
  8
0
100
AcDbBlockBegin
  2
*D28
 70
     1
 10
0.0
 20
0.0
 30
0.0
  3
*D28
  1

  0
LINE
  5
1D9
330
1D6
100
AcDbEntity
  8
調整材穴有475_492_502_
  6
CONTINUOUS
 62
     1
100
AcDbLine
 10
1082.811401
 20
680.0000000000001
 30
0.0
 11
1082.811401
 21
606.2000000000002
 31
0.0
  0
LINE
  5
1DA
330
1D6
100
AcDbEntity
  8
調整材穴有475_492_502_
  6
CONTINUOUS
 62
     1
100
AcDbLine
 10
1107.811401
 20
680.0000000000001
 30
0.0
 11
1107.811401
 21
606.2000000000002
 31
0.0
  0
LINE
  5
1DB
330
1D6
100
AcDbEntity
  8
調整材穴有475_492_502_
  6
CONTINUOUS
 62
     1
100
AcDbLine
 10
1094.811401
 20
612.2000000000002
 30
0.0
 11
1095.811401
 21
612.2000000000002
 31
0.0
  0
INSERT
  5
1DC
330
1D6
100
AcDbEntity
  8
調整材穴有475_492_502_
 62
     1
100
AcDbBlockReference
  2
EX_BNORM
 10
1082.811401
 20
612.2000000000002
 30
0.0
 41
12.0
 42
12.0
 43
12.0
 50
180.0
  0
INSERT
  5
1DD
330
1D6
100
AcDbEntity
  8
調整材穴有475_492_502_
 62
     1
100
AcDbBlockReference
  2
EX_BNORM
 10
1107.811401
 20
612.2000000000002
 30
0.0
 41
12.0
 42
12.0
 43
12.0
  0
MTEXT
  5
1DE
330
1D6
100
AcDbEntity
  8
調整材穴有475_492_502_
 62
     1
100
AcDbMText
 10
1095.311401
 20
620.2000000000002
 30
0.0
 40
9.3543312
 41
0.0
 71
     5
 72
     1
  1
25
  7
EXCADDIM1
  0
POINT
  5
1DF
330
1D6
100
AcDbEntity
  8
DEFPOINTS
 62
     0
100
AcDbPoint
 10
1082.811401
 20
686.0000000000001
 30
0.0
  0
POINT
  5
1E0
330
1D6
100
AcDbEntity
  8
DEFPOINTS
 62
     0
100
AcDbPoint
 10
1107.811401
 20
686.0000000000001
 30
0.0
  0
POINT
  5
1E1
330
1D6
100
AcDbEntity
  8
DEFPOINTS
 62
     0
100
AcDbPoint
 10
1107.811401
 20
612.2000000000002
 30
0.0
  0
ENDBLK
  5
1D8
330
1D6
100
AcDbEntity
  8
0
100
AcDbBlockEnd
  0
BLOCK
  5
1E4
330
1E3
100
AcDbEntity
  8
0
100
AcDbBlockBegin
  2
*D29
 70
     1
 10
0.0
 20
0.0
 30
0.0
  3
*D29
  1

  0
LINE
  5
1E6
330
1E3
100
AcDbEntity
  8
調整材穴有475_492_502_
  6
CONTINUOUS
 62
     1
100
AcDbLine
 10
1207.811401
 20
680.0000000000001
 30
0.0
 11
1207.811401
 21
606.2000000000002
 31
0.0
  0
LINE
  5
1E7
330
1E3
100
AcDbEntity
  8
調整材穴有475_492_502_
  6
CONTINUOUS
 62
     1
100
AcDbLine
 10
1232.811401
 20
680.0000000000001
 30
0.0
 11
1232.811401
 21
606.2000000000002
 31
0.0
  0
LINE
  5
1E8
330
1E3
100
AcDbEntity
  8
調整材穴有475_492_502_
  6
CONTINUOUS
 62
     1
100
AcDbLine
 10
1219.811401
 20
612.2000000000002
 30
0.0
 11
1220.811401
 21
612.2000000000002
 31
0.0
  0
INSERT
  5
1E9
330
1E3
100
AcDbEntity
  8
調整材穴有475_492_502_
 62
     1
100
AcDbBlockReference
  2
EX_BNORM
 10
1207.811401
 20
612.2000000000002
 30
0.0
 41
12.0
 42
12.0
 43
12.0
 50
180.0
  0
INSERT
  5
1EA
330
1E3
100
AcDbEntity
  8
調整材穴有475_492_502_
 62
     1
100
AcDbBlockReference
  2
EX_BNORM
 10
1232.811401
 20
612.2000000000002
 30
0.0
 41
12.0
 42
12.0
 43
12.0
  0
MTEXT
  5
1EB
330
1E3
100
AcDbEntity
  8
調整材穴有475_492_502_
 62
     1
100
AcDbMText
 10
1220.311401
 20
620.2000000000002
 30
0.0
 40
9.3543312
 41
0.0
 71
     5
 72
     1
  1
25
  7
EXCADDIM1
  0
POINT
  5
1EC
330
1E3
100
AcDbEntity
  8
DEFPOINTS
 62
     0
100
AcDbPoint
 10
1207.811401
 20
686.0000000000001
 30
0.0
  0
POINT
  5
1ED
330
1E3
100
AcDbEntity
  8
DEFPOINTS
 62
     0
100
AcDbPoint
 10
1232.811401
 20
686.0000000000001
 30
0.0
  0
POINT
  5
1EE
330
1E3
100
AcDbEntity
  8
DEFPOINTS
 62
     0
100
AcDbPoint
 10
1232.811401
 20
612.2000000000002
 30
0.0
  0
ENDBLK
  5
1E5
330
1E3
100
AcDbEntity
  8
0
100
AcDbBlockEnd
  0
BLOCK
  5
1F1
330
1F0
100
AcDbEntity
  8
0
100
AcDbBlockBegin
  2
*D30
 70
     1
 10
0.0
 20
0.0
 30
0.0
  3
*D30
  1

  0
LINE
  5
1F3
330
1F0
100
AcDbEntity
  8
調整材穴有475_492_502_
  6
CONTINUOUS
 62
     1
100
AcDbLine
 10
1238.811401
 20
686.0000000000001
 30
0.0
 11
1337.302026
 21
686.0000000000002
 31
0.0
  0
LINE
  5
1F4
330
1F0
100
AcDbEntity
  8
調整材穴有475_492_502_
  6
CONTINUOUS
 62
     1
100
AcDbLine
 10
1238.811401
 20
1168.0
 30
0.0
 11
1337.302026
 21
1168.0
 31
0.0
  0
LINE
  5
1F5
330
1F0
100
AcDbEntity
  8
調整材穴有475_492_502_
  6
CONTINUOUS
 62
     1
100
AcDbLine
 10
1331.302026
 20
698.0000000000002
 30
0.0
 11
1331.302026
 21
1156.0
 31
0.0
  0
INSERT
  5
1F6
330
1F0
100
AcDbEntity
  8
調整材穴有475_492_502_
 62
     1
100
AcDbBlockReference
  2
EX_BNORM
 10
1331.302026
 20
686.0000000000002
 30
0.0
 41
12.0
 42
12.0
 43
12.0
 50
270.0
  0
INSERT
  5
1F7
330
1F0
100
AcDbEntity
  8
調整材穴有475_492_502_
 62
     1
100
AcDbBlockReference
  2
EX_BNORM
 10
1331.302026
 20
1168.0
 30
0.0
 41
12.0
 42
12.0
 43
12.0
 50
90.0
  0
MTEXT
  5
1F8
330
1F0
100
AcDbEntity
  8
調整材穴有475_492_502_
 62
     1
100
AcDbMText
 10
1323.302026
 20
927.0
 30
0.0
 40
9.3543312
 41
0.0
 71
     5
 72
     1
  1
482
  7
EXCADDIM1
 11
0.0
 21
1.0
 31
0.0
  0
POINT
  5
1F9
330
1F0
100
AcDbEntity
  8
DEFPOINTS
 62
     0
100
AcDbPoint
 10
1232.811401
 20
686.0000000000001
 30
0.0
  0
POINT
  5
1FA
330
1F0
100
AcDbEntity
  8
DEFPOINTS
 62
     0
100
AcDbPoint
 10
1232.811401
 20
1168.0
 30
0.0
  0
POINT
  5
1FB
330
1F0
100
AcDbEntity
  8
DEFPOINTS
 62
     0
100
AcDbPoint
 10
1331.302026
 20
1168.0
 30
0.0
  0
ENDBLK
  5
1F2
330
1F0
100
AcDbEntity
  8
0
100
AcDbBlockEnd
  0
BLOCK
  5
207
330
206
100
AcDbEntity
  8
0
100
AcDbBlockBegin
  2
*D31
 70
     1
 10
0.0
 20
0.0
 30
0.0
  3
*D31
  1

  0
LINE
  5
209
330
206
100
AcDbEntity
  8
調整材穴有475_492_502_
  6
CONTINUOUS
 62
     1
100
AcDbLine
 10
1968.9
 20
1112.0
 30
0.0
 11
2082.6
 21
1112.0
 31
0.0
  0
LINE
  5
20A
330
206
100
AcDbEntity
  8
調整材穴有475_492_502_
  6
CONTINUOUS
 62
     1
100
AcDbLine
 10
1968.9
 20
742.0
 30
0.0
 11
2082.6
 21
742.0
 31
0.0
  0
LINE
  5
20B
330
206
100
AcDbEntity
  8
調整材穴有475_492_502_
  6
CONTINUOUS
 62
     1
100
AcDbLine
 10
2076.6
 20
1100.0
 30
0.0
 11
2076.6
 21
754.0
 31
0.0
  0
INSERT
  5
20C
330
206
100
AcDbEntity
  8
調整材穴有475_492_502_
 62
     1
100
AcDbBlockReference
  2
EX_BNORM
 10
2076.6
 20
1112.0
 30
0.0
 41
12.0
 42
12.0
 43
12.0
 50
90.0
  0
INSERT
  5
20D
330
206
100
AcDbEntity
  8
調整材穴有475_492_502_
 62
     1
100
AcDbBlockReference
  2
EX_BNORM
 10
2076.6
 20
742.0
 30
0.0
 41
12.0
 42
12.0
 43
12.0
 50
270.0
  0
MTEXT
  5
20E
330
206
100
AcDbEntity
  8
調整材穴有475_492_502_
 62
     1
100
AcDbMText
 10
2068.6
 20
927.0
 30
0.0
 40
9.3543312
 41
0.0
 71
     5
 72
     1
  1
370
  7
EXCADDIM1
 11
0.0
 21
1.0
 31
0.0
  0
POINT
  5
20F
330
206
100
AcDbEntity
  8
DEFPOINTS
 62
     0
100
AcDbPoint
 10
1962.9
 20
1112.0
 30
0.0
  0
POINT
  5
210
330
206
100
AcDbEntity
  8
DEFPOINTS
 62
     0
100
AcDbPoint
 10
1962.9
 20
742.0
 30
0.0
  0
POINT
  5
211
330
206
100
AcDbEntity
  8
DEFPOINTS
 62
     0
100
AcDbPoint
 10
2076.6
 20
742.0
 30
0.0
  0
ENDBLK
  5
208
330
206
100
AcDbEntity
  8
0
100
AcDbBlockEnd
  0
BLOCK
  5
214
330
213
100
AcDbEntity
  8
0
100
AcDbBlockBegin
  2
*D32
 70
     1
 10
0.0
 20
0.0
 30
0.0
  3
*D32
  1

  0
LINE
  5
216
330
213
100
AcDbEntity
  8
調整材穴有475_492_502_
  6
CONTINUOUS
 62
     1
100
AcDbLine
 10
1987.90564
 20
1173.0
 30
0.0
 11
2112.6
 21
1173.0
 31
0.0
  0
LINE
  5
217
330
213
100
AcDbEntity
  8
調整材穴有475_492_502_
  6
CONTINUOUS
 62
     1
100
AcDbLine
 10
1987.90564
 20
1168.0
 30
0.0
 11
2112.6
 21
1168.0
 31
0.0
  0
LINE
  5
218
330
213
100
AcDbEntity
  8
調整材穴有475_492_502_
  6
CONTINUOUS
 62
     1
100
AcDbLine
 10
2106.6
 20
1173.0
 30
0.0
 11
2106.6
 21
1168.0
 31
0.0
  0
LINE
  5
219
330
213
100
AcDbEntity
  8
調整材穴有475_492_502_
  6
CONTINUOUS
 62
     1
100
AcDbLine
 10
2106.6
 20
1185.0
 30
0.0
 11
2106.6
 21
1197.0
 31
0.0
  0
LINE
  5
21A
330
213
100
AcDbEntity
  8
調整材穴有475_492_502_
  6
CONTINUOUS
 62
     1
100
AcDbLine
 10
2106.6
 20
1156.0
 30
0.0
 11
2106.6
 21
1144.0
 31
0.0
  0
INSERT
  5
21B
330
213
100
AcDbEntity
  8
調整材穴有475_492_502_
 62
     1
100
AcDbBlockReference
  2
EX_BNORM
 10
2106.6
 20
1173.0
 30
0.0
 41
12.0
 42
12.0
 43
12.0
 50
270.0
  0
INSERT
  5
21C
330
213
100
AcDbEntity
  8
調整材穴有475_492_502_
 62
     1
100
AcDbBlockReference
  2
EX_BNORM
 10
2106.6
 20
1168.0
 30
0.0
 41
12.0
 42
12.0
 43
12.0
 50
90.0
  0
MTEXT
  5
21D
330
213
100
AcDbEntity
  8
調整材穴有475_492_502_
 62
     1
100
AcDbMText
 10
2098.75437
 20
1189.6
 30
0.0
 40
9.3543312
 41
0.0
 71
     5
 72
     1
  1
5
  7
EXCADDIM1
 11
-3.828568698926949E-16
 21
1.0
 31
0.0
  0
POINT
  5
21E
330
213
100
AcDbEntity
  8
DEFPOINTS
 62
     0
100
AcDbPoint
 10
1981.90564
 20
1173.0
 30
0.0
  0
POINT
  5
21F
330
213
100
AcDbEntity
  8
DEFPOINTS
 62
     0
100
AcDbPoint
 10
1981.90564
 20
1168.0
 30
0.0
  0
POINT
  5
220
330
213
100
AcDbEntity
  8
DEFPOINTS
 62
     0
100
AcDbPoint
 10
2106.6
 20
1168.0
 30
0.0
  0
ENDBLK
  5
215
330
213
100
AcDbEntity
  8
0
100
AcDbBlockEnd
  0
BLOCK
  5
223
330
222
100
AcDbEntity
  8
0
100
AcDbBlockBegin
  2
*D33
 70
     1
 10
0.0
 20
0.0
 30
0.0
  3
*D33
  1

  0
LINE
  5
225
330
222
100
AcDbEntity
  8
調整材穴有475_492_502_
  6
CONTINUOUS
 62
     1
100
AcDbLine
 10
1987.90564
 20
686.0
 30
0.0
 11
2112.6
 21
686.0
 31
0.0
  0
LINE
  5
226
330
222
100
AcDbEntity
  8
調整材穴有475_492_502_
  6
CONTINUOUS
 62
     1
100
AcDbLine
 10
1987.90564
 20
681.0
 30
0.0
 11
2112.6
 21
681.0
 31
0.0
  0
LINE
  5
227
330
222
100
AcDbEntity
  8
調整材穴有475_492_502_
  6
CONTINUOUS
 62
     1
100
AcDbLine
 10
2106.6
 20
686.0
 30
0.0
 11
2106.6
 21
681.0
 31
0.0
  0
LINE
  5
228
330
222
100
AcDbEntity
  8
調整材穴有475_492_502_
  6
CONTINUOUS
 62
     1
100
AcDbLine
 10
2106.6
 20
698.0
 30
0.0
 11
2106.6
 21
710.0
 31
0.0
  0
LINE
  5
229
330
222
100
AcDbEntity
  8
調整材穴有475_492_502_
  6
CONTINUOUS
 62
     1
100
AcDbLine
 10
2106.6
 20
669.0
 30
0.0
 11
2106.6
 21
657.0
 31
0.0
  0
INSERT
  5
22A
330
222
100
AcDbEntity
  8
調整材穴有475_492_502_
 62
     1
100
AcDbBlockReference
  2
EX_BNORM
 10
2106.6
 20
686.0
 30
0.0
 41
12.0
 42
12.0
 43
12.0
 50
270.0
  0
INSERT
  5
22B
330
222
100
AcDbEntity
  8
調整材穴有475_492_502_
 62
     1
100
AcDbBlockReference
  2
EX_BNORM
 10
2106.6
 20
681.0
 30
0.0
 41
12.0
 42
12.0
 43
12.0
 50
90.0
  0
MTEXT
  5
22C
330
222
100
AcDbEntity
  8
調整材穴有475_492_502_
 62
     1
100
AcDbMText
 10
2099.654370000001
 20
660.5
 30
0.0
 40
9.3543312
 41
0.0
 71
     5
 72
     1
  1
5
  7
EXCADDIM1
 11
-3.828568698926949E-16
 21
1.0
 31
0.0
  0
POINT
  5
22D
330
222
100
AcDbEntity
  8
DEFPOINTS
 62
     0
100
AcDbPoint
 10
1981.90564
 20
686.0
 30
0.0
  0
POINT
  5
22E
330
222
100
AcDbEntity
  8
DEFPOINTS
 62
     0
100
AcDbPoint
 10
1981.90564
 20
681.0
 30
0.0
  0
POINT
  5
22F
330
222
100
AcDbEntity
  8
DEFPOINTS
 62
     0
100
AcDbPoint
 10
2106.6
 20
681.0
 30
0.0
  0
ENDBLK
  5
224
330
222
100
AcDbEntity
  8
0
100
AcDbBlockEnd
  0
BLOCK
  5
232
330
231
100
AcDbEntity
  8
0
100
AcDbBlockBegin
  2
*D34
 70
     1
 10
0.0
 20
0.0
 30
0.0
  3
*D34
  1

  0
LINE
  5
234
330
231
100
AcDbEntity
  8
調整材穴有475_492_502_
  6
CONTINUOUS
 62
     1
100
AcDbLine
 10
2106.6
 20
1156.0
 30
0.0
 11
2106.6
 21
698.0
 31
0.0
  0
INSERT
  5
235
330
231
100
AcDbEntity
  8
調整材穴有475_492_502_
 62
     1
100
AcDbBlockReference
  2
EX_BNORM
 10
2106.6
 20
1168.0
 30
0.0
 41
12.0
 42
12.0
 43
12.0
 50
90.0
  0
INSERT
  5
236
330
231
100
AcDbEntity
  8
調整材穴有475_492_502_
 62
     1
100
AcDbBlockReference
  2
EX_BNORM
 10
2106.6
 20
686.0
 30
0.0
 41
12.0
 42
12.0
 43
12.0
 50
270.0
  0
MTEXT
  5
237
330
231
100
AcDbEntity
  8
調整材穴有475_492_502_
 62
     1
100
AcDbMText
 10
2098.6
 20
927.0
 30
0.0
 40
9.3543312
 41
0.0
 71
     5
 72
     1
  1
482
  7
EXCADDIM1
 11
0.0
 21
1.0
 31
0.0
  0
POINT
  5
238
330
231
100
AcDbEntity
  8
DEFPOINTS
 62
     0
100
AcDbPoint
 10
2005.50564
 20
1168.0
 30
0.0
  0
POINT
  5
239
330
231
100
AcDbEntity
  8
DEFPOINTS
 62
     0
100
AcDbPoint
 10
2005.50564
 20
686.0
 30
0.0
  0
POINT
  5
23A
330
231
100
AcDbEntity
  8
DEFPOINTS
 62
     0
100
AcDbPoint
 10
2106.6
 20
686.0
 30
0.0
  0
ENDBLK
  5
233
330
231
100
AcDbEntity
  8
0
100
AcDbBlockEnd
  0
BLOCK
  5
23D
330
23C
100
AcDbEntity
  8
0
100
AcDbBlockBegin
  2
*D35
 70
     1
 10
0.0
 20
0.0
 30
0.0
  3
*D35
  1

  0
LINE
  5
23F
330
23C
100
AcDbEntity
  8
調整材穴有475_492_502_
  6
CONTINUOUS
 62
     1
100
AcDbLine
 10
1506.90564
 20
675.0
 30
0.0
 11
1506.90564
 21
546.4
 31
0.0
  0
LINE
  5
240
330
23C
100
AcDbEntity
  8
調整材穴有475_492_502_
  6
CONTINUOUS
 62
     1
100
AcDbLine
 10
1981.90564
 20
675.0
 30
0.0
 11
1981.90564
 21
546.4
 31
0.0
  0
LINE
  5
241
330
23C
100
AcDbEntity
  8
調整材穴有475_492_502_
  6
CONTINUOUS
 62
     1
100
AcDbLine
 10
1518.90564
 20
552.4
 30
0.0
 11
1969.90564
 21
552.4
 31
0.0
  0
INSERT
  5
242
330
23C
100
AcDbEntity
  8
調整材穴有475_492_502_
 62
     1
100
AcDbBlockReference
  2
EX_BNORM
 10
1506.90564
 20
552.4
 30
0.0
 41
12.0
 42
12.0
 43
12.0
 50
180.0
  0
INSERT
  5
243
330
23C
100
AcDbEntity
  8
調整材穴有475_492_502_
 62
     1
100
AcDbBlockReference
  2
EX_BNORM
 10
1981.90564
 20
552.4
 30
0.0
 41
12.0
 42
12.0
 43
12.0
  0
MTEXT
  5
244
330
23C
100
AcDbEntity
  8
調整材穴有475_492_502_
 62
     1
100
AcDbMText
 10
1744.40564
 20
560.4
 30
0.0
 40
9.3543312
 41
0.0
 71
     5
 72
     1
  1
475
  7
EXCADDIM1
  0
POINT
  5
245
330
23C
100
AcDbEntity
  8
DEFPOINTS
 62
     0
100
AcDbPoint
 10
1506.90564
 20
681.0
 30
0.0
  0
POINT
  5
246
330
23C
100
AcDbEntity
  8
DEFPOINTS
 62
     0
100
AcDbPoint
 10
1981.90564
 20
681.0
 30
0.0
  0
POINT
  5
247
330
23C
100
AcDbEntity
  8
DEFPOINTS
 62
     0
100
AcDbPoint
 10
1981.90564
 20
552.4
 30
0.0
  0
ENDBLK
  5
23E
330
23C
100
AcDbEntity
  8
0
100
AcDbBlockEnd
  0
BLOCK
  5
24A
330
249
100
AcDbEntity
  8
0
100
AcDbBlockBegin
  2
*D36
 70
     1
 10
0.0
 20
0.0
 30
0.0
  3
*D36
  1

  0
LINE
  5
24C
330
249
100
AcDbEntity
  8
調整材穴有475_492_502_
  6
CONTINUOUS
 62
     1
100
AcDbLine
 10
1549.40564
 20
715.0
 30
0.0
 11
1549.40564
 21
586.4
 31
0.0
  0
LINE
  5
24D
330
249
100
AcDbEntity
  8
調整材穴有475_492_502_
  6
CONTINUOUS
 62
     1
100
AcDbLine
 10
1939.40564
 20
715.0
 30
0.0
 11
1939.40564
 21
586.4
 31
0.0
  0
LINE
  5
24E
330
249
100
AcDbEntity
  8
調整材穴有475_492_502_
  6
CONTINUOUS
 62
     1
100
AcDbLine
 10
1561.40564
 20
592.4
 30
0.0
 11
1927.40564
 21
592.4
 31
0.0
  0
INSERT
  5
24F
330
249
100
AcDbEntity
  8
調整材穴有475_492_502_
 62
     1
100
AcDbBlockReference
  2
EX_BNORM
 10
1549.40564
 20
592.4
 30
0.0
 41
12.0
 42
12.0
 43
12.0
 50
180.0
  0
INSERT
  5
250
330
249
100
AcDbEntity
  8
調整材穴有475_492_502_
 62
     1
100
AcDbBlockReference
  2
EX_BNORM
 10
1939.40564
 20
592.4
 30
0.0
 41
12.0
 42
12.0
 43
12.0
  0
MTEXT
  5
251
330
249
100
AcDbEntity
  8
調整材穴有475_492_502_
 62
     1
100
AcDbMText
 10
1744.40564
 20
600.4
 30
0.0
 40
9.3543312
 41
0.0
 71
     5
 72
     1
  1
390
  7
EXCADDIM1
  0
POINT
  5
252
330
249
100
AcDbEntity
  8
DEFPOINTS
 62
     0
100
AcDbPoint
 10
1549.40564
 20
721.0
 30
0.0
  0
POINT
  5
253
330
249
100
AcDbEntity
  8
DEFPOINTS
 62
     0
100
AcDbPoint
 10
1939.40564
 20
721.0
 30
0.0
  0
POINT
  5
254
330
249
100
AcDbEntity
  8
DEFPOINTS
 62
     0
100
AcDbPoint
 10
1939.40564
 20
592.4
 30
0.0
  0
ENDBLK
  5
24B
330
249
100
AcDbEntity
  8
0
100
AcDbBlockEnd
  0
BLOCK
  5
260
330
25F
100
AcDbEntity
  8
0
100
AcDbBlockBegin
  2
*D37
 70
     1
 10
0.0
 20
0.0
 30
0.0
  3
*D37
  1

  0
LINE
  5
262
330
25F
100
AcDbEntity
  8
調整材穴有475_492_502_
  6
CONTINUOUS
 62
     1
100
AcDbLine
 10
1720.40564
 20
866.9999674453028
 30
0.0
 11
1668.0
 21
866.9999674453028
 31
0.0
  0
LINE
  5
263
330
25F
100
AcDbEntity
  8
調整材穴有475_492_502_
  6
CONTINUOUS
 62
     1
100
AcDbLine
 10
1674.0
 20
718.0
 30
0.0
 11
1674.0
 21
854.9999674453028
 31
0.0
  0
INSERT
  5
264
330
25F
100
AcDbEntity
  8
調整材穴有475_492_502_
 62
     1
100
AcDbBlockReference
  2
EX_BNORM
 10
1674.0
 20
706.0
 30
0.0
 41
12.0
 42
12.0
 43
12.0
 50
270.0
  0
INSERT
  5
265
330
25F
100
AcDbEntity
  8
調整材穴有475_492_502_
 62
     1
100
AcDbBlockReference
  2
EX_BNORM
 10
1674.0
 20
866.9999674453028
 30
0.0
 41
12.0
 42
12.0
 43
12.0
 50
90.0
  0
MTEXT
  5
266
330
25F
100
AcDbEntity
  8
調整材穴有475_492_502_
 62
     1
100
AcDbMText
 10
1666.0
 20
786.4999837226515
 30
0.0
 40
9.3543312
 41
0.0
 71
     5
 72
     1
  1
161
  7
EXCADDIM1
 11
0.0
 21
1.0
 31
0.0
  0
POINT
  5
267
330
25F
100
AcDbEntity
  8
DEFPOINTS
 62
     0
100
AcDbPoint
 10
1728.40564
 20
706.0
 30
0.0
  0
POINT
  5
268
330
25F
100
AcDbEntity
  8
DEFPOINTS
 62
     0
100
AcDbPoint
 10
1728.40564
 20
866.9999674453028
 30
0.0
  0
POINT
  5
269
330
25F
100
AcDbEntity
  8
DEFPOINTS
 62
     0
100
AcDbPoint
 10
1674.0
 20
866.9999674453028
 30
0.0
  0
ENDBLK
  5
261
330
25F
100
AcDbEntity
  8
0
100
AcDbBlockEnd
  0
BLOCK
  5
26C
330
26B
100
AcDbEntity
  8
0
100
AcDbBlockBegin
  2
*D38
 70
     1
 10
0.0
 20
0.0
 30
0.0
  3
*D38
  1

  0
LINE
  5
26E
330
26B
100
AcDbEntity
  8
調整材穴有475_492_502_
  6
CONTINUOUS
 62
     1
100
AcDbLine
 10
1720.40564
 20
987.0000000000001
 30
0.0
 11
1668.0
 21
987.0000000000001
 31
0.0
  0
LINE
  5
26F
330
26B
100
AcDbEntity
  8
調整材穴有475_492_502_
  6
CONTINUOUS
 62
     1
100
AcDbLine
 10
1674.0
 20
878.9999674453028
 30
0.0
 11
1674.0
 21
975.0000000000001
 31
0.0
  0
INSERT
  5
270
330
26B
100
AcDbEntity
  8
調整材穴有475_492_502_
 62
     1
100
AcDbBlockReference
  2
EX_BNORM
 10
1674.0
 20
866.9999674453028
 30
0.0
 41
12.0
 42
12.0
 43
12.0
 50
270.0
  0
INSERT
  5
271
330
26B
100
AcDbEntity
  8
調整材穴有475_492_502_
 62
     1
100
AcDbBlockReference
  2
EX_BNORM
 10
1674.0
 20
987.0000000000001
 30
0.0
 41
12.0
 42
12.0
 43
12.0
 50
90.0
  0
MTEXT
  5
272
330
26B
100
AcDbEntity
  8
調整材穴有475_492_502_
 62
     1
100
AcDbMText
 10
1665.4
 20
963.2999837226514
 30
0.0
 40
9.3543312
 41
0.0
 71
     5
 72
     1
  1
120
  7
EXCADDIM1
 11
-3.828568698926949E-16
 21
1.0
 31
0.0
  0
POINT
  5
273
330
26B
100
AcDbEntity
  8
DEFPOINTS
 62
     0
100
AcDbPoint
 10
1728.40564
 20
866.9999674453028
 30
0.0
  0
POINT
  5
274
330
26B
100
AcDbEntity
  8
DEFPOINTS
 62
     0
100
AcDbPoint
 10
1726.40564
 20
987.0000000000001
 30
0.0
  0
POINT
  5
275
330
26B
100
AcDbEntity
  8
DEFPOINTS
 62
     0
100
AcDbPoint
 10
1674.0
 20
987.0000000000001
 30
0.0
  0
ENDBLK
  5
26D
330
26B
100
AcDbEntity
  8
0
100
AcDbBlockEnd
  0
BLOCK
  5
278
330
277
100
AcDbEntity
  8
0
100
AcDbBlockBegin
  2
*D39
 70
     1
 10
0.0
 20
0.0
 30
0.0
  3
*D39
  1

  0
LINE
  5
27A
330
277
100
AcDbEntity
  8
調整材穴有475_492_502_
  6
CONTINUOUS
 62
     1
100
AcDbLine
 10
1674.0
 20
999.0000000000002
 30
0.0
 11
1674.0
 21
1136.0
 31
0.0
  0
INSERT
  5
27B
330
277
100
AcDbEntity
  8
調整材穴有475_492_502_
 62
     1
100
AcDbBlockReference
  2
EX_BNORM
 10
1674.0
 20
987.0000000000002
 30
0.0
 41
12.0
 42
12.0
 43
12.0
 50
270.0
  0
INSERT
  5
27C
330
277
100
AcDbEntity
  8
調整材穴有475_492_502_
 62
     1
100
AcDbBlockReference
  2
EX_BNORM
 10
1674.0
 20
1148.0
 30
0.0
 41
12.0
 42
12.0
 43
12.0
 50
90.0
  0
MTEXT
  5
27D
330
277
100
AcDbEntity
  8
調整材穴有475_492_502_
 62
     1
100
AcDbMText
 10
1666.0
 20
1067.5
 30
0.0
 40
9.3543312
 41
0.0
 71
     5
 72
     1
  1
161
  7
EXCADDIM1
 11
0.0
 21
1.0
 31
0.0
  0
POINT
  5
27E
330
277
100
AcDbEntity
  8
DEFPOINTS
 62
     0
100
AcDbPoint
 10
1728.40564
 20
987.0000000000001
 30
0.0
  0
POINT
  5
27F
330
277
100
AcDbEntity
  8
DEFPOINTS
 62
     0
100
AcDbPoint
 10
1728.40564
 20
1148.0
 30
0.0
  0
POINT
  5
280
330
277
100
AcDbEntity
  8
DEFPOINTS
 62
     0
100
AcDbPoint
 10
1674.0
 20
1148.0
 30
0.0
  0
ENDBLK
  5
279
330
277
100
AcDbEntity
  8
0
100
AcDbBlockEnd
  0
BLOCK
  5
283
330
282
100
AcDbEntity
  8
0
100
AcDbBlockBegin
  2
*D40
 70
     1
 10
0.0
 20
0.0
 30
0.0
  3
*D40
  1

  0
LINE
  5
285
330
282
100
AcDbEntity
  8
調整材穴有475_492_502_
  6
CONTINUOUS
 62
     1
100
AcDbLine
 10
1644.405639999999
 20
905.0000000000001
 30
0.0
 11
1644.405639999999
 21
820.0000000000001
 31
0.0
  0
LINE
  5
286
330
282
100
AcDbEntity
  8
調整材穴有475_492_502_
  6
CONTINUOUS
 62
     1
100
AcDbLine
 10
1518.905701
 20
826.0000000000001
 30
0.0
 11
1632.405639999999
 21
826.0000000000001
 31
0.0
  0
INSERT
  5
287
330
282
100
AcDbEntity
  8
調整材穴有475_492_502_
 62
     1
100
AcDbBlockReference
  2
EX_BNORM
 10
1506.905701
 20
826.0000000000001
 30
0.0
 41
12.0
 42
12.0
 43
12.0
 50
180.0
  0
INSERT
  5
288
330
282
100
AcDbEntity
  8
調整材穴有475_492_502_
 62
     1
100
AcDbBlockReference
  2
EX_BNORM
 10
1644.405639999999
 20
826.0000000000001
 30
0.0
 41
12.0
 42
12.0
 43
12.0
  0
MTEXT
  5
289
330
282
100
AcDbEntity
  8
調整材穴有475_492_502_
 62
     1
100
AcDbMText
 10
1575.6556705
 20
834.0000000000001
 30
0.0
 40
9.3543312
 41
0.0
 71
     5
 72
     1
  1
137.5
  7
EXCADDIM1
  0
POINT
  5
28A
330
282
100
AcDbEntity
  8
DEFPOINTS
 62
     0
100
AcDbPoint
 10
1506.905701
 20
911.0000000000001
 30
0.0
  0
POINT
  5
28B
330
282
100
AcDbEntity
  8
DEFPOINTS
 62
     0
100
AcDbPoint
 10
1644.405639999999
 20
911.0000000000001
 30
0.0
  0
POINT
  5
28C
330
282
100
AcDbEntity
  8
DEFPOINTS
 62
     0
100
AcDbPoint
 10
1644.405639999999
 20
826.0000000000001
 30
0.0
  0
ENDBLK
  5
284
330
282
100
AcDbEntity
  8
0
100
AcDbBlockEnd
  0
BLOCK
  5
28F
330
28E
100
AcDbEntity
  8
0
100
AcDbBlockBegin
  2
*D41
 70
     1
 10
0.0
 20
0.0
 30
0.0
  3
*D41
  1

  0
LINE
  5
291
330
28E
100
AcDbEntity
  8
調整材穴有475_492_502_
  6
CONTINUOUS
 62
     1
100
AcDbLine
 10
1844.405640000001
 20
905.0000000000001
 30
0.0
 11
1844.405640000001
 21
820.0000000000001
 31
0.0
  0
LINE
  5
292
330
28E
100
AcDbEntity
  8
調整材穴有475_492_502_
  6
CONTINUOUS
 62
     1
100
AcDbLine
 10
1656.405639999999
 20
826.0000000000001
 30
0.0
 11
1832.405640000001
 21
826.0000000000001
 31
0.0
  0
INSERT
  5
293
330
28E
100
AcDbEntity
  8
調整材穴有475_492_502_
 62
     1
100
AcDbBlockReference
  2
EX_BNORM
 10
1644.405639999999
 20
826.0000000000001
 30
0.0
 41
12.0
 42
12.0
 43
12.0
 50
180.0
  0
INSERT
  5
294
330
28E
100
AcDbEntity
  8
調整材穴有475_492_502_
 62
     1
100
AcDbBlockReference
  2
EX_BNORM
 10
1844.405640000001
 20
826.0000000000001
 30
0.0
 41
12.0
 42
12.0
 43
12.0
  0
MTEXT
  5
295
330
28E
100
AcDbEntity
  8
調整材穴有475_492_502_
 62
     1
100
AcDbMText
 10
1791.40564
 20
835.0000000000001
 30
0.0
 40
9.3543312
 41
0.0
 71
     5
 72
     1
  1
200
  7
EXCADDIM1
  0
POINT
  5
296
330
28E
100
AcDbEntity
  8
DEFPOINTS
 62
     0
100
AcDbPoint
 10
1644.405639999999
 20
911.0000000000001
 30
0.0
  0
POINT
  5
297
330
28E
100
AcDbEntity
  8
DEFPOINTS
 62
     0
100
AcDbPoint
 10
1844.405640000001
 20
911.0000000000001
 30
0.0
  0
POINT
  5
298
330
28E
100
AcDbEntity
  8
DEFPOINTS
 62
     0
100
AcDbPoint
 10
1844.405640000001
 20
826.0000000000001
 30
0.0
  0
ENDBLK
  5
290
330
28E
100
AcDbEntity
  8
0
100
AcDbBlockEnd
  0
BLOCK
  5
29B
330
29A
100
AcDbEntity
  8
0
100
AcDbBlockBegin
  2
*D42
 70
     1
 10
0.0
 20
0.0
 30
0.0
  3
*D42
  1

  0
LINE
  5
29D
330
29A
100
AcDbEntity
  8
調整材穴有475_492_502_
  6
CONTINUOUS
 62
     1
100
AcDbLine
 10
1856.405640000001
 20
826.0000000000001
 30
0.0
 11
1969.90564
 21
826.0000000000001
 31
0.0
  0
INSERT
  5
29E
330
29A
100
AcDbEntity
  8
調整材穴有475_492_502_
 62
     1
100
AcDbBlockReference
  2
EX_BNORM
 10
1844.405640000001
 20
826.0000000000001
 30
0.0
 41
12.0
 42
12.0
 43
12.0
 50
180.0
  0
INSERT
  5
29F
330
29A
100
AcDbEntity
  8
調整材穴有475_492_502_
 62
     1
100
AcDbBlockReference
  2
EX_BNORM
 10
1981.90564
 20
826.0000000000001
 30
0.0
 41
12.0
 42
12.0
 43
12.0
  0
MTEXT
  5
2A0
330
29A
100
AcDbEntity
  8
調整材穴有475_492_502_
 62
     1
100
AcDbMText
 10
1913.15564
 20
834.0000000000001
 30
0.0
 40
9.3543312
 41
0.0
 71
     5
 72
     1
  1
137.5
  7
EXCADDIM1
  0
POINT
  5
2A1
330
29A
100
AcDbEntity
  8
DEFPOINTS
 62
     0
100
AcDbPoint
 10
1844.405640000001
 20
911.0000000000001
 30
0.0
  0
POINT
  5
2A2
330
29A
100
AcDbEntity
  8
DEFPOINTS
 62
     0
100
AcDbPoint
 10
1981.90564
 20
911.0000000000001
 30
0.0
  0
POINT
  5
2A3
330
29A
100
AcDbEntity
  8
DEFPOINTS
 62
     0
100
AcDbPoint
 10
1981.90564
 20
826.0000000000001
 30
0.0
  0
ENDBLK
  5
29C
330
29A
100
AcDbEntity
  8
0
100
AcDbBlockEnd
  0
BLOCK
  5
2EC
330
2EB
100
AcDbEntity
  8
0
100
AcDbBlockBegin
  2
*D43
 70
     1
 10
0.0
 20
0.0
 30
0.0
  3
*D43
  1

  0
LINE
  5
2EE
330
2EB
100
AcDbEntity
  8
調整材穴有475_492_502_
  6
CONTINUOUS
 62
     1
100
AcDbLine
 10
401.0
 20
750.7000000000002
 30
0.0
 11
401.0
 21
613.0
 31
0.0
  0
LINE
  5
2EF
330
2EB
100
AcDbEntity
  8
調整材穴有475_492_502_
  6
CONTINUOUS
 62
     1
100
AcDbLine
 10
551.0
 20
750.7000000000002
 30
0.0
 11
551.0
 21
613.0
 31
0.0
  0
LINE
  5
2F0
330
2EB
100
AcDbEntity
  8
調整材穴有475_492_502_
  6
CONTINUOUS
 62
     1
100
AcDbLine
 10
413.0
 20
619.0
 30
0.0
 11
539.0
 21
619.0
 31
0.0
  0
INSERT
  5
2F1
330
2EB
100
AcDbEntity
  8
調整材穴有475_492_502_
 62
     1
100
AcDbBlockReference
  2
EX_BNORM
 10
401.0
 20
619.0
 30
0.0
 41
12.0
 42
12.0
 43
12.0
 50
180.0
  0
INSERT
  5
2F2
330
2EB
100
AcDbEntity
  8
調整材穴有475_492_502_
 62
     1
100
AcDbBlockReference
  2
EX_BNORM
 10
551.0
 20
619.0
 30
0.0
 41
12.0
 42
12.0
 43
12.0
  0
MTEXT
  5
2F3
330
2EB
100
AcDbEntity
  8
調整材穴有475_492_502_
 62
     1
100
AcDbMText
 10
476.0000000000001
 20
627.0
 30
0.0
 40
9.3543312
 41
0.0
 71
     5
 72
     1
  1
150
  7
EXCADDIM1
  0
POINT
  5
2F4
330
2EB
100
AcDbEntity
  8
DEFPOINTS
 62
     0
100
AcDbPoint
 10
401.0
 20
756.7000000000002
 30
0.0
  0
POINT
  5
2F5
330
2EB
100
AcDbEntity
  8
DEFPOINTS
 62
     0
100
AcDbPoint
 10
551.0
 20
756.7000000000002
 30
0.0
  0
POINT
  5
2F6
330
2EB
100
AcDbEntity
  8
DEFPOINTS
 62
     0
100
AcDbPoint
 10
551.0
 20
619.0
 30
0.0
  0
ENDBLK
  5
2ED
330
2EB
100
AcDbEntity
  8
0
100
AcDbBlockEnd
  0
BLOCK
  5
2F9
330
2F8
100
AcDbEntity
  8
0
100
AcDbBlockBegin
  2
*D44
 70
     1
 10
0.0
 20
0.0
 30
0.0
  3
*D44
  1

  0
LINE
  5
2FB
330
2F8
100
AcDbEntity
  8
調整材穴有475_492_502_
  6
CONTINUOUS
 62
     1
100
AcDbLine
 10
376.0
 20
800.7000000000002
 30
0.0
 11
376.0
 21
580.0
 31
0.0
  0
LINE
  5
2FC
330
2F8
100
AcDbEntity
  8
調整材穴有475_492_502_
  6
CONTINUOUS
 62
     1
100
AcDbLine
 10
576.0
 20
800.7000000000002
 30
0.0
 11
576.0
 21
580.0
 31
0.0
  0
LINE
  5
2FD
330
2F8
100
AcDbEntity
  8
調整材穴有475_492_502_
  6
CONTINUOUS
 62
     1
100
AcDbLine
 10
388.0
 20
586.0
 30
0.0
 11
564.0
 21
586.0
 31
0.0
  0
INSERT
  5
2FE
330
2F8
100
AcDbEntity
  8
調整材穴有475_492_502_
 62
     1
100
AcDbBlockReference
  2
EX_BNORM
 10
376.0
 20
586.0
 30
0.0
 41
12.0
 42
12.0
 43
12.0
 50
180.0
  0
INSERT
  5
2FF
330
2F8
100
AcDbEntity
  8
調整材穴有475_492_502_
 62
     1
100
AcDbBlockReference
  2
EX_BNORM
 10
576.0
 20
586.0
 30
0.0
 41
12.0
 42
12.0
 43
12.0
  0
MTEXT
  5
300
330
2F8
100
AcDbEntity
  8
調整材穴有475_492_502_
 62
     1
100
AcDbMText
 10
476.0000000000001
 20
594.0
 30
0.0
 40
9.3543312
 41
0.0
 71
     5
 72
     1
  1
200
  7
EXCADDIM1
  0
POINT
  5
301
330
2F8
100
AcDbEntity
  8
DEFPOINTS
 62
     0
100
AcDbPoint
 10
376.0
 20
806.7000000000002
 30
0.0
  0
POINT
  5
302
330
2F8
100
AcDbEntity
  8
DEFPOINTS
 62
     0
100
AcDbPoint
 10
576.0
 20
806.7000000000002
 30
0.0
  0
POINT
  5
303
330
2F8
100
AcDbEntity
  8
DEFPOINTS
 62
     0
100
AcDbPoint
 10
576.0
 20
586.0
 30
0.0
  0
ENDBLK
  5
2FA
330
2F8
100
AcDbEntity
  8
0
100
AcDbBlockEnd
  0
BLOCK
  5
306
330
305
100
AcDbEntity
  8
0
100
AcDbBlockBegin
  2
*D45
 70
     1
 10
0.0
 20
0.0
 30
0.0
  3
*D45
  1

  0
LINE
  5
308
330
305
100
AcDbEntity
  8
調整材穴有475_492_502_
  6
CONTINUOUS
 62
     1
100
AcDbLine
 10
326.0
 20
750.7000000000002
 30
0.0
 11
326.0
 21
545.0
 31
0.0
  0
LINE
  5
309
330
305
100
AcDbEntity
  8
調整材穴有475_492_502_
  6
CONTINUOUS
 62
     1
100
AcDbLine
 10
626.0
 20
750.7000000000002
 30
0.0
 11
626.0
 21
545.0
 31
0.0
  0
LINE
  5
30A
330
305
100
AcDbEntity
  8
調整材穴有475_492_502_
  6
CONTINUOUS
 62
     1
100
AcDbLine
 10
338.0
 20
551.0
 30
0.0
 11
614.0
 21
551.0
 31
0.0
  0
INSERT
  5
30B
330
305
100
AcDbEntity
  8
調整材穴有475_492_502_
 62
     1
100
AcDbBlockReference
  2
EX_BNORM
 10
326.0
 20
551.0
 30
0.0
 41
12.0
 42
12.0
 43
12.0
 50
180.0
  0
INSERT
  5
30C
330
305
100
AcDbEntity
  8
調整材穴有475_492_502_
 62
     1
100
AcDbBlockReference
  2
EX_BNORM
 10
626.0
 20
551.0
 30
0.0
 41
12.0
 42
12.0
 43
12.0
  0
MTEXT
  5
30D
330
305
100
AcDbEntity
  8
調整材穴有475_492_502_
 62
     1
100
AcDbMText
 10
476.0000000000001
 20
559.0
 30
0.0
 40
9.3543312
 41
0.0
 71
     5
 72
     1
  1
300
  7
EXCADDIM1
  0
POINT
  5
30E
330
305
100
AcDbEntity
  8
DEFPOINTS
 62
     0
100
AcDbPoint
 10
326.0
 20
756.7000000000002
 30
0.0
  0
POINT
  5
30F
330
305
100
AcDbEntity
  8
DEFPOINTS
 62
     0
100
AcDbPoint
 10
626.0
 20
756.7000000000002
 30
0.0
  0
POINT
  5
310
330
305
100
AcDbEntity
  8
DEFPOINTS
 62
     0
100
AcDbPoint
 10
626.0
 20
551.0
 30
0.0
  0
ENDBLK
  5
307
330
305
100
AcDbEntity
  8
0
100
AcDbBlockEnd
  0
BLOCK
  5
313
330
312
100
AcDbEntity
  8
0
100
AcDbBlockBegin
  2
*D46
 70
     1
 10
0.0
 20
0.0
 30
0.0
  3
*D46
  1

  0
LINE
  5
315
330
312
100
AcDbEntity
  8
調整材穴有475_492_502_
  6
CONTINUOUS
 62
     1
100
AcDbLine
 10
301.0
 20
750.7
 30
0.0
 11
301.0
 21
512.0
 31
0.0
  0
LINE
  5
316
330
312
100
AcDbEntity
  8
調整材穴有475_492_502_
  6
CONTINUOUS
 62
     1
100
AcDbLine
 10
651.0
 20
750.7
 30
0.0
 11
651.0
 21
512.0
 31
0.0
  0
LINE
  5
317
330
312
100
AcDbEntity
  8
調整材穴有475_492_502_
  6
CONTINUOUS
 62
     1
100
AcDbLine
 10
313.0
 20
518.0
 30
0.0
 11
639.0
 21
518.0
 31
0.0
  0
INSERT
  5
318
330
312
100
AcDbEntity
  8
調整材穴有475_492_502_
 62
     1
100
AcDbBlockReference
  2
EX_BNORM
 10
301.0
 20
518.0
 30
0.0
 41
12.0
 42
12.0
 43
12.0
 50
180.0
  0
INSERT
  5
319
330
312
100
AcDbEntity
  8
調整材穴有475_492_502_
 62
     1
100
AcDbBlockReference
  2
EX_BNORM
 10
651.0
 20
518.0
 30
0.0
 41
12.0
 42
12.0
 43
12.0
  0
MTEXT
  5
31A
330
312
100
AcDbEntity
  8
調整材穴有475_492_502_
 62
     1
100
AcDbMText
 10
476.0000000000001
 20
526.0
 30
0.0
 40
9.3543312
 41
0.0
 71
     5
 72
     1
  1
350
  7
EXCADDIM1
  0
POINT
  5
31B
330
312
100
AcDbEntity
  8
DEFPOINTS
 62
     0
100
AcDbPoint
 10
301.0
 20
769.7
 30
0.0
  0
POINT
  5
31C
330
312
100
AcDbEntity
  8
DEFPOINTS
 62
     0
100
AcDbPoint
 10
651.0
 20
769.7
 30
0.0
  0
POINT
  5
31D
330
312
100
AcDbEntity
  8
DEFPOINTS
 62
     0
100
AcDbPoint
 10
651.0
 20
518.0
 30
0.0
  0
ENDBLK
  5
314
330
312
100
AcDbEntity
  8
0
100
AcDbBlockEnd
  0
BLOCK
  5
320
330
31F
100
AcDbEntity
  8
0
100
AcDbBlockBegin
  2
*D47
 70
     1
 10
0.0
 20
0.0
 30
0.0
  3
*D47
  1

  0
LINE
  5
322
330
31F
100
AcDbEntity
  8
調整材穴有475_492_502_
  6
CONTINUOUS
 62
     1
100
AcDbLine
 10
276.0
 20
825.9999992370609
 30
0.0
 11
276.0
 21
478.0000000000001
 31
0.0
  0
LINE
  5
323
330
31F
100
AcDbEntity
  8
調整材穴有475_492_502_
  6
CONTINUOUS
 62
     1
100
AcDbLine
 10
676.0
 20
825.9999992370609
 30
0.0
 11
676.0
 21
478.0000000000001
 31
0.0
  0
LINE
  5
324
330
31F
100
AcDbEntity
  8
調整材穴有475_492_502_
  6
CONTINUOUS
 62
     1
100
AcDbLine
 10
288.0
 20
484.0000000000001
 30
0.0
 11
664.0
 21
484.0000000000001
 31
0.0
  0
INSERT
  5
325
330
31F
100
AcDbEntity
  8
調整材穴有475_492_502_
 62
     1
100
AcDbBlockReference
  2
EX_BNORM
 10
276.0
 20
484.0000000000001
 30
0.0
 41
12.0
 42
12.0
 43
12.0
 50
180.0
  0
INSERT
  5
326
330
31F
100
AcDbEntity
  8
調整材穴有475_492_502_
 62
     1
100
AcDbBlockReference
  2
EX_BNORM
 10
676.0
 20
484.0000000000001
 30
0.0
 41
12.0
 42
12.0
 43
12.0
  0
MTEXT
  5
327
330
31F
100
AcDbEntity
  8
調整材穴有475_492_502_
 62
     1
100
AcDbMText
 10
476.0000000000001
 20
492.0000000000001
 30
0.0
 40
9.3543312
 41
0.0
 71
     5
 72
     1
  1
400
  7
EXCADDIM1
  0
POINT
  5
328
330
31F
100
AcDbEntity
  8
DEFPOINTS
 62
     0
100
AcDbPoint
 10
276.0
 20
845.2999984741215
 30
0.0
  0
POINT
  5
329
330
31F
100
AcDbEntity
  8
DEFPOINTS
 62
     0
100
AcDbPoint
 10
676.0
 20
845.2999984741215
 30
0.0
  0
POINT
  5
32A
330
31F
100
AcDbEntity
  8
DEFPOINTS
 62
     0
100
AcDbPoint
 10
676.0
 20
484.0000000000001
 30
0.0
  0
ENDBLK
  5
321
330
31F
100
AcDbEntity
  8
0
100
AcDbBlockEnd
  0
BLOCK
  5
32D
330
32C
100
AcDbEntity
  8
0
100
AcDbBlockBegin
  2
*D48
 70
     1
 10
0.0
 20
0.0
 30
0.0
  3
*D48
  1

  0
LINE
  5
32F
330
32C
100
AcDbEntity
  8
調整材穴有475_492_502_
  6
CONTINUOUS
 62
     1
100
AcDbLine
 10
238.5
 20
675.0
 30
0.0
 11
238.5
 21
441.0000000000001
 31
0.0
  0
LINE
  5
330
330
32C
100
AcDbEntity
  8
調整材穴有475_492_502_
  6
CONTINUOUS
 62
     1
100
AcDbLine
 10
713.5
 20
675.0
 30
0.0
 11
713.5
 21
441.0000000000001
 31
0.0
  0
LINE
  5
331
330
32C
100
AcDbEntity
  8
調整材穴有475_492_502_
  6
CONTINUOUS
 62
     1
100
AcDbLine
 10
250.5
 20
447.0000000000001
 30
0.0
 11
701.5
 21
447.0000000000001
 31
0.0
  0
INSERT
  5
332
330
32C
100
AcDbEntity
  8
調整材穴有475_492_502_
 62
     1
100
AcDbBlockReference
  2
EX_BNORM
 10
238.5
 20
447.0000000000001
 30
0.0
 41
12.0
 42
12.0
 43
12.0
 50
180.0
  0
INSERT
  5
333
330
32C
100
AcDbEntity
  8
調整材穴有475_492_502_
 62
     1
100
AcDbBlockReference
  2
EX_BNORM
 10
713.5
 20
447.0000000000001
 30
0.0
 41
12.0
 42
12.0
 43
12.0
  0
MTEXT
  5
334
330
32C
100
AcDbEntity
  8
調整材穴有475_492_502_
 62
     1
100
AcDbMText
 10
476.0
 20
455.0000000000001
 30
0.0
 40
9.3543312
 41
0.0
 71
     5
 72
     1
  1
475
  7
EXCADDIM1
  0
POINT
  5
335
330
32C
100
AcDbEntity
  8
DEFPOINTS
 62
     0
100
AcDbPoint
 10
238.5
 20
681.0
 30
0.0
  0
POINT
  5
336
330
32C
100
AcDbEntity
  8
DEFPOINTS
 62
     0
100
AcDbPoint
 10
713.5
 20
681.0
 30
0.0
  0
POINT
  5
337
330
32C
100
AcDbEntity
  8
DEFPOINTS
 62
     0
100
AcDbPoint
 10
713.5
 20
447.0000000000001
 30
0.0
  0
ENDBLK
  5
32E
330
32C
100
AcDbEntity
  8
0
100
AcDbBlockEnd
  0
BLOCK
  5
33A
330
339
100
AcDbEntity
  8
0
100
AcDbBlockBegin
  2
*D49
 70
     1
 10
0.0
 20
0.0
 30
0.0
  3
*D49
  1

  0
LINE
  5
33C
330
339
100
AcDbEntity
  8
調整材穴有475_492_502_
  6
CONTINUOUS
 62
     1
100
AcDbLine
 10
700.59436
 20
1002.0
 30
0.0
 11
785.5943600000002
 21
1002.0
 31
0.0
  0
LINE
  5
33D
330
339
100
AcDbEntity
  8
調整材穴有475_492_502_
  6
CONTINUOUS
 62
     1
100
AcDbLine
 10
694.5
 20
852.0000000000001
 30
0.0
 11
785.5943600000002
 21
852.0000000000001
 31
0.0
  0
LINE
  5
33E
330
339
100
AcDbEntity
  8
調整材穴有475_492_502_
  6
CONTINUOUS
 62
     1
100
AcDbLine
 10
779.5943600000002
 20
990.0000000000002
 30
0.0
 11
779.5943600000002
 21
864.0000000000001
 31
0.0
  0
INSERT
  5
33F
330
339
100
AcDbEntity
  8
調整材穴有475_492_502_
 62
     1
100
AcDbBlockReference
  2
EX_BNORM
 10
779.5943600000002
 20
1002.0
 30
0.0
 41
12.0
 42
12.0
 43
12.0
 50
90.0
  0
INSERT
  5
340
330
339
100
AcDbEntity
  8
調整材穴有475_492_502_
 62
     1
100
AcDbBlockReference
  2
EX_BNORM
 10
779.5943600000002
 20
852.0000000000001
 30
0.0
 41
12.0
 42
12.0
 43
12.0
 50
270.0
  0
MTEXT
  5
341
330
339
100
AcDbEntity
  8
調整材穴有475_492_502_
 62
     1
100
AcDbMText
 10
771.5943600000002
 20
927.0000000000002
 30
0.0
 40
9.3543312
 41
0.0
 71
     5
 72
     1
  1
150
  7
EXCADDIM1
 11
0.0
 21
1.0
 31
0.0
  0
POINT
  5
342
330
339
100
AcDbEntity
  8
DEFPOINTS
 62
     0
100
AcDbPoint
 10
644.59436
 20
1002.0
 30
0.0
  0
POINT
  5
343
330
339
100
AcDbEntity
  8
DEFPOINTS
 62
     0
100
AcDbPoint
 10
638.5
 20
852.0000000000001
 30
0.0
  0
POINT
  5
344
330
339
100
AcDbEntity
  8
DEFPOINTS
 62
     0
100
AcDbPoint
 10
779.5943600000002
 20
852.0000000000001
 30
0.0
  0
ENDBLK
  5
33B
330
339
100
AcDbEntity
  8
0
100
AcDbBlockEnd
  0
BLOCK
  5
347
330
346
100
AcDbEntity
  8
0
100
AcDbBlockBegin
  2
*D50
 70
     1
 10
0.0
 20
0.0
 30
0.0
  3
*D50
  1

  0
LINE
  5
349
330
346
100
AcDbEntity
  8
調整材穴有475_492_502_
  6
CONTINUOUS
 62
     1
100
AcDbLine
 10
694.59436
 20
1027.0
 30
0.0
 11
811.5943600000002
 21
1027.0
 31
0.0
  0
LINE
  5
34A
330
346
100
AcDbEntity
  8
調整材穴有475_492_502_
  6
CONTINUOUS
 62
     1
100
AcDbLine
 10
694.59436
 20
827.0000000000001
 30
0.0
 11
811.5943600000002
 21
827.0000000000001
 31
0.0
  0
LINE
  5
34B
330
346
100
AcDbEntity
  8
調整材穴有475_492_502_
  6
CONTINUOUS
 62
     1
100
AcDbLine
 10
811.5943600000002
 20
1015.0
 30
0.0
 11
811.5943600000002
 21
839.0000000000001
 31
0.0
  0
INSERT
  5
34C
330
346
100
AcDbEntity
  8
調整材穴有475_492_502_
 62
     1
100
AcDbBlockReference
  2
EX_BNORM
 10
811.5943600000002
 20
1027.0
 30
0.0
 41
12.0
 42
12.0
 43
12.0
 50
90.0
  0
INSERT
  5
34D
330
346
100
AcDbEntity
  8
調整材穴有475_492_502_
 62
     1
100
AcDbBlockReference
  2
EX_BNORM
 10
811.5943600000002
 20
827.0000000000001
 30
0.0
 41
12.0
 42
12.0
 43
12.0
 50
270.0
  0
MTEXT
  5
34E
330
346
100
AcDbEntity
  8
調整材穴有475_492_502_
 62
     1
100
AcDbMText
 10
803.5943600000002
 20
927.0
 30
0.0
 40
9.3543312
 41
0.0
 71
     5
 72
     1
  1
200
  7
EXCADDIM1
 11
0.0
 21
1.0
 31
0.0
  0
POINT
  5
34F
330
346
100
AcDbEntity
  8
DEFPOINTS
 62
     0
100
AcDbPoint
 10
694.59436
 20
1027.0
 30
0.0
  0
POINT
  5
350
330
346
100
AcDbEntity
  8
DEFPOINTS
 62
     0
100
AcDbPoint
 10
694.59436
 20
827.0000000000001
 30
0.0
  0
POINT
  5
351
330
346
100
AcDbEntity
  8
DEFPOINTS
 62
     0
100
AcDbPoint
 10
811.5943600000002
 20
827.0000000000001
 30
0.0
  0
ENDBLK
  5
348
330
346
100
AcDbEntity
  8
0
100
AcDbBlockEnd
  0
BLOCK
  5
354
330
353
100
AcDbEntity
  8
0
100
AcDbBlockBegin
  2
*D51
 70
     1
 10
0.0
 20
0.0
 30
0.0
  3
*D51
  1

  0
LINE
  5
356
330
353
100
AcDbEntity
  8
調整材穴有475_492_502_
  6
CONTINUOUS
 62
     1
100
AcDbLine
 10
675.59436
 20
1077.0
 30
0.0
 11
853.5943600000002
 21
1077.0
 31
0.0
  0
LINE
  5
357
330
353
100
AcDbEntity
  8
調整材穴有475_492_502_
  6
CONTINUOUS
 62
     1
100
AcDbLine
 10
675.59436
 20
777.0000000000001
 30
0.0
 11
853.5943600000002
 21
777.0000000000001
 31
0.0
  0
LINE
  5
358
330
353
100
AcDbEntity
  8
調整材穴有475_492_502_
  6
CONTINUOUS
 62
     1
100
AcDbLine
 10
847.5943600000002
 20
1065.0
 30
0.0
 11
847.5943600000002
 21
789.0000000000001
 31
0.0
  0
INSERT
  5
359
330
353
100
AcDbEntity
  8
調整材穴有475_492_502_
 62
     1
100
AcDbBlockReference
  2
EX_BNORM
 10
847.5943600000002
 20
1077.0
 30
0.0
 41
12.0
 42
12.0
 43
12.0
 50
90.0
  0
INSERT
  5
35A
330
353
100
AcDbEntity
  8
調整材穴有475_492_502_
 62
     1
100
AcDbBlockReference
  2
EX_BNORM
 10
847.5943600000002
 20
777.0000000000001
 30
0.0
 41
12.0
 42
12.0
 43
12.0
 50
270.0
  0
MTEXT
  5
35B
330
353
100
AcDbEntity
  8
調整材穴有475_492_502_
 62
     1
100
AcDbMText
 10
839.5943600000002
 20
927.0
 30
0.0
 40
9.3543312
 41
0.0
 71
     5
 72
     1
  1
300
  7
EXCADDIM1
 11
0.0
 21
1.0
 31
0.0
  0
POINT
  5
35C
330
353
100
AcDbEntity
  8
DEFPOINTS
 62
     0
100
AcDbPoint
 10
644.59436
 20
1077.0
 30
0.0
  0
POINT
  5
35D
330
353
100
AcDbEntity
  8
DEFPOINTS
 62
     0
100
AcDbPoint
 10
644.59436
 20
777.0000000000001
 30
0.0
  0
POINT
  5
35E
330
353
100
AcDbEntity
  8
DEFPOINTS
 62
     0
100
AcDbPoint
 10
847.5943600000002
 20
777.0000000000001
 30
0.0
  0
ENDBLK
  5
355
330
353
100
AcDbEntity
  8
0
100
AcDbBlockEnd
  0
BLOCK
  5
361
330
360
100
AcDbEntity
  8
0
100
AcDbBlockBegin
  2
*D52
 70
     1
 10
0.0
 20
0.0
 30
0.0
  3
*D52
  1

  0
LINE
  5
363
330
360
100
AcDbEntity
  8
調整材穴有475_492_502_
  6
CONTINUOUS
 62
     1
100
AcDbLine
 10
719.4999999999998
 20
1168.0
 30
0.0
 11
895.5000000000002
 21
1168.0
 31
0.0
  0
LINE
  5
364
330
360
100
AcDbEntity
  8
調整材穴有475_492_502_
  6
CONTINUOUS
 62
     1
100
AcDbLine
 10
719.5
 20
686.0
 30
0.0
 11
895.5000000000002
 21
686.0
 31
0.0
  0
LINE
  5
365
330
360
100
AcDbEntity
  8
調整材穴有475_492_502_
  6
CONTINUOUS
 62
     1
100
AcDbLine
 10
889.5000000000002
 20
1156.0
 30
0.0
 11
889.5000000000002
 21
698.0
 31
0.0
  0
INSERT
  5
366
330
360
100
AcDbEntity
  8
調整材穴有475_492_502_
 62
     1
100
AcDbBlockReference
  2
EX_BNORM
 10
889.5000000000002
 20
1168.0
 30
0.0
 41
12.0
 42
12.0
 43
12.0
 50
90.0
  0
INSERT
  5
367
330
360
100
AcDbEntity
  8
調整材穴有475_492_502_
 62
     1
100
AcDbBlockReference
  2
EX_BNORM
 10
889.5000000000002
 20
686.0
 30
0.0
 41
12.0
 42
12.0
 43
12.0
 50
270.0
  0
MTEXT
  5
368
330
360
100
AcDbEntity
  8
調整材穴有475_492_502_
 62
     1
100
AcDbMText
 10
881.5000000000001
 20
927.0
 30
0.0
 40
9.3543312
 41
0.0
 71
     5
 72
     1
  1
482
  7
EXCADDIM1
 11
0.0
 21
1.0
 31
0.0
  0
POINT
  5
369
330
360
100
AcDbEntity
  8
DEFPOINTS
 62
     0
100
AcDbPoint
 10
713.4999999999998
 20
1168.0
 30
0.0
  0
POINT
  5
36A
330
360
100
AcDbEntity
  8
DEFPOINTS
 62
     0
100
AcDbPoint
 10
713.5
 20
686.0
 30
0.0
  0
POINT
  5
36B
330
360
100
AcDbEntity
  8
DEFPOINTS
 62
     0
100
AcDbPoint
 10
889.5000000000002
 20
686.0
 30
0.0
  0
ENDBLK
  5
362
330
360
100
AcDbEntity
  8
0
100
AcDbBlockEnd
  0
BLOCK
  5
36E
330
36D
100
AcDbEntity
  8
0
100
AcDbBlockBegin
  2
*D53
 70
     1
 10
0.0
 20
0.0
 30
0.0
  3
*D53
  1

  0
LINE
  5
370
330
36D
100
AcDbEntity
  8
調整材穴有475_492_502_
  6
CONTINUOUS
 62
     1
100
AcDbLine
 10
719.4999999999998
 20
1173.0
 30
0.0
 11
895.5
 21
1173.0
 31
0.0
  0
LINE
  5
371
330
36D
100
AcDbEntity
  8
調整材穴有475_492_502_
  6
CONTINUOUS
 62
     1
100
AcDbLine
 10
889.5
 20
1173.0
 30
0.0
 11
889.5
 21
1168.0
 31
0.0
  0
LINE
  5
372
330
36D
100
AcDbEntity
  8
調整材穴有475_492_502_
  6
CONTINUOUS
 62
     1
100
AcDbLine
 10
889.5
 20
1185.0
 30
0.0
 11
889.5
 21
1197.0
 31
0.0
  0
LINE
  5
373
330
36D
100
AcDbEntity
  8
調整材穴有475_492_502_
  6
CONTINUOUS
 62
     1
100
AcDbLine
 10
889.5
 20
1156.0
 30
0.0
 11
889.5
 21
1144.0
 31
0.0
  0
INSERT
  5
374
330
36D
100
AcDbEntity
  8
調整材穴有475_492_502_
 62
     1
100
AcDbBlockReference
  2
EX_BNORM
 10
889.5
 20
1173.0
 30
0.0
 41
12.0
 42
12.0
 43
12.0
 50
270.0
  0
INSERT
  5
375
330
36D
100
AcDbEntity
  8
調整材穴有475_492_502_
 62
     1
100
AcDbBlockReference
  2
EX_BNORM
 10
889.5
 20
1168.0
 30
0.0
 41
12.0
 42
12.0
 43
12.0
 50
90.0
  0
MTEXT
  5
376
330
36D
100
AcDbEntity
  8
調整材穴有475_492_502_
 62
     1
100
AcDbMText
 10
881.5000000000005
 20
1191.0
 30
0.0
 40
9.3543312
 41
0.0
 71
     5
 72
     1
  1
5
  7
EXCADDIM1
 11
-3.828568698926949E-16
 21
1.0
 31
0.0
  0
POINT
  5
377
330
36D
100
AcDbEntity
  8
DEFPOINTS
 62
     0
100
AcDbPoint
 10
713.4999999999998
 20
1173.0
 30
0.0
  0
POINT
  5
378
330
36D
100
AcDbEntity
  8
DEFPOINTS
 62
     0
100
AcDbPoint
 10
713.4999999999998
 20
1168.0
 30
0.0
  0
POINT
  5
379
330
36D
100
AcDbEntity
  8
DEFPOINTS
 62
     0
100
AcDbPoint
 10
889.5
 20
1168.0
 30
0.0
  0
ENDBLK
  5
36F
330
36D
100
AcDbEntity
  8
0
100
AcDbBlockEnd
  0
BLOCK
  5
37C
330
37B
100
AcDbEntity
  8
0
100
AcDbBlockBegin
  2
*D54
 70
     1
 10
0.0
 20
0.0
 30
0.0
  3
*D54
  1

  0
LINE
  5
37E
330
37B
100
AcDbEntity
  8
調整材穴有475_492_502_
  6
CONTINUOUS
 62
     1
100
AcDbLine
 10
719.5
 20
681.0
 30
0.0
 11
895.5000000000002
 21
681.0
 31
0.0
  0
LINE
  5
37F
330
37B
100
AcDbEntity
  8
調整材穴有475_492_502_
  6
CONTINUOUS
 62
     1
100
AcDbLine
 10
889.5000000000002
 20
681.0
 30
0.0
 11
889.5000000000002
 21
686.0
 31
0.0
  0
LINE
  5
380
330
37B
100
AcDbEntity
  8
調整材穴有475_492_502_
  6
CONTINUOUS
 62
     1
100
AcDbLine
 10
889.5000000000002
 20
669.0
 30
0.0
 11
889.5000000000002
 21
657.0
 31
0.0
  0
LINE
  5
381
330
37B
100
AcDbEntity
  8
調整材穴有475_492_502_
  6
CONTINUOUS
 62
     1
100
AcDbLine
 10
889.5000000000002
 20
698.0
 30
0.0
 11
889.5000000000002
 21
710.0
 31
0.0
  0
INSERT
  5
382
330
37B
100
AcDbEntity
  8
調整材穴有475_492_502_
 62
     1
100
AcDbBlockReference
  2
EX_BNORM
 10
889.5000000000002
 20
681.0
 30
0.0
 41
12.0
 42
12.0
 43
12.0
 50
90.0
  0
INSERT
  5
383
330
37B
100
AcDbEntity
  8
調整材穴有475_492_502_
 62
     1
100
AcDbBlockReference
  2
EX_BNORM
 10
889.5000000000002
 20
686.0
 30
0.0
 41
12.0
 42
12.0
 43
12.0
 50
270.0
  0
MTEXT
  5
384
330
37B
100
AcDbEntity
  8
調整材穴有475_492_502_
 62
     1
100
AcDbMText
 10
881.5000000000003
 20
662.9999999999997
 30
0.0
 40
9.3543312
 41
0.0
 71
     5
 72
     1
  1
5
  7
EXCADDIM1
 11
-3.828568698926949E-16
 21
1.0
 31
0.0
  0
POINT
  5
385
330
37B
100
AcDbEntity
  8
DEFPOINTS
 62
     0
100
AcDbPoint
 10
713.5
 20
681.0
 30
0.0
  0
POINT
  5
386
330
37B
100
AcDbEntity
  8
DEFPOINTS
 62
     0
100
AcDbPoint
 10
713.5
 20
686.0
 30
0.0
  0
POINT
  5
387
330
37B
100
AcDbEntity
  8
DEFPOINTS
 62
     0
100
AcDbPoint
 10
889.5000000000002
 20
686.0
 30
0.0
  0
ENDBLK
  5
37D
330
37B
100
AcDbEntity
  8
0
100
AcDbBlockEnd
  0
BLOCK
  5
393
330
392
100
AcDbEntity
  8
0
100
AcDbBlockBegin
  2
*D55
 70
     1
 10
0.0
 20
0.0
 30
0.0
  3
*D55
  1

  0
LINE
  5
395
330
392
100
AcDbEntity
  8
調整材穴有475_492_502_
  6
CONTINUOUS
 62
     1
100
AcDbLine
 10
520.9438005233142
 20
943.8539251962429
 30
0.0
 11
431.0561994766859
 21
910.1460748037573
 31
0.0
  0
MTEXT
  5
396
330
392
100
AcDbEntity
  8
調整材穴有475_492_502_
 62
     1
100
AcDbMText
 10
503.66291272895
 20
945.917596018674
 30
0.0
 40
9.3543312
 41
0.0
 71
     5
 72
     1
  1
%%c120
  7
EXCADDIM1
 11
0.9363291775690442
 21
0.3511234415883924
 31
0.0
  0
INSERT
  5
397
330
392
100
AcDbEntity
  8
調整材穴有475_492_502_
 62
     1
100
AcDbBlockReference
  2
EX_BNORM
 10
419.8202493458574
 20
905.9325935046966
 30
0.0
 41
12.0
 42
12.0
 43
12.0
 50
200.5560452195835
  0
INSERT
  5
398
330
392
100
AcDbEntity
  8
調整材穴有475_492_502_
 62
     1
100
AcDbBlockReference
  2
EX_BNORM
 10
532.1797506541427
 20
948.0674064953037
 30
0.0
 41
12.0
 42
12.0
 43
12.0
 50
20.55604521958351
  0
POINT
  5
399
330
392
100
AcDbEntity
  8
DEFPOINTS
 62
     0
100
AcDbPoint
 10
532.1797506541427
 20
948.0674064953037
 30
0.0
  0
POINT
  5
39A
330
392
100
AcDbEntity
  8
DEFPOINTS
 62
     0
100
AcDbPoint
 10
419.8202493458574
 20
905.9325935046966
 30
0.0
  0
ENDBLK
  5
394
330
392
100
AcDbEntity
  8
0
100
AcDbBlockEnd
  0
BLOCK
  5
3A3
330
3A2
100
AcDbEntity
  8
0
100
AcDbBlockBegin
  2
*D56
 70
     1
 10
0.0
 20
0.0
 30
0.0
  3
*D56
  1

  0
LINE
  5
3A5
330
3A2
100
AcDbEntity
  8
調整材穴有475_492_502_
  6
CONTINUOUS
 62
     1
100
AcDbLine
 10
457.9999999999999
 20
1154.0
 30
0.0
 11
457.9999999999999
 21
1210.0
 31
0.0
  0
LINE
  5
3A6
330
3A2
100
AcDbEntity
  8
調整材穴有475_492_502_
  6
CONTINUOUS
 62
     1
100
AcDbLine
 10
494.0000000000001
 20
1154.0
 30
0.0
 11
494.0000000000001
 21
1210.0
 31
0.0
  0
LINE
  5
3A7
330
3A2
100
AcDbEntity
  8
調整材穴有475_492_502_
  6
CONTINUOUS
 62
     1
100
AcDbLine
 10
469.9999999999999
 20
1204.0
 30
0.0
 11
482.0000000000001
 21
1204.0
 31
0.0
  0
INSERT
  5
3A8
330
3A2
100
AcDbEntity
  8
調整材穴有475_492_502_
 62
     1
100
AcDbBlockReference
  2
EX_BNORM
 10
457.9999999999999
 20
1204.0
 30
0.0
 41
12.0
 42
12.0
 43
12.0
 50
180.0
  0
INSERT
  5
3A9
330
3A2
100
AcDbEntity
  8
調整材穴有475_492_502_
 62
     1
100
AcDbBlockReference
  2
EX_BNORM
 10
494.0000000000001
 20
1204.0
 30
0.0
 41
12.0
 42
12.0
 43
12.0
  0
MTEXT
  5
3AA
330
3A2
100
AcDbEntity
  8
調整材穴有475_492_502_
 62
     1
100
AcDbMText
 10
476.0000000000001
 20
1212.0
 30
0.0
 40
9.3543312
 41
0.0
 71
     5
 72
     1
  1
36
  7
EXCADDIM1
  0
POINT
  5
3AB
330
3A2
100
AcDbEntity
  8
DEFPOINTS
 62
     0
100
AcDbPoint
 10
457.9999999999999
 20
1148.0
 30
0.0
  0
POINT
  5
3AC
330
3A2
100
AcDbEntity
  8
DEFPOINTS
 62
     0
100
AcDbPoint
 10
494.0000000000001
 20
1148.0
 30
0.0
  0
POINT
  5
3AD
330
3A2
100
AcDbEntity
  8
DEFPOINTS
 62
     0
100
AcDbPoint
 10
494.0000000000001
 20
1204.0
 30
0.0
  0
ENDBLK
  5
3A4
330
3A2
100
AcDbEntity
  8
0
100
AcDbBlockEnd
  0
BLOCK
  5
3C1
330
3C0
100
AcDbEntity
  8
0
100
AcDbBlockBegin
  2
*D57
 70
     1
 10
0.0
 20
0.0
 30
0.0
  3
*D57
  1

  0
LINE
  5
3C3
330
3C0
100
AcDbEntity
  8
調整材穴有475_492_502_
  6
CONTINUOUS
 62
     1
100
AcDbLine
 10
1919.7
 20
1072.0
 30
0.0
 11
2051.6
 21
1072.0
 31
0.0
  0
LINE
  5
3C4
330
3C0
100
AcDbEntity
  8
調整材穴有475_492_502_
  6
CONTINUOUS
 62
     1
100
AcDbLine
 10
1919.7
 20
782.0
 30
0.0
 11
2051.6
 21
782.0
 31
0.0
  0
LINE
  5
3C5
330
3C0
100
AcDbEntity
  8
調整材穴有475_492_502_
  6
CONTINUOUS
 62
     1
100
AcDbLine
 10
2045.6
 20
1060.0
 30
0.0
 11
2045.6
 21
794.0
 31
0.0
  0
INSERT
  5
3C6
330
3C0
100
AcDbEntity
  8
調整材穴有475_492_502_
 62
     1
100
AcDbBlockReference
  2
EX_BNORM
 10
2045.6
 20
1072.0
 30
0.0
 41
12.0
 42
12.0
 43
12.0
 50
90.0
  0
INSERT
  5
3C7
330
3C0
100
AcDbEntity
  8
調整材穴有475_492_502_
 62
     1
100
AcDbBlockReference
  2
EX_BNORM
 10
2045.6
 20
782.0
 30
0.0
 41
12.0
 42
12.0
 43
12.0
 50
270.0
  0
MTEXT
  5
3C8
330
3C0
100
AcDbEntity
  8
調整材穴有475_492_502_
 62
     1
100
AcDbMText
 10
2037.6
 20
927.0
 30
0.0
 40
9.3543312
 41
0.0
 71
     5
 72
     1
  1
290
  7
EXCADDIM1
 11
0.0
 21
1.0
 31
0.0
  0
POINT
  5
3C9
330
3C0
100
AcDbEntity
  8
DEFPOINTS
 62
     0
100
AcDbPoint
 10
1913.7
 20
1072.0
 30
0.0
  0
POINT
  5
3CA
330
3C0
100
AcDbEntity
  8
DEFPOINTS
 62
     0
100
AcDbPoint
 10
1913.7
 20
782.0
 30
0.0
  0
POINT
  5
3CB
330
3C0
100
AcDbEntity
  8
DEFPOINTS
 62
     0
100
AcDbPoint
 10
2045.6
 20
782.0
 30
0.0
  0
ENDBLK
  5
3C2
330
3C0
100
AcDbEntity
  8
0
100
AcDbBlockEnd
  0
BLOCK
  5
3CE
330
3CD
100
AcDbEntity
  8
0
100
AcDbBlockBegin
  2
*D58
 70
     1
 10
0.0
 20
0.0
 30
0.0
  3
*D58
  1

  0
LINE
  5
3D0
330
3CD
100
AcDbEntity
  8
調整材穴有475_492_502_
  6
CONTINUOUS
 62
     1
100
AcDbLine
 10
1599.40564
 20
751.0
 30
0.0
 11
1599.40564
 21
623.6
 31
0.0
  0
LINE
  5
3D1
330
3CD
100
AcDbEntity
  8
調整材穴有475_492_502_
  6
CONTINUOUS
 62
     1
100
AcDbLine
 10
1889.40564
 20
751.0
 30
0.0
 11
1889.40564
 21
623.6
 31
0.0
  0
LINE
  5
3D2
330
3CD
100
AcDbEntity
  8
調整材穴有475_492_502_
  6
CONTINUOUS
 62
     1
100
AcDbLine
 10
1611.40564
 20
629.6
 30
0.0
 11
1877.40564
 21
629.6
 31
0.0
  0
INSERT
  5
3D3
330
3CD
100
AcDbEntity
  8
調整材穴有475_492_502_
 62
     1
100
AcDbBlockReference
  2
EX_BNORM
 10
1599.40564
 20
629.6
 30
0.0
 41
12.0
 42
12.0
 43
12.0
 50
180.0
  0
INSERT
  5
3D4
330
3CD
100
AcDbEntity
  8
調整材穴有475_492_502_
 62
     1
100
AcDbBlockReference
  2
EX_BNORM
 10
1889.40564
 20
629.6
 30
0.0
 41
12.0
 42
12.0
 43
12.0
  0
MTEXT
  5
3D5
330
3CD
100
AcDbEntity
  8
調整材穴有475_492_502_
 62
     1
100
AcDbMText
 10
1744.40564
 20
637.6
 30
0.0
 40
9.3543312
 41
0.0
 71
     5
 72
     1
  1
290
  7
EXCADDIM1
  0
POINT
  5
3D6
330
3CD
100
AcDbEntity
  8
DEFPOINTS
 62
     0
100
AcDbPoint
 10
1599.40564
 20
757.0
 30
0.0
  0
POINT
  5
3D7
330
3CD
100
AcDbEntity
  8
DEFPOINTS
 62
     0
100
AcDbPoint
 10
1889.40564
 20
757.0
 30
0.0
  0
POINT
  5
3D8
330
3CD
100
AcDbEntity
  8
DEFPOINTS
 62
     0
100
AcDbPoint
 10
1889.40564
 20
629.6
 30
0.0
  0
ENDBLK
  5
3CF
330
3CD
100
AcDbEntity
  8
0
100
AcDbBlockEnd
  0
ENDSEC
  0
SECTION
  2
ENTITIES
  0
TEXT
  5
D3
330
1F
100
AcDbEntity
  8
調整材穴有475_492_502_
  6
CONTINUOUS
 62
     6
100
AcDbText
 10
1859.786987
 20
53.168003
 30
0.0
 40
15.590552
  1
Ｕ５０用調整材
 41
0.8292736975390097
  7
EXCADSTD
 72
     5
 11
1996.586987
 21
53.168003
 31
0.0
100
AcDbText
  0
TEXT
  5
D4
330
1F
100
AcDbEntity
  8
調整材穴有475_492_502_
  6
CONTINUOUS
 62
     6
100
AcDbText
 10
1859.786987
 20
53.168003
 30
0.0
 40
15.590552
  1
Ｕ５０用調整材
 41
0.8292736975390097
  7
EXCADSTD
 72
     5
 11
1996.586987
 21
53.168003
 31
0.0
100
AcDbText
  0
LINE
  5
D5
330
1F
100
AcDbEntity
  8
調整材穴有475_492_502_
  6
EXLTYPE2
 62
     1
100
AcDbLine
 10
1243.502026
 20
927.0000000000001
 30
0.0
 11
1068.802026
 21
927.0000000000001
 31
0.0
  0
LINE
  5
D6
330
1F
100
AcDbEntity
  8
調整材穴有475_492_502_
  6
CONTINUOUS
 62
     7
100
AcDbLine
 10
1207.811401
 20
1173.0
 30
0.0
 11
1107.811401
 21
1173.0
 31
0.0
  0
LINE
  5
D7
330
1F
100
AcDbEntity
  8
調整材穴有475_492_502_
  6
CONTINUOUS
 62
     7
100
AcDbLine
 10
1207.811401
 20
681.0000000000001
 30
0.0
 11
1107.811401
 21
681.0000000000001
 31
0.0
  0
LINE
  5
D8
330
1F
100
AcDbEntity
  8
調整材穴有475_492_502_
  6
CONTINUOUS
 62
     7
100
AcDbLine
 10
1207.811401
 20
943.0000000000001
 30
0.0
 11
1107.811401
 21
943.0000000000001
 31
0.0
  0
LINE
  5
D9
330
1F
100
AcDbEntity
  8
調整材穴有475_492_502_
  6
CONTINUOUS
 62
     7
100
AcDbLine
 10
1207.811401
 20
911.0000000000001
 30
0.0
 11
1107.811401
 21
911.0000000000001
 31
0.0
  0
LINE
  5
DA
330
1F
100
AcDbEntity
  8
調整材穴有475_492_502_
  6
CONTINUOUS
 62
     7
100
AcDbLine
 10
1207.811401
 20
1148.0
 30
0.0
 11
1107.811401
 21
1148.0
 31
0.0
  0
LINE
  5
DB
330
1F
100
AcDbEntity
  8
調整材穴有475_492_502_
  6
CONTINUOUS
 62
     7
100
AcDbLine
 10
1207.811401
 20
706.0000000000001
 30
0.0
 11
1107.811401
 21
706.0000000000001
 31
0.0
  0
LINE
  5
DC
330
1F
100
AcDbEntity
  8
調整材穴有475_492_502_
  6
CONTINUOUS
 62
     7
100
AcDbLine
 10
1082.811401
 20
1168.0
 30
0.0
 11
1082.811401
 21
686.0000000000001
 31
0.0
  0
LINE
  5
DD
330
1F
100
AcDbEntity
  8
調整材穴有475_492_502_
  6
CONTINUOUS
 62
     7
100
AcDbLine
 10
1107.811401
 20
1173.0
 30
0.0
 11
1107.811401
 21
681.0000000000001
 31
0.0
  0
LINE
  5
DE
330
1F
100
AcDbEntity
  8
調整材穴有475_492_502_
  6
CONTINUOUS
 62
     7
100
AcDbLine
 10
1207.811401
 20
681.0000000000001
 30
0.0
 11
1207.811401
 21
1173.0
 31
0.0
  0
LINE
  5
DF
330
1F
100
AcDbEntity
  8
調整材穴有475_492_502_
  6
CONTINUOUS
 62
     7
100
AcDbLine
 10
1232.811401
 20
686.0000000000001
 30
0.0
 11
1232.811401
 21
1168.0
 31
0.0
  0
LINE
  5
E0
330
1F
100
AcDbEntity
  8
調整材穴有475_492_502_
  6
CONTINUOUS
 62
     7
100
AcDbLine
 10
1082.811401
 20
1168.0
 30
0.0
 11
1107.811401
 21
1168.0
 31
0.0
  0
LINE
  5
E1
330
1F
100
AcDbEntity
  8
調整材穴有475_492_502_
  6
CONTINUOUS
 62
     7
100
AcDbLine
 10
1207.811401
 20
1168.0
 30
0.0
 11
1232.811401
 21
1168.0
 31
0.0
  0
LINE
  5
E2
330
1F
100
AcDbEntity
  8
調整材穴有475_492_502_
  6
CONTINUOUS
 62
     7
100
AcDbLine
 10
1082.811401
 20
686.0000000000001
 30
0.0
 11
1107.811401
 21
686.0000000000001
 31
0.0
  0
LINE
  5
E3
330
1F
100
AcDbEntity
  8
調整材穴有475_492_502_
  6
CONTINUOUS
 62
     7
100
AcDbLine
 10
1207.811401
 20
686.0000000000001
 30
0.0
 11
1232.811401
 21
686.0000000000001
 31
0.0
  0
LINE
  5
E4
330
1F
100
AcDbEntity
  8
調整材穴有475_492_502_
  6
EXLTYPE2
 62
     1
100
AcDbLine
 10
1193.231567
 20
1112.0
 30
0.0
 11
1247.687622
 21
1112.0
 31
0.0
  0
LINE
  5
E5
330
1F
100
AcDbEntity
  8
調整材穴有475_492_502_
  6
EXLTYPE2
 62
     1
100
AcDbLine
 10
1190.98584
 20
742.0000000000001
 30
0.0
 11
1247.687622
 21
742.0000000000001
 31
0.0
  0
LINE
  5
E6
330
1F
100
AcDbEntity
  8
調整材穴有475_492_502_
  6
EXLTYPE0
 62
     2
100
AcDbLine
 10
1232.811401
 20
729.0000000000001
 30
0.0
 11
1207.811401
 21
729.0000000000001
 31
0.0
  0
LINE
  5
E7
330
1F
100
AcDbEntity
  8
調整材穴有475_492_502_
  6
EXLTYPE0
 62
     2
100
AcDbLine
 10
1232.811401
 20
755.0000000000001
 30
0.0
 11
1207.811401
 21
755.0000000000001
 31
0.0
  0
LINE
  5
E8
330
1F
100
AcDbEntity
  8
調整材穴有475_492_502_
  6
EXLTYPE0
 62
     2
100
AcDbLine
 10
1232.811401
 20
1099.0
 30
0.0
 11
1207.811401
 21
1099.0
 31
0.0
  0
LINE
  5
E9
330
1F
100
AcDbEntity
  8
調整材穴有475_492_502_
  6
EXLTYPE0
 62
     2
100
AcDbLine
 10
1232.811401
 20
1125.0
 30
0.0
 11
1207.811401
 21
1125.0
 31
0.0
  0
TEXT
  5
EA
330
1F
100
AcDbEntity
  8
調整材穴有475_492_502_
  6
CONTINUOUS
 62
     1
100
AcDbText
 10
1148.68872
 20
1034.173373
 30
0.0
 40
7.795275999999999
  1
９
 41
0.9139743010821318
  7
EXCADSTD
 72
     5
 11
1157.08872
 21
1034.173373
 31
0.0
100
AcDbText
  0
TEXT
  5
EB
330
1F
100
AcDbEntity
  8
調整材穴有475_492_502_
  6
CONTINUOUS
 62
     1
100
AcDbText
 10
1149.314087
 20
1015.20389
 30
0.0
 40
7.795275999999999
  1
９
 41
0.9139743010821318
  7
EXCADSTD
 72
     5
 11
1157.714087
 21
1015.20389
 31
0.0
100
AcDbText
  0
LINE
  5
EC
330
1F
100
AcDbEntity
  8
調整材穴有475_492_502_
  6
CONTINUOUS
 62
     3
100
AcDbLine
 10
1171.202026
 20
1044.3
 30
0.0
 11
1171.202026
 21
1013.031445
 31
0.0
  0
LINE
  5
ED
330
1F
100
AcDbEntity
  8
調整材穴有475_492_502_
  6
CONTINUOUS
 62
     3
100
AcDbLine
 10
1171.202026
 20
1013.031445
 30
0.0
 11
1184.126342
 21
1028.874097
 31
0.0
  0
LINE
  5
EE
330
1F
100
AcDbEntity
  8
調整材穴有475_492_502_
  6
CONTINUOUS
 62
     3
100
AcDbLine
 10
1184.126342
 20
1028.874097
 30
0.0
 11
1171.202026
 21
1044.3
 31
0.0
  0
TEXT
  5
EF
330
1F
100
AcDbEntity
  8
調整材穴有475_492_502_
  6
CONTINUOUS
 62
     1
100
AcDbText
 10
1247.136084
 20
1216.8578866
 30
0.0
 40
9.3543312
  1
  ５
 41
0.7103254712971736
  7
EXCADSTD
 72
     5
 11
1268.365644
 21
1216.8578866
 31
0.0
100
AcDbText
  0
LINE
  5
F0
330
1F
100
AcDbEntity
  8
調整材穴有475_492_502_
  6
CONTINUOUS
 62
     3
100
AcDbLine
 10
1278.804931
 20
1249.855347
 30
0.0
 11
1278.804931
 21
1214.626221
 31
0.0
  0
LINE
  5
F1
330
1F
100
AcDbEntity
  8
調整材穴有475_492_502_
  6
CONTINUOUS
 62
     3
100
AcDbLine
 10
1278.804931
 20
1214.626221
 30
0.0
 11
1291.312256
 21
1230.677368
 31
0.0
  0
LINE
  5
F2
330
1F
100
AcDbEntity
  8
調整材穴有475_492_502_
  6
CONTINUOUS
 62
     3
100
AcDbLine
 10
1291.312256
 20
1230.677368
 30
0.0
 11
1278.804931
 21
1249.855347
 31
0.0
  0
LINE
  5
F3
330
1F
100
AcDbEntity
  8
調整材穴有475_492_502_
  6
EXLTYPE0
 62
     2
100
AcDbLine
 10
1506.90564
 20
1148.0
 30
0.0
 11
1981.90564
 21
1148.0
 31
0.0
  0
LINE
  5
F4
330
1F
100
AcDbEntity
  8
調整材穴有475_492_502_
  6
EXLTYPE0
 62
     2
100
AcDbLine
 10
1981.90564
 20
706.0
 30
0.0
 11
1506.90564
 21
705.999939
 31
0.0
  0
LINE
  5
F5
330
1F
100
AcDbEntity
  8
調整材穴有475_492_502_
  6
EXLTYPE0
 62
     2
100
AcDbLine
 10
1506.905701
 20
943.0
 30
0.0
 11
1644.405639999999
 21
943.0
 31
0.0
  0
LINE
  5
F6
330
1F
100
AcDbEntity
  8
調整材穴有475_492_502_
  6
EXLTYPE0
 62
     2
100
AcDbLine
 10
1506.905701
 20
911.0
 30
0.0
 11
1644.405639999999
 21
911.0
 31
0.0
  0
LINE
  5
F7
330
1F
100
AcDbEntity
  8
調整材穴有475_492_502_
  6
EXLTYPE0
 62
     2
100
AcDbLine
 10
1844.405640000001
 20
943.0
 30
0.0
 11
1981.90564
 21
943.0
 31
0.0
  0
LINE
  5
F8
330
1F
100
AcDbEntity
  8
調整材穴有475_492_502_
  6
EXLTYPE0
 62
     2
100
AcDbLine
 10
1844.405640000001
 20
911.0
 30
0.0
 11
1981.90564
 21
911.0
 31
0.0
  0
LINE
  5
F9
330
1F
100
AcDbEntity
  8
調整材穴有475_492_502_
  6
CONTINUOUS
 62
     7
100
AcDbLine
 10
1107.811401
 20
987.0000000000001
 30
0.0
 11
1207.811401
 21
987.0000000000001
 31
0.0
  0
LINE
  5
FA
330
1F
100
AcDbEntity
  8
調整材穴有475_492_502_
  6
CONTINUOUS
 62
     7
100
AcDbLine
 10
1107.811401
 20
866.9999715547001
 30
0.0
 11
1207.811401
 21
866.9999715547001
 31
0.0
  0
LINE
  5
FB
330
1F
100
AcDbEntity
  8
調整材穴有475_492_502_
  6
EXLTYPE0
 62
     2
100
AcDbLine
 10
1726.40564
 20
987.0
 30
0.0
 11
1762.40564
 21
987.0
 31
0.0
  0
LINE
  5
FC
330
1F
100
AcDbEntity
  8
調整材穴有475_492_502_
  6
EXLTYPE0
 62
     2
100
AcDbLine
 10
1644.405639999999
 20
943.0
 30
0.0
 11
1644.405639999999
 21
911.0
 31
0.0
  0
LINE
  5
FD
330
1F
100
AcDbEntity
  8
調整材穴有475_492_502_
  6
EXLTYPE0
 62
     2
100
AcDbLine
 10
1726.40564
 20
987.0
 30
0.0
 11
1726.40564
 21
1148.0
 31
0.0
  0
LINE
  5
FE
330
1F
100
AcDbEntity
  8
調整材穴有475_492_502_
  6
EXLTYPE0
 62
     2
100
AcDbLine
 10
1762.40564
 20
987.0
 30
0.0
 11
1762.40564
 21
1148.0
 31
0.0
  0
LEADER
  5
FF
330
1F
100
AcDbEntity
  8
調整材穴有475_492_502_
  6
CONTINUOUS
 62
     1
100
AcDbLeader
  3
ISO-25
 76
     3
 10
1107.811401
 20
943.0000000000001
 30
0.0
 10
1149.002026
 20
1028.6657225
 30
0.0
 10
1188.0
 20
1028.6657225
 30
0.0
1001
ACAD
1000
DSTYLE
1002
{
1070
     5
1000
EX_BNORM
1070
    41
1040
12.0
1070
   341
1005
7A
1002
}
  0
TEXT
  5
100
330
1F
100
AcDbEntity
  8
調整材穴有475_492_502_
  6
CONTINUOUS
 62
     1
100
AcDbText
 10
1148.48872
 20
1123.173373
 30
0.0
 40
7.795275999999999
  1
９
 41
0.9139743010821318
  7
EXCADSTD
 72
     5
 11
1156.88872
 21
1123.173373
 31
0.0
100
AcDbText
  0
TEXT
  5
101
330
1F
100
AcDbEntity
  8
調整材穴有475_492_502_
  6
CONTINUOUS
 62
     1
100
AcDbText
 10
1149.114087
 20
1104.20389
 30
0.0
 40
7.795275999999999
  1
９
 41
0.9139743010821318
  7
EXCADSTD
 72
     5
 11
1157.514087
 21
1104.20389
 31
0.0
100
AcDbText
  0
LINE
  5
102
330
1F
100
AcDbEntity
  8
調整材穴有475_492_502_
  6
CONTINUOUS
 62
     3
100
AcDbLine
 10
1171.002026
 20
1133.3
 30
0.0
 11
1171.002026
 21
1102.031445
 31
0.0
  0
LINE
  5
103
330
1F
100
AcDbEntity
  8
調整材穴有475_492_502_
  6
CONTINUOUS
 62
     3
100
AcDbLine
 10
1171.002026
 20
1102.031445
 30
0.0
 11
1183.926342
 21
1117.874097
 31
0.0
  0
LINE
  5
104
330
1F
100
AcDbEntity
  8
調整材穴有475_492_502_
  6
CONTINUOUS
 62
     3
100
AcDbLine
 10
1183.926342
 20
1117.874097
 30
0.0
 11
1171.002026
 21
1133.3
 31
0.0
  0
LEADER
  5
105
330
1F
100
AcDbEntity
  8
調整材穴有475_492_502_
  6
CONTINUOUS
 62
     1
100
AcDbLeader
  3
ISO-25
 76
     3
 10
1107.811401
 20
1058.6
 30
0.0
 10
1146.602026
 20
1117.6657225
 30
0.0
 10
1189.0
 20
1117.6657225
 30
0.0
1001
ACAD
1000
DSTYLE
1002
{
1070
     5
1000
EX_BNORM
1070
    41
1040
12.0
1070
   341
1005
7A
1002
}
  0
TEXT
  5
106
330
1F
100
AcDbEntity
  8
調整材穴有475_492_502_
  6
CONTINUOUS
 62
     6
100
AcDbText
 10
1641.202026
 20
1298.2834656
 30
0.0
 40
24.9448832
  1
ジャッキ側
 41
0.8187905265416661
  7
EXCADSTD
 72
     5
 11
1796.082026
 21
1298.2834656
 31
0.0
100
AcDbText
  0
DIMENSION
  5
108
330
1F
100
AcDbEntity
  8
調整材穴有475_492_502_
  6
CONTINUOUS
 62
     1
100
AcDbDimension
  2
*D15
 10
1015.802026
 20
911.0000000000001
 30
0.0
 11
1007.802026
 21
927.0
 31
0.0
 70
   160
  3
ISO-25
100
AcDbAlignedDimension
 13
1107.811401
 23
943.0000000000001
 33
0.0
 14
1107.811401
 24
911.0000000000001
 34
0.0
 50
90.0
100
AcDbRotatedDimension
1001
ACAD
1000
DSTYLE
1002
{
1070
   270
1070
     2
1070
     6
1000
EX_BNORM
1070
     7
1000
EX_BNORM
1070
    41
1040
12.0
1070
    42
1040
6.0
1070
    44
1040
6.0
1070
    73
1070
     0
1070
    74
1070
     0
1070
    75
1070
     0
1070
    76
1070
     0
1070
    77
1070
     1
1070
    78
1070
     0
1070
   140
1040
9.3543312
1070
   147
1040
0.0
1070
   173
1070
     1
1070
   176
1070
     1
1070
   177
1070
     1
1070
   178
1070
     1
1070
   271
1070
     0
1070
   277
1070
     2
1070
   279
1070
     2
1070
   280
1070
     0
1070
   287
1070
     5
1070
   340
1005
107
1002
}
  0
DIMENSION
  5
116
330
1F
100
AcDbEntity
  8
調整材穴有475_492_502_
  6
CONTINUOUS
 62
     1
100
AcDbDimension
  2
*D16
 10
1015.802026
 20
1173.0
 30
0.0
 11
1007.802026
 21
1160.5
 31
0.0
 70
   160
  3
ISO-25
100
AcDbAlignedDimension
 13
1107.811401
 23
1148.0
 33
0.0
 14
1107.811401
 24
1173.0
 34
0.0
 50
90.0
100
AcDbRotatedDimension
1001
ACAD
1000
DSTYLE
1002
{
1070
   270
1070
     2
1070
     6
1000
EX_BNORM
1070
     7
1000
EX_BNORM
1070
    41
1040
12.0
1070
    42
1040
6.0
1070
    44
1040
6.0
1070
    73
1070
     0
1070
    74
1070
     0
1070
    75
1070
     0
1070
    76
1070
     0
1070
    77
1070
     1
1070
    78
1070
     0
1070
   140
1040
9.3543312
1070
   147
1040
0.0
1070
   173
1070
     1
1070
   176
1070
     1
1070
   177
1070
     1
1070
   178
1070
     1
1070
   271
1070
     0
1070
   277
1070
     2
1070
   279
1070
     2
1070
   280
1070
     0
1070
   287
1070
     5
1070
   340
1005
107
1002
}
  0
DIMENSION
  5
123
330
1F
100
AcDbEntity
  8
調整材穴有475_492_502_
  6
CONTINUOUS
 62
     1
100
AcDbDimension
  2
*D17
 10
1015.802026
 20
681.0000000000001
 30
0.0
 11
1007.802026
 21
693.5
 31
0.0
 70
   160
  3
ISO-25
100
AcDbAlignedDimension
 13
1107.811401
 23
706.0000000000001
 33
0.0
 14
1107.811401
 24
681.0000000000001
 34
0.0
 50
90.0
100
AcDbRotatedDimension
1001
ACAD
1000
DSTYLE
1002
{
1070
   270
1070
     2
1070
     6
1000
EX_BNORM
1070
     7
1000
EX_BNORM
1070
    41
1040
12.0
1070
    42
1040
6.0
1070
    44
1040
6.0
1070
    73
1070
     0
1070
    74
1070
     0
1070
    75
1070
     0
1070
    76
1070
     0
1070
    77
1070
     1
1070
    78
1070
     0
1070
   140
1040
9.3543312
1070
   147
1040
0.0
1070
   173
1070
     1
1070
   176
1070
     1
1070
   177
1070
     1
1070
   178
1070
     1
1070
   271
1070
     0
1070
   277
1070
     2
1070
   279
1070
     2
1070
   280
1070
     0
1070
   287
1070
     5
1070
   340
1005
107
1002
}
  0
LEADER
  5
130
330
1F
100
AcDbEntity
  8
調整材穴有475_492_502_
  6
CONTINUOUS
 62
     1
100
AcDbLeader
  3
ISO-25
 76
     3
 10
1209.805664
 20
1171.892578
 30
0.0
 10
1243.782837
 20
1230.742676
 30
0.0
 10
1298.0
 20
1230.742676
 30
0.0
1001
ACAD
1000
DSTYLE
1002
{
1070
     5
1000
EX_BNORM
1070
    41
1040
12.0
1070
   341
1005
7A
1002
}
  0
DIMENSION
  5
131
330
1F
100
AcDbEntity
  8
調整材穴有475_492_502_
  6
CONTINUOUS
 62
     1
100
AcDbDimension
  2
*D18
 10
1331.302026
 20
1168.0
 30
0.0
 11
1323.002026
 21
1190.1
 31
0.0
 70
   160
 53
90.00000000000001
  3
ISO-25
100
AcDbAlignedDimension
 13
1207.811401
 23
1173.0
 33
0.0
 14
1232.811401
 24
1168.0
 34
0.0
 50
90.0
100
AcDbRotatedDimension
1001
ACAD
1000
DSTYLE
1002
{
1070
   270
1070
     2
1070
     6
1000
EX_BNORM
1070
     7
1000
EX_BNORM
1070
    41
1040
12.0
1070
    42
1040
6.0
1070
    44
1040
6.0
1070
    73
1070
     0
1070
    74
1070
     0
1070
    75
1070
     0
1070
    76
1070
     0
1070
    77
1070
     1
1070
    78
1070
     0
1070
   140
1040
9.3543312
1070
   147
1040
0.0
1070
   173
1070
     1
1070
   176
1070
     1
1070
   177
1070
     1
1070
   178
1070
     1
1070
   271
1070
     0
1070
   277
1070
     2
1070
   279
1070
     2
1070
   280
1070
     0
1070
   287
1070
     5
1070
   340
1005
107
1002
}
  0
DIMENSION
  5
140
330
1F
100
AcDbEntity
  8
調整材穴有475_492_502_
  6
CONTINUOUS
 62
     1
100
AcDbDimension
  2
*D19
 10
1331.302026
 20
681.0000000000001
 30
0.0
 11
1324.302026
 21
662.6
 31
0.0
 70
   160
 53
90.00000000000001
  3
ISO-25
100
AcDbAlignedDimension
 13
1232.811401
 23
686.0000000000001
 33
0.0
 14
1207.811401
 24
681.0000000000001
 34
0.0
 50
90.0
100
AcDbRotatedDimension
1001
ACAD
1000
DSTYLE
1002
{
1070
   270
1070
     2
1070
     6
1000
EX_BNORM
1070
     7
1000
EX_BNORM
1070
    41
1040
12.0
1070
    42
1040
6.0
1070
    44
1040
6.0
1070
    73
1070
     0
1070
    74
1070
     0
1070
    75
1070
     0
1070
    76
1070
     0
1070
    77
1070
     1
1070
    78
1070
     0
1070
   140
1040
9.3543312
1070
   147
1040
0.0
1070
   173
1070
     1
1070
   176
1070
     1
1070
   177
1070
     1
1070
   178
1070
     1
1070
   271
1070
     0
1070
   277
1070
     2
1070
   279
1070
     2
1070
   280
1070
     0
1070
   287
1070
     5
1070
   340
1005
107
1002
}
  0
DIMENSION
  5
14F
330
1F
100
AcDbEntity
  8
調整材穴有475_492_502_
  6
CONTINUOUS
 62
     1
100
AcDbDimension
  2
*D20
 10
1363.902026
 20
681.0000000000001
 30
0.0
 11
1355.902026
 21
927.0
 31
0.0
 70
   160
  3
ISO-25
100
AcDbAlignedDimension
 13
1207.811401
 23
1173.0
 33
0.0
 14
1207.811401
 24
681.0000000000001
 34
0.0
 50
90.0
100
AcDbRotatedDimension
1001
ACAD
1000
DSTYLE
1002
{
1070
   270
1070
     2
1070
     6
1000
EX_BNORM
1070
     7
1000
EX_BNORM
1070
    41
1040
12.0
1070
    42
1040
6.0
1070
    44
1040
6.0
1070
    73
1070
     0
1070
    74
1070
     0
1070
    75
1070
     0
1070
    76
1070
     0
1070
    77
1070
     1
1070
    78
1070
     0
1070
   140
1040
9.3543312
1070
   147
1040
0.0
1070
   173
1070
     1
1070
   176
1070
     1
1070
   177
1070
     1
1070
   178
1070
     1
1070
   271
1070
     0
1070
   277
1070
     2
1070
   279
1070
     2
1070
   280
1070
     0
1070
   287
1070
     5
1070
   340
1005
107
1002
}
  0
DIMENSION
  5
15C
330
1F
100
AcDbEntity
  8
調整材穴有475_492_502_
  6
CONTINUOUS
 62
     1
100
AcDbDimension
  2
*D21
 10
1232.811401
 20
578.3000000000001
 30
0.0
 11
1157.811401
 21
586.3000000000001
 31
0.0
 70
   160
  3
ISO-25
100
AcDbAlignedDimension
 13
1082.811401
 23
686.0000000000001
 33
0.0
 14
1232.811401
 24
686.0000000000001
 34
0.0
100
AcDbRotatedDimension
1001
ACAD
1000
DSTYLE
1002
{
1070
   270
1070
     2
1070
     6
1000
EX_BNORM
1070
     7
1000
EX_BNORM
1070
    41
1040
12.0
1070
    42
1040
6.0
1070
    44
1040
6.0
1070
    73
1070
     0
1070
    74
1070
     0
1070
    75
1070
     0
1070
    76
1070
     0
1070
    77
1070
     1
1070
    78
1070
     0
1070
   140
1040
9.3543312
1070
   147
1040
0.0
1070
   173
1070
     1
1070
   176
1070
     1
1070
   177
1070
     1
1070
   178
1070
     1
1070
   271
1070
     0
1070
   277
1070
     2
1070
   279
1070
     2
1070
   280
1070
     0
1070
   287
1070
     5
1070
   340
1005
107
1002
}
  0
DIMENSION
  5
169
330
1F
100
AcDbEntity
  8
調整材穴有475_492_502_
  6
CONTINUOUS
 62
     1
100
AcDbDimension
  2
*D22
 10
1207.811401
 20
612.2000000000002
 30
0.0
 11
1157.811401
 21
620.2000000000002
 31
0.0
 70
   160
  3
ISO-25
100
AcDbAlignedDimension
 13
1107.811401
 23
681.0000000000001
 33
0.0
 14
1207.811401
 24
681.0000000000001
 34
0.0
100
AcDbRotatedDimension
1001
ACAD
1000
DSTYLE
1002
{
1070
   270
1070
     2
1070
     6
1000
EX_BNORM
1070
     7
1000
EX_BNORM
1070
    41
1040
12.0
1070
    42
1040
6.0
1070
    44
1040
6.0
1070
    73
1070
     0
1070
    74
1070
     0
1070
    75
1070
     0
1070
    76
1070
     0
1070
    77
1070
     1
1070
    78
1070
     0
1070
   140
1040
9.3543312
1070
   147
1040
0.0
1070
   173
1070
     1
1070
   176
1070
     1
1070
   177
1070
     1
1070
   178
1070
     1
1070
   271
1070
     0
1070
   277
1070
     2
1070
   279
1070
     2
1070
   280
1070
     0
1070
   287
1070
     5
1070
   340
1005
107
1002
}
  0
LINE
  5
176
330
1F
100
AcDbEntity
  8
調整材穴有475_492_502_
  6
EXLTYPE0
 62
     2
100
AcDbLine
 10
1844.405640000001
 20
943.0
 30
0.0
 11
1844.405640000001
 21
911.0
 31
0.0
  0
LINE
  5
177
330
1F
100
AcDbEntity
  8
調整材穴有475_492_502_
  6
CONTINUOUS
 62
     7
100
AcDbLine
 10
1506.90564
 20
681.0
 30
0.0
 11
1981.90564
 21
681.0
 31
0.0
  0
LINE
  5
178
330
1F
100
AcDbEntity
  8
調整材穴有475_492_502_
  6
CONTINUOUS
 62
     7
100
AcDbLine
 10
1981.90564
 20
681.0
 30
0.0
 11
1981.90564
 21
1173.0
 31
0.0
  0
LINE
  5
179
330
1F
100
AcDbEntity
  8
調整材穴有475_492_502_
  6
CONTINUOUS
 62
     7
100
AcDbLine
 10
1981.90564
 20
1173.0
 30
0.0
 11
1506.90564
 21
1173.0
 31
0.0
  0
LINE
  5
17A
330
1F
100
AcDbEntity
  8
調整材穴有475_492_502_
  6
CONTINUOUS
 62
     7
100
AcDbLine
 10
1506.90564
 20
1173.0
 30
0.0
 11
1506.90564
 21
681.0
 31
0.0
  0
LINE
  5
17B
330
1F
100
AcDbEntity
  8
調整材穴有475_492_502_
  6
EXLTYPE2
 62
     1
100
AcDbLine
 10
1744.40564
 20
665.726258
 30
0.0
 11
1744.40564
 21
1190.0
 31
0.0
  0
LINE
  5
17C
330
1F
100
AcDbEntity
  8
調整材穴有475_492_502_
  6
CONTINUOUS
 62
     7
100
AcDbLine
 10
1506.90564
 20
1168.0
 30
0.0
 11
1981.90564
 21
1168.0
 31
0.0
  0
LINE
  5
17D
330
1F
100
AcDbEntity
  8
調整材穴有475_492_502_
  6
CONTINUOUS
 62
     7
100
AcDbLine
 10
1981.90564
 20
686.0
 30
0.0
 11
1506.90564
 21
685.999939
 31
0.0
  0
CIRCLE
  5
17E
330
1F
100
AcDbEntity
  8
調整材穴有475_492_502_
  6
CONTINUOUS
 62
     7
100
AcDbCircle
 10
1939.40564
 20
1112.0
 30
0.0
 40
13.0
  0
DIMENSION
  5
17F
330
1F
100
AcDbEntity
  8
調整材穴有475_492_502_
  6
CONTINUOUS
 62
     1
100
AcDbDimension
  2
*D23
 10
1460.0
 20
911.0
 30
0.0
 11
1452.0
 21
927.0
 31
0.0
 70
   160
  3
ISO-25
100
AcDbAlignedDimension
 13
1506.905701
 23
943.0
 33
0.0
 14
1506.905701
 24
911.0
 34
0.0
 50
90.0
100
AcDbRotatedDimension
1001
ACAD
1000
DSTYLE
1002
{
1070
   270
1070
     2
1070
     6
1000
EX_BNORM
1070
     7
1000
EX_BNORM
1070
    41
1040
12.0
1070
    42
1040
6.0
1070
    44
1040
6.0
1070
    73
1070
     0
1070
    74
1070
     0
1070
    75
1070
     0
1070
    76
1070
     0
1070
    77
1070
     1
1070
    78
1070
     0
1070
   140
1040
9.3543312
1070
   147
1040
0.0
1070
   173
1070
     1
1070
   176
1070
     1
1070
   177
1070
     1
1070
   178
1070
     1
1070
   271
1070
     0
1070
   277
1070
     2
1070
   279
1070
     2
1070
   280
1070
     0
1070
   287
1070
     5
1070
   340
1005
107
1002
}
  0
DIMENSION
  5
18C
330
1F
100
AcDbEntity
  8
調整材穴有475_492_502_
  6
CONTINUOUS
 62
     1
100
AcDbDimension
  2
*D24
 10
1762.40564
 20
1204.0
 30
0.0
 11
1744.40564
 21
1212.0
 31
0.0
 70
   160
  3
ISO-25
100
AcDbAlignedDimension
 13
1726.40564
 23
1148.0
 33
0.0
 14
1762.40564
 24
1148.0
 34
0.0
100
AcDbRotatedDimension
1001
ACAD
1000
DSTYLE
1002
{
1070
   270
1070
     2
1070
     6
1000
EX_BNORM
1070
     7
1000
EX_BNORM
1070
    41
1040
12.0
1070
    42
1040
6.0
1070
    44
1040
6.0
1070
    73
1070
     0
1070
    74
1070
     0
1070
    75
1070
     0
1070
    76
1070
     0
1070
    77
1070
     1
1070
    78
1070
     0
1070
   140
1040
9.3543312
1070
   147
1040
0.0
1070
   173
1070
     1
1070
   176
1070
     1
1070
   177
1070
     1
1070
   178
1070
     1
1070
   271
1070
     0
1070
   277
1070
     2
1070
   279
1070
     2
1070
   280
1070
     0
1070
   287
1070
     5
1070
   340
1005
107
1002
}
  0
CIRCLE
  5
199
330
1F
100
AcDbEntity
  8
調整材穴有475_492_502_
  6
CONTINUOUS
 62
     7
100
AcDbCircle
 10
1939.40564
 20
742.0
 30
0.0
 40
13.0
  0
CIRCLE
  5
19A
330
1F
100
AcDbEntity
  8
調整材穴有475_492_502_
  6
CONTINUOUS
 62
     7
100
AcDbCircle
 10
1549.40564
 20
1112.0
 30
0.0
 40
13.0
  0
CIRCLE
  5
19B
330
1F
100
AcDbEntity
  8
調整材穴有475_492_502_
  6
CONTINUOUS
 62
     7
100
AcDbCircle
 10
1549.40564
 20
742.0
 30
0.0
 40
13.0
  0
LINE
  5
19C
330
1F
100
AcDbEntity
  8
調整材穴有475_492_502_
  6
CONTINUOUS
 62
     3
100
AcDbLine
 10
1278.804931
 20
1230.742676
 30
0.0
 11
1291.312256
 21
1230.742676
 31
0.0
  0
LINE
  5
19D
330
1F
100
AcDbEntity
  8
調整材穴有475_492_502_
  6
CONTINUOUS
 62
     3
100
AcDbLine
 10
1171.002026
 20
1117.6657225
 30
0.0
 11
1183.926342
 21
1117.6657225
 31
0.0
  0
LINE
  5
19E
330
1F
100
AcDbEntity
  8
調整材穴有475_492_502_
  6
CONTINUOUS
 62
     3
100
AcDbLine
 10
1171.202026
 20
1028.6657225
 30
0.0
 11
1184.126342
 21
1028.6657225
 31
0.0
  0
TEXT
  5
19F
330
1F
100
AcDbEntity
  8
調整材穴有475_492_502_
  6
CONTINUOUS
 62
     6
100
AcDbText
 10
411.796386
 20
1295.2834656
 30
0.0
 40
24.9448832
  1
ストローク側
 41
0.8389380490719887
  7
EXCADSTD
 72
     5
 11
598.6763860000001
 21
1295.2834656
 31
0.0
100
AcDbText
  0
LINE
  5
1A0
330
1F
100
AcDbEntity
  8
調整材穴有475_492_502_
  6
EXLTYPE0
 62
     2
100
AcDbLine
 10
238.4999999999998
 20
1148.0
 30
0.0
 11
713.4999999999998
 21
1148.0
 31
0.0
  0
LINE
  5
1A1
330
1F
100
AcDbEntity
  8
調整材穴有475_492_502_
  6
EXLTYPE0
 62
     2
100
AcDbLine
 10
713.5
 20
706.0
 30
0.0
 11
238.5000000000001
 21
705.999939
 31
0.0
  0
LINE
  5
1A2
330
1F
100
AcDbEntity
  8
調整材穴有475_492_502_
  6
EXLTYPE0
 62
     2
100
AcDbLine
 10
238.5000610000001
 20
943.0
 30
0.0
 11
376.0
 21
943.0
 31
0.0
  0
LINE
  5
1A3
330
1F
100
AcDbEntity
  8
調整材穴有475_492_502_
  6
EXLTYPE0
 62
     2
100
AcDbLine
 10
238.5000610000001
 20
911.0
 30
0.0
 11
376.0
 21
911.0
 31
0.0
  0
LINE
  5
1A4
330
1F
100
AcDbEntity
  8
調整材穴有475_492_502_
  6
EXLTYPE0
 62
     2
100
AcDbLine
 10
575.9999999999999
 20
943.0
 30
0.0
 11
713.5
 21
943.0
 31
0.0
  0
LINE
  5
1A5
330
1F
100
AcDbEntity
  8
調整材穴有475_492_502_
  6
EXLTYPE0
 62
     2
100
AcDbLine
 10
575.9999999999999
 20
911.0
 30
0.0
 11
713.5
 21
911.0
 31
0.0
  0
LINE
  5
1A6
330
1F
100
AcDbEntity
  8
調整材穴有475_492_502_
  6
CONTINUOUS
 62
     7
100
AcDbLine
 10
238.5000000000001
 20
681.0
 30
0.0
 11
713.5
 21
681.0
 31
0.0
  0
LINE
  5
1A7
330
1F
100
AcDbEntity
  8
調整材穴有475_492_502_
  6
CONTINUOUS
 62
     7
100
AcDbLine
 10
713.5
 20
681.0
 30
0.0
 11
713.4999999999998
 21
1173.0
 31
0.0
  0
LINE
  5
1A8
330
1F
100
AcDbEntity
  8
調整材穴有475_492_502_
  6
CONTINUOUS
 62
     7
100
AcDbLine
 10
713.4999999999998
 20
1173.0
 30
0.0
 11
238.4999999999998
 21
1173.0
 31
0.0
  0
LINE
  5
1A9
330
1F
100
AcDbEntity
  8
調整材穴有475_492_502_
  6
CONTINUOUS
 62
     7
100
AcDbLine
 10
238.4999999999998
 20
1173.0
 30
0.0
 11
238.5000000000001
 21
681.0
 31
0.0
  0
LINE
  5
1AA
330
1F
100
AcDbEntity
  8
調整材穴有475_492_502_
  6
EXLTYPE2
 62
     1
100
AcDbLine
 10
725.59436
 20
927.0
 30
0.0
 11
217.5943600000001
 21
927.0
 31
0.0
  0
LINE
  5
1AB
330
1F
100
AcDbEntity
  8
調整材穴有475_492_502_
  6
EXLTYPE2
 62
     1
100
AcDbLine
 10
476.0000000000001
 20
665.726258
 30
0.0
 11
475.9999999999998
 21
1190.0
 31
0.0
  0
LINE
  5
1AC
330
1F
100
AcDbEntity
  8
調整材穴有475_492_502_
  6
CONTINUOUS
 62
     7
100
AcDbLine
 10
238.4999999999998
 20
1168.0
 30
0.0
 11
713.4999999999998
 21
1168.0
 31
0.0
  0
LINE
  5
1AD
330
1F
100
AcDbEntity
  8
調整材穴有475_492_502_
  6
CONTINUOUS
 62
     7
100
AcDbLine
 10
713.5
 20
686.0
 30
0.0
 11
238.5000000000001
 21
685.999939
 31
0.0
  0
DIMENSION
  5
1AE
330
1F
100
AcDbEntity
  8
調整材穴有475_492_502_
  6
CONTINUOUS
 62
     1
100
AcDbDimension
  2
*D25
 10
194.5943600000001
 20
911.0000000000001
 30
0.0
 11
186.5943600000002
 21
927.0000000000001
 31
0.0
 70
   160
  3
ISO-25
100
AcDbAlignedDimension
 13
238.5000610000001
 23
943.0000000000001
 33
0.0
 14
238.5000610000001
 24
911.0000000000001
 34
0.0
 50
90.0
100
AcDbRotatedDimension
1001
ACAD
1000
DSTYLE
1002
{
1070
   270
1070
     2
1070
     6
1000
EX_BNORM
1070
     7
1000
EX_BNORM
1070
    41
1040
12.0
1070
    42
1040
6.0
1070
    44
1040
6.0
1070
    73
1070
     0
1070
    74
1070
     0
1070
    75
1070
     0
1070
    76
1070
     0
1070
    77
1070
     1
1070
    78
1070
     0
1070
   140
1040
9.3543312
1070
   147
1040
0.0
1070
   173
1070
     1
1070
   176
1070
     1
1070
   177
1070
     1
1070
   178
1070
     1
1070
   271
1070
     0
1070
   277
1070
     2
1070
   279
1070
     2
1070
   280
1070
     0
1070
   287
1070
     5
1070
   340
1005
107
1002
}
  0
DIMENSION
  5
1BB
330
1F
100
AcDbEntity
  8
調整材穴有475_492_502_
  6
CONTINUOUS
 62
     1
100
AcDbDimension
  2
*D26
 10
1015.802026
 20
943.0000000000001
 30
0.0
 11
1007.802026
 21
1045.5
 31
0.0
 70
   160
  3
ISO-25
100
AcDbAlignedDimension
 13
1107.811401
 23
1148.0
 33
0.0
 14
1107.811401
 24
943.0000000000001
 34
0.0
 50
90.0
100
AcDbRotatedDimension
1001
ACAD
1000
DSTYLE
1002
{
1070
   270
1070
     2
1070
     6
1000
EX_BNORM
1070
     7
1000
EX_BNORM
1070
    41
1040
12.0
1070
    42
1040
6.0
1070
    44
1040
6.0
1070
    73
1070
     0
1070
    74
1070
     0
1070
    75
1070
     0
1070
    76
1070
     0
1070
    77
1070
     1
1070
    78
1070
     0
1070
   140
1040
9.3543312
1070
   147
1040
0.0
1070
   173
1070
     1
1070
   176
1070
     1
1070
   177
1070
     1
1070
   178
1070
     1
1070
   271
1070
     0
1070
   277
1070
     2
1070
   279
1070
     2
1070
   280
1070
     0
1070
   287
1070
     5
1070
   340
1005
107
1002
}
  0
DIMENSION
  5
1C8
330
1F
100
AcDbEntity
  8
調整材穴有475_492_502_
  6
CONTINUOUS
 62
     1
100
AcDbDimension
  2
*D27
 10
1015.802026
 20
706.0000000000001
 30
0.0
 11
1007.802026
 21
808.5
 31
0.0
 70
   160
  3
ISO-25
100
AcDbAlignedDimension
 13
1107.811401
 23
911.0000000000001
 33
0.0
 14
1107.811401
 24
706.0000000000001
 34
0.0
 50
90.0
100
AcDbRotatedDimension
1001
ACAD
1000
DSTYLE
1002
{
1070
   270
1070
     2
1070
     6
1000
EX_BNORM
1070
     7
1000
EX_BNORM
1070
    41
1040
12.0
1070
    42
1040
6.0
1070
    44
1040
6.0
1070
    73
1070
     0
1070
    74
1070
     0
1070
    75
1070
     0
1070
    76
1070
     0
1070
    77
1070
     1
1070
    78
1070
     0
1070
   140
1040
9.3543312
1070
   147
1040
0.0
1070
   173
1070
     1
1070
   176
1070
     1
1070
   177
1070
     1
1070
   178
1070
     1
1070
   271
1070
     0
1070
   277
1070
     2
1070
   279
1070
     2
1070
   280
1070
     0
1070
   287
1070
     5
1070
   340
1005
107
1002
}
  0
DIMENSION
  5
1D5
330
1F
100
AcDbEntity
  8
調整材穴有475_492_502_
  6
CONTINUOUS
 62
     1
100
AcDbDimension
  2
*D28
 10
1107.811401
 20
612.2000000000002
 30
0.0
 11
1095.311401
 21
620.2000000000002
 31
0.0
 70
   160
  3
ISO-25
100
AcDbAlignedDimension
 13
1082.811401
 23
686.0000000000001
 33
0.0
 14
1107.811401
 24
686.0000000000001
 34
0.0
100
AcDbRotatedDimension
1001
ACAD
1000
DSTYLE
1002
{
1070
   270
1070
     2
1070
     6
1000
EX_BNORM
1070
     7
1000
EX_BNORM
1070
    41
1040
12.0
1070
    42
1040
6.0
1070
    44
1040
6.0
1070
    73
1070
     0
1070
    74
1070
     0
1070
    75
1070
     0
1070
    76
1070
     0
1070
    77
1070
     1
1070
    78
1070
     0
1070
   140
1040
9.3543312
1070
   147
1040
0.0
1070
   173
1070
     1
1070
   176
1070
     1
1070
   177
1070
     1
1070
   178
1070
     1
1070
   271
1070
     0
1070
   277
1070
     2
1070
   279
1070
     2
1070
   280
1070
     0
1070
   287
1070
     5
1070
   340
1005
107
1002
}
  0
DIMENSION
  5
1E2
330
1F
100
AcDbEntity
  8
調整材穴有475_492_502_
  6
CONTINUOUS
 62
     1
100
AcDbDimension
  2
*D29
 10
1232.811401
 20
612.2000000000002
 30
0.0
 11
1220.311401
 21
620.2000000000002
 31
0.0
 70
   160
  3
ISO-25
100
AcDbAlignedDimension
 13
1207.811401
 23
686.0000000000001
 33
0.0
 14
1232.811401
 24
686.0000000000001
 34
0.0
100
AcDbRotatedDimension
1001
ACAD
1000
DSTYLE
1002
{
1070
   270
1070
     2
1070
     6
1000
EX_BNORM
1070
     7
1000
EX_BNORM
1070
    41
1040
12.0
1070
    42
1040
6.0
1070
    44
1040
6.0
1070
    73
1070
     0
1070
    74
1070
     0
1070
    75
1070
     0
1070
    76
1070
     0
1070
    77
1070
     1
1070
    78
1070
     0
1070
   140
1040
9.3543312
1070
   147
1040
0.0
1070
   173
1070
     1
1070
   176
1070
     1
1070
   177
1070
     1
1070
   178
1070
     1
1070
   271
1070
     0
1070
   277
1070
     2
1070
   279
1070
     2
1070
   280
1070
     0
1070
   287
1070
     5
1070
   340
1005
107
1002
}
  0
DIMENSION
  5
1EF
330
1F
100
AcDbEntity
  8
調整材穴有475_492_502_
  6
CONTINUOUS
 62
     1
100
AcDbDimension
  2
*D30
 10
1331.302026
 20
1168.0
 30
0.0
 11
1323.302026
 21
927.0
 31
0.0
 70
   160
  3
ISO-25
100
AcDbAlignedDimension
 13
1232.811401
 23
686.0000000000001
 33
0.0
 14
1232.811401
 24
1168.0
 34
0.0
 50
90.0
100
AcDbRotatedDimension
1001
ACAD
1000
DSTYLE
1002
{
1070
   270
1070
     2
1070
     6
1000
EX_BNORM
1070
     7
1000
EX_BNORM
1070
    41
1040
12.0
1070
    42
1040
6.0
1070
    44
1040
6.0
1070
    73
1070
     0
1070
    74
1070
     0
1070
    75
1070
     0
1070
    76
1070
     0
1070
    77
1070
     1
1070
    78
1070
     0
1070
   140
1040
9.3543312
1070
   147
1040
0.0
1070
   173
1070
     1
1070
   176
1070
     1
1070
   177
1070
     1
1070
   178
1070
     1
1070
   271
1070
     0
1070
   277
1070
     2
1070
   279
1070
     2
1070
   280
1070
     0
1070
   287
1070
     5
1070
   340
1005
107
1002
}
  0
LINE
  5
1FC
330
1F
100
AcDbEntity
  8
調整材穴有475_492_502_
  6
EXLTYPE2
 62
     1
100
AcDbLine
 10
1994.0
 20
927.0
 30
0.0
 11
1486.0
 21
927.0
 31
0.0
  0
LINE
  5
1FD
330
1F
100
AcDbEntity
  8
調整材穴有475_492_502_
  6
EXLTYPE2
 62
     1
100
AcDbLine
 10
1962.9
 20
742.0
 30
0.0
 11
1917.7
 21
742.0
 31
0.0
  0
LINE
  5
1FE
330
1F
100
AcDbEntity
  8
調整材穴有475_492_502_
  6
EXLTYPE2
 62
     1
100
AcDbLine
 10
1573.7
 20
742.0
 30
0.0
 11
1525.91128
 21
742.0
 31
0.0
  0
LINE
  5
1FF
330
1F
100
AcDbEntity
  8
調整材穴有475_492_502_
  6
EXLTYPE2
 62
     1
100
AcDbLine
 10
1549.40564
 20
1088.8
 30
0.0
 11
1549.40564
 21
1137.0
 31
0.0
  0
LINE
  5
200
330
1F
100
AcDbEntity
  8
調整材穴有475_492_502_
  6
EXLTYPE2
 62
     1
100
AcDbLine
 10
1549.40564
 20
716.0
 30
0.0
 11
1549.40564
 21
765.1000000000001
 31
0.0
  0
LINE
  5
201
330
1F
100
AcDbEntity
  8
調整材穴有475_492_502_
  6
EXLTYPE2
 62
     1
100
AcDbLine
 10
1939.40564
 20
716.0
 30
0.0
 11
1939.40564
 21
765.1000000000003
 31
0.0
  0
LINE
  5
202
330
1F
100
AcDbEntity
  8
調整材穴有475_492_502_
  6
EXLTYPE2
 62
     1
100
AcDbLine
 10
1939.40564
 20
1088.8
 30
0.0
 11
1939.40564
 21
1137.0
 31
0.0
  0
LINE
  5
203
330
1F
100
AcDbEntity
  8
調整材穴有475_492_502_
  6
EXLTYPE2
 62
     1
100
AcDbLine
 10
1573.7
 20
1112.0
 30
0.0
 11
1525.91128
 21
1112.0
 31
0.0
  0
LINE
  5
204
330
1F
100
AcDbEntity
  8
調整材穴有475_492_502_
  6
EXLTYPE2
 62
     1
100
AcDbLine
 10
1962.9
 20
1112.0
 30
0.0
 11
1917.700000000001
 21
1112.0
 31
0.0
  0
DIMENSION
  5
205
330
1F
100
AcDbEntity
  8
調整材穴有475_492_502_
  6
CONTINUOUS
 62
     1
100
AcDbDimension
  2
*D31
 10
2076.6
 20
742.0
 30
0.0
 11
2068.6
 21
927.0
 31
0.0
 70
   160
  3
ISO-25
100
AcDbAlignedDimension
 13
1962.9
 23
1112.0
 33
0.0
 14
1962.9
 24
742.0
 34
0.0
 50
90.0
100
AcDbRotatedDimension
1001
ACAD
1000
DSTYLE
1002
{
1070
   270
1070
     2
1070
     6
1000
EX_BNORM
1070
     7
1000
EX_BNORM
1070
    41
1040
12.0
1070
    42
1040
6.0
1070
    44
1040
6.0
1070
    73
1070
     0
1070
    74
1070
     0
1070
    75
1070
     0
1070
    76
1070
     0
1070
    77
1070
     1
1070
    78
1070
     0
1070
   140
1040
9.3543312
1070
   147
1040
0.0
1070
   173
1070
     1
1070
   176
1070
     1
1070
   177
1070
     1
1070
   178
1070
     1
1070
   271
1070
     0
1070
   277
1070
     2
1070
   279
1070
     2
1070
   280
1070
     0
1070
   287
1070
     5
1070
   340
1005
107
1002
}
  0
DIMENSION
  5
212
330
1F
100
AcDbEntity
  8
調整材穴有475_492_502_
  6
CONTINUOUS
 62
     1
100
AcDbDimension
  2
*D32
 10
2106.6
 20
1168.0
 30
0.0
 11
2098.75437
 21
1189.6
 31
0.0
 70
   160
 53
90.00000000000001
  3
ISO-25
100
AcDbAlignedDimension
 13
1981.90564
 23
1173.0
 33
0.0
 14
1981.90564
 24
1168.0
 34
0.0
 50
90.0
100
AcDbRotatedDimension
1001
ACAD
1000
DSTYLE
1002
{
1070
   270
1070
     2
1070
     6
1000
EX_BNORM
1070
     7
1000
EX_BNORM
1070
    41
1040
12.0
1070
    42
1040
6.0
1070
    44
1040
6.0
1070
    73
1070
     0
1070
    74
1070
     0
1070
    75
1070
     0
1070
    76
1070
     0
1070
    77
1070
     1
1070
    78
1070
     0
1070
   140
1040
9.3543312
1070
   147
1040
0.0
1070
   173
1070
     1
1070
   176
1070
     1
1070
   177
1070
     1
1070
   178
1070
     1
1070
   271
1070
     0
1070
   277
1070
     2
1070
   279
1070
     2
1070
   280
1070
     0
1070
   287
1070
     5
1070
   340
1005
107
1002
}
  0
DIMENSION
  5
221
330
1F
100
AcDbEntity
  8
調整材穴有475_492_502_
  6
CONTINUOUS
 62
     1
100
AcDbDimension
  2
*D33
 10
2106.6
 20
681.0
 30
0.0
 11
2099.654370000001
 21
660.5
 31
0.0
 70
   160
 53
90.00000000000001
  3
ISO-25
100
AcDbAlignedDimension
 13
1981.90564
 23
686.0
 33
0.0
 14
1981.90564
 24
681.0
 34
0.0
 50
90.0
100
AcDbRotatedDimension
1001
ACAD
1000
DSTYLE
1002
{
1070
   270
1070
     2
1070
     6
1000
EX_BNORM
1070
     7
1000
EX_BNORM
1070
    41
1040
12.0
1070
    42
1040
6.0
1070
    44
1040
6.0
1070
    73
1070
     0
1070
    74
1070
     0
1070
    75
1070
     0
1070
    76
1070
     0
1070
    77
1070
     1
1070
    78
1070
     0
1070
   140
1040
9.3543312
1070
   147
1040
0.0
1070
   173
1070
     1
1070
   176
1070
     1
1070
   177
1070
     1
1070
   178
1070
     1
1070
   271
1070
     0
1070
   277
1070
     2
1070
   279
1070
     2
1070
   280
1070
     0
1070
   287
1070
     5
1070
   340
1005
107
1002
}
  0
DIMENSION
  5
230
330
1F
100
AcDbEntity
  8
調整材穴有475_492_502_
  6
CONTINUOUS
 62
     1
100
AcDbDimension
  2
*D34
 10
2106.6
 20
686.0
 30
0.0
 11
2098.6
 21
927.0
 31
0.0
 70
   160
  3
ISO-25
100
AcDbAlignedDimension
 13
2005.50564
 23
1168.0
 33
0.0
 14
2005.50564
 24
686.0
 34
0.0
 50
90.0
100
AcDbRotatedDimension
1001
ACAD
1000
DSTYLE
1002
{
1070
   270
1070
     2
1070
     6
1000
EX_BNORM
1070
     7
1000
EX_BNORM
1070
    41
1040
12.0
1070
    42
1040
0.0
1070
    44
1040
0.0
1070
    73
1070
     0
1070
    74
1070
     0
1070
    75
1070
     1
1070
    76
1070
     1
1070
    77
1070
     1
1070
    78
1070
     0
1070
   140
1040
9.3543312
1070
   147
1040
0.0
1070
   173
1070
     1
1070
   176
1070
     1
1070
   177
1070
     1
1070
   178
1070
     1
1070
   271
1070
     0
1070
   277
1070
     2
1070
   279
1070
     2
1070
   280
1070
     0
1070
   287
1070
     5
1070
   340
1005
107
1002
}
  0
DIMENSION
  5
23B
330
1F
100
AcDbEntity
  8
調整材穴有475_492_502_
  6
CONTINUOUS
 62
     1
100
AcDbDimension
  2
*D35
 10
1981.90564
 20
552.4
 30
0.0
 11
1744.40564
 21
560.4
 31
0.0
 70
   160
  3
ISO-25
100
AcDbAlignedDimension
 13
1506.90564
 23
681.0
 33
0.0
 14
1981.90564
 24
681.0
 34
0.0
100
AcDbRotatedDimension
1001
ACAD
1000
DSTYLE
1002
{
1070
   270
1070
     2
1070
     6
1000
EX_BNORM
1070
     7
1000
EX_BNORM
1070
    41
1040
12.0
1070
    42
1040
6.0
1070
    44
1040
6.0
1070
    73
1070
     0
1070
    74
1070
     0
1070
    75
1070
     0
1070
    76
1070
     0
1070
    77
1070
     1
1070
    78
1070
     0
1070
   140
1040
9.3543312
1070
   147
1040
0.0
1070
   173
1070
     1
1070
   176
1070
     1
1070
   177
1070
     1
1070
   178
1070
     1
1070
   271
1070
     0
1070
   277
1070
     2
1070
   279
1070
     2
1070
   280
1070
     0
1070
   287
1070
     5
1070
   340
1005
107
1002
}
  0
DIMENSION
  5
248
330
1F
100
AcDbEntity
  8
調整材穴有475_492_502_
  6
CONTINUOUS
 62
     1
100
AcDbDimension
  2
*D36
 10
1939.40564
 20
592.4
 30
0.0
 11
1744.40564
 21
600.4
 31
0.0
 70
   160
  3
ISO-25
100
AcDbAlignedDimension
 13
1549.40564
 23
721.0
 33
0.0
 14
1939.40564
 24
721.0
 34
0.0
100
AcDbRotatedDimension
1001
ACAD
1000
DSTYLE
1002
{
1070
   270
1070
     2
1070
     6
1000
EX_BNORM
1070
     7
1000
EX_BNORM
1070
    41
1040
12.0
1070
    42
1040
6.0
1070
    44
1040
6.0
1070
    73
1070
     0
1070
    74
1070
     0
1070
    75
1070
     0
1070
    76
1070
     0
1070
    77
1070
     1
1070
    78
1070
     0
1070
   140
1040
9.3543312
1070
   147
1040
0.0
1070
   173
1070
     1
1070
   176
1070
     1
1070
   177
1070
     1
1070
   178
1070
     1
1070
   271
1070
     0
1070
   277
1070
     2
1070
   279
1070
     2
1070
   280
1070
     0
1070
   287
1070
     5
1070
   340
1005
107
1002
}
  0
LEADER
  5
255
330
1F
100
AcDbEntity
  8
調整材穴有475_492_502_
  6
CONTINUOUS
 62
     1
100
AcDbLeader
  3
ISO-25
 76
     3
 10
1540.514421782
 20
1121.454047062
 30
0.0
 10
1485.5132051
 20
1211.718948833
 30
0.0
 10
1571.0
 20
1211.718948833
 30
0.0
1001
ACAD
1000
DSTYLE
1002
{
1070
     5
1000
EX_BNORM
1070
    41
1040
12.0
1070
   341
1005
7A
1002
}
  0
LINE
  5
256
330
1F
100
AcDbEntity
  8
調整材穴有475_492_502_
  6
EXLTYPE0
 62
     2
100
AcDbLine
 10
1107.811401
 20
1014.5
 30
0.0
 11
1082.811401
 21
1014.5
 31
0.0
  0
LINE
  5
257
330
1F
100
AcDbEntity
  8
調整材穴有475_492_502_
  6
EXLTYPE0
 62
     2
100
AcDbLine
 10
1107.811401
 20
989.5000000000003
 30
0.0
 11
1082.811401
 21
989.5000000000003
 31
0.0
  0
LINE
  5
258
330
1F
100
AcDbEntity
  8
調整材穴有475_492_502_
  6
EXLTYPE0
 62
     2
100
AcDbLine
 10
1107.811401
 20
1039.5
 30
0.0
 11
1082.811401
 21
1039.5
 31
0.0
  0
LINE
  5
259
330
1F
100
AcDbEntity
  8
調整材穴有475_492_502_
  6
EXLTYPE0
 62
     2
100
AcDbLine
 10
1107.811401
 20
1089.5
 30
0.0
 11
1082.811401
 21
1089.5
 31
0.0
  0
LINE
  5
25A
330
1F
100
AcDbEntity
  8
調整材穴有475_492_502_
  6
EXLTYPE0
 62
     2
100
AcDbLine
 10
1107.811401
 20
1064.5
 30
0.0
 11
1082.811401
 21
1064.5
 31
0.0
  0
LINE
  5
25B
330
1F
100
AcDbEntity
  8
調整材穴有475_492_502_
  6
EXLTYPE2
 62
     1
100
AcDbLine
 10
1070.284302
 20
1027.0
 30
0.0
 11
1119.0
 21
1027.0
 31
0.0
  0
LINE
  5
25C
330
1F
100
AcDbEntity
  8
調整材穴有475_492_502_
  6
EXLTYPE2
 62
     1
100
AcDbLine
 10
1070.284302
 20
1077.0
 30
0.0
 11
1119.0
 21
1077.0
 31
0.0
  0
LINE
  5
25D
330
1F
100
AcDbEntity
  8
調整材穴有475_492_502_
  6
EXLTYPE2
 62
     1
100
AcDbLine
 10
1070.284302
 20
1002.0
 30
0.0
 11
1119.0
 21
1002.0
 31
0.0
  0
DIMENSION
  5
25E
330
1F
100
AcDbEntity
  8
調整材穴有475_492_502_
  6
CONTINUOUS
 62
     1
100
AcDbDimension
  2
*D37
 10
1674.0
 20
866.9999674453028
 30
0.0
 11
1666.0
 21
786.4999837226515
 31
0.0
 70
   160
  3
ISO-25
100
AcDbAlignedDimension
 13
1728.40564
 23
706.0
 33
0.0
 14
1728.40564
 24
866.9999674453028
 34
0.0
 50
90.0
100
AcDbRotatedDimension
1001
ACAD
1000
DSTYLE
1002
{
1070
   270
1070
     2
1070
     6
1000
EX_BNORM
1070
     7
1000
EX_BNORM
1070
    41
1040
12.0
1070
    42
1040
8.0
1070
    44
1040
6.0
1070
    73
1070
     0
1070
    74
1070
     0
1070
    75
1070
     1
1070
    76
1070
     0
1070
    77
1070
     1
1070
    78
1070
     0
1070
   140
1040
9.3543312
1070
   147
1040
0.0
1070
   173
1070
     1
1070
   176
1070
     1
1070
   177
1070
     1
1070
   178
1070
     1
1070
   271
1070
     0
1070
   277
1070
     2
1070
   279
1070
     2
1070
   280
1070
     0
1070
   287
1070
     5
1070
   340
1005
107
1002
}
  0
DIMENSION
  5
26A
330
1F
100
AcDbEntity
  8
調整材穴有475_492_502_
  6
CONTINUOUS
 62
     1
100
AcDbDimension
  2
*D38
 10
1674.0
 20
987.0000000000001
 30
0.0
 11
1665.4
 21
963.2999837226514
 31
0.0
 70
   160
 53
90.00000000000001
  3
ISO-25
100
AcDbAlignedDimension
 13
1728.40564
 23
866.9999674453028
 33
0.0
 14
1726.40564
 24
987.0000000000001
 34
0.0
 50
90.0
100
AcDbRotatedDimension
1001
ACAD
1000
DSTYLE
1002
{
1070
   270
1070
     2
1070
     6
1000
EX_BNORM
1070
     7
1000
EX_BNORM
1070
    41
1040
12.0
1070
    42
1040
6.0
1070
    44
1040
6.0
1070
    73
1070
     0
1070
    74
1070
     0
1070
    75
1070
     1
1070
    76
1070
     0
1070
    77
1070
     1
1070
    78
1070
     0
1070
   140
1040
9.3543312
1070
   147
1040
0.0
1070
   173
1070
     1
1070
   176
1070
     1
1070
   177
1070
     1
1070
   178
1070
     1
1070
   271
1070
     0
1070
   277
1070
     2
1070
   279
1070
     2
1070
   280
1070
     0
1070
   287
1070
     5
1070
   340
1005
107
1002
}
  0
DIMENSION
  5
276
330
1F
100
AcDbEntity
  8
調整材穴有475_492_502_
  6
CONTINUOUS
 62
     1
100
AcDbDimension
  2
*D39
 10
1674.0
 20
1148.0
 30
0.0
 11
1666.0
 21
1067.5
 31
0.0
 70
   160
  3
ISO-25
100
AcDbAlignedDimension
 13
1728.40564
 23
987.0000000000001
 33
0.0
 14
1728.40564
 24
1148.0
 34
0.0
 50
90.0
100
AcDbRotatedDimension
1001
ACAD
1000
DSTYLE
1002
{
1070
   270
1070
     2
1070
     6
1000
EX_BNORM
1070
     7
1000
EX_BNORM
1070
    41
1040
12.0
1070
    42
1040
0.0
1070
    44
1040
0.0
1070
    73
1070
     0
1070
    74
1070
     0
1070
    75
1070
     1
1070
    76
1070
     1
1070
    77
1070
     1
1070
    78
1070
     0
1070
   140
1040
9.3543312
1070
   147
1040
0.0
1070
   173
1070
     1
1070
   176
1070
     1
1070
   177
1070
     1
1070
   178
1070
     1
1070
   271
1070
     0
1070
   277
1070
     2
1070
   279
1070
     2
1070
   280
1070
     0
1070
   287
1070
     5
1070
   340
1005
107
1002
}
  0
DIMENSION
  5
281
330
1F
100
AcDbEntity
  8
調整材穴有475_492_502_
  6
CONTINUOUS
 62
     1
100
AcDbDimension
  2
*D40
 10
1644.405639999999
 20
826.0000000000001
 30
0.0
 11
1575.6556705
 21
834.0000000000001
 31
0.0
 70
   160
  1
137.5
  3
ISO-25
100
AcDbAlignedDimension
 13
1506.905701
 23
911.0000000000001
 33
0.0
 14
1644.405639999999
 24
911.0000000000001
 34
0.0
100
AcDbRotatedDimension
1001
ACAD
1000
DSTYLE
1002
{
1070
   270
1070
     2
1070
     6
1000
EX_BNORM
1070
     7
1000
EX_BNORM
1070
    41
1040
12.0
1070
    42
1040
6.0
1070
    44
1040
6.0
1070
    73
1070
     0
1070
    74
1070
     0
1070
    75
1070
     1
1070
    76
1070
     0
1070
    77
1070
     1
1070
    78
1070
     0
1070
   140
1040
9.3543312
1070
   147
1040
0.0
1070
   173
1070
     1
1070
   176
1070
     1
1070
   177
1070
     1
1070
   178
1070
     1
1070
   271
1070
     0
1070
   277
1070
     2
1070
   279
1070
     2
1070
   280
1070
     0
1070
   287
1070
     5
1070
   340
1005
107
1002
}
  0
DIMENSION
  5
28D
330
1F
100
AcDbEntity
  8
調整材穴有475_492_502_
  6
CONTINUOUS
 62
     1
100
AcDbDimension
  2
*D41
 10
1844.405640000001
 20
826.0000000000001
 30
0.0
 11
1791.40564
 21
835.0000000000001
 31
0.0
 70
   160
  3
ISO-25
100
AcDbAlignedDimension
 13
1644.405639999999
 23
911.0000000000001
 33
0.0
 14
1844.405640000001
 24
911.0000000000001
 34
0.0
100
AcDbRotatedDimension
1001
ACAD
1000
DSTYLE
1002
{
1070
   270
1070
     2
1070
     6
1000
EX_BNORM
1070
     7
1000
EX_BNORM
1070
    41
1040
12.0
1070
    42
1040
6.0
1070
    44
1040
6.0
1070
    73
1070
     0
1070
    74
1070
     0
1070
    75
1070
     1
1070
    76
1070
     0
1070
    77
1070
     1
1070
    78
1070
     0
1070
   140
1040
9.3543312
1070
   147
1040
0.0
1070
   173
1070
     1
1070
   176
1070
     1
1070
   177
1070
     1
1070
   178
1070
     1
1070
   271
1070
     0
1070
   277
1070
     2
1070
   279
1070
     2
1070
   280
1070
     0
1070
   287
1070
     5
1070
   340
1005
107
1002
}
  0
DIMENSION
  5
299
330
1F
100
AcDbEntity
  8
調整材穴有475_492_502_
  6
CONTINUOUS
 62
     1
100
AcDbDimension
  2
*D42
 10
1981.90564
 20
826.0000000000001
 30
0.0
 11
1913.15564
 21
834.0000000000001
 31
0.0
 70
   160
  1
137.5
  3
ISO-25
100
AcDbAlignedDimension
 13
1844.405640000001
 23
911.0000000000001
 33
0.0
 14
1981.90564
 24
911.0000000000001
 34
0.0
100
AcDbRotatedDimension
1001
ACAD
1000
DSTYLE
1002
{
1070
   270
1070
     2
1070
     6
1000
EX_BNORM
1070
     7
1000
EX_BNORM
1070
    41
1040
12.0
1070
    42
1040
0.0
1070
    44
1040
0.0
1070
    73
1070
     0
1070
    74
1070
     0
1070
    75
1070
     1
1070
    76
1070
     1
1070
    77
1070
     1
1070
    78
1070
     0
1070
   140
1040
9.3543312
1070
   147
1040
0.0
1070
   173
1070
     1
1070
   176
1070
     1
1070
   177
1070
     1
1070
   178
1070
     1
1070
   271
1070
     0
1070
   277
1070
     2
1070
   279
1070
     2
1070
   280
1070
     0
1070
   287
1070
     5
1070
   340
1005
107
1002
}
  0
CIRCLE
  5
2A4
330
1F
100
AcDbEntity
  8
調整材穴有475_492_502_
  6
CONTINUOUS
 62
     7
100
AcDbCircle
 10
376.0
 20
1027.0
 30
0.0
 40
12.5
  0
CIRCLE
  5
2A5
330
1F
100
AcDbEntity
  8
調整材穴有475_492_502_
  6
CONTINUOUS
 62
     7
100
AcDbCircle
 10
576.0
 20
1027.0
 30
0.0
 40
12.5
  0
CIRCLE
  5
2A6
330
1F
100
AcDbEntity
  8
調整材穴有475_492_502_
  6
CONTINUOUS
 62
     7
100
AcDbCircle
 10
576.0
 20
827.0
 30
0.0
 40
12.5
  0
CIRCLE
  5
2A7
330
1F
100
AcDbEntity
  8
調整材穴有475_492_502_
  6
CONTINUOUS
 62
     7
100
AcDbCircle
 10
376.0
 20
827.0
 30
0.0
 40
12.5
  0
CIRCLE
  5
2A8
330
1F
100
AcDbEntity
  8
調整材穴有475_492_502_
  6
CONTINUOUS
 62
     7
100
AcDbCircle
 10
626.0
 20
1077.0
 30
0.0
 40
12.5
  0
CIRCLE
  5
2A9
330
1F
100
AcDbEntity
  8
調整材穴有475_492_502_
  6
CONTINUOUS
 62
     7
100
AcDbCircle
 10
326.0
 20
1077.0
 30
0.0
 40
12.5
  0
CIRCLE
  5
2AA
330
1F
100
AcDbEntity
  8
調整材穴有475_492_502_
  6
CONTINUOUS
 62
     7
100
AcDbCircle
 10
626.0
 20
777.0
 30
0.0
 40
12.5
  0
CIRCLE
  5
2AB
330
1F
100
AcDbEntity
  8
調整材穴有475_492_502_
  6
CONTINUOUS
 62
     7
100
AcDbCircle
 10
326.0
 20
777.0
 30
0.0
 40
12.5
  0
CIRCLE
  5
2AC
330
1F
100
AcDbEntity
  8
調整材穴有475_492_502_
  6
CONTINUOUS
 62
     7
100
AcDbCircle
 10
401.0
 20
1077.0
 30
0.0
 40
12.5
  0
CIRCLE
  5
2AD
330
1F
100
AcDbEntity
  8
調整材穴有475_492_502_
  6
CONTINUOUS
 62
     7
100
AcDbCircle
 10
401.0
 20
1002.0
 30
0.0
 40
12.5
  0
CIRCLE
  5
2AE
330
1F
100
AcDbEntity
  8
調整材穴有475_492_502_
  6
CONTINUOUS
 62
     7
100
AcDbCircle
 10
551.0
 20
1077.0
 30
0.0
 40
12.5
  0
CIRCLE
  5
2AF
330
1F
100
AcDbEntity
  8
調整材穴有475_492_502_
  6
CONTINUOUS
 62
     7
100
AcDbCircle
 10
551.0
 20
1002.0
 30
0.0
 40
12.5
  0
CIRCLE
  5
2B0
330
1F
100
AcDbEntity
  8
調整材穴有475_492_502_
  6
CONTINUOUS
 62
     7
100
AcDbCircle
 10
551.0
 20
852.0000000000001
 30
0.0
 40
12.5
  0
CIRCLE
  5
2B1
330
1F
100
AcDbEntity
  8
調整材穴有475_492_502_
  6
CONTINUOUS
 62
     7
100
AcDbCircle
 10
551.0
 20
777.0000000000001
 30
0.0
 40
12.5
  0
CIRCLE
  5
2B2
330
1F
100
AcDbEntity
  8
調整材穴有475_492_502_
  6
CONTINUOUS
 62
     7
100
AcDbCircle
 10
401.0
 20
777.0000000000001
 30
0.0
 40
12.5
  0
CIRCLE
  5
2B3
330
1F
100
AcDbEntity
  8
調整材穴有475_492_502_
  6
CONTINUOUS
 62
     7
100
AcDbCircle
 10
401.0
 20
852.0000000000001
 30
0.0
 40
12.5
  0
LINE
  5
2B4
330
1F
100
AcDbEntity
  8
調整材穴有475_492_502_
  6
EXLTYPE2
 62
     1
100
AcDbLine
 10
326.0
 20
1056.7
 30
0.0
 11
326.0
 21
1098.0
 31
0.0
  0
LINE
  5
2B5
330
1F
100
AcDbEntity
  8
調整材穴有475_492_502_
  6
EXLTYPE2
 62
     1
100
AcDbLine
 10
282.1943600000002
 20
1077.0
 30
0.0
 11
344.5943600000001
 21
1077.0
 31
0.0
  0
LINE
  5
2B6
330
1F
100
AcDbEntity
  8
調整材穴有475_492_502_
  6
EXLTYPE2
 62
     1
100
AcDbLine
 10
401.0
 20
1056.7
 30
0.0
 11
401.0
 21
1098.0
 31
0.0
  0
LINE
  5
2B7
330
1F
100
AcDbEntity
  8
調整材穴有475_492_502_
  6
EXLTYPE2
 62
     1
100
AcDbLine
 10
382.1943600000002
 20
1077.0
 30
0.0
 11
419.5943600000001
 21
1077.0
 31
0.0
  0
LINE
  5
2B8
330
1F
100
AcDbEntity
  8
調整材穴有475_492_502_
  6
EXLTYPE2
 62
     1
100
AcDbLine
 10
532.19436
 20
1077.0
 30
0.0
 11
569.59436
 21
1077.0
 31
0.0
  0
LINE
  5
2B9
330
1F
100
AcDbEntity
  8
調整材穴有475_492_502_
  6
EXLTYPE2
 62
     1
100
AcDbLine
 10
626.0
 20
1056.7
 30
0.0
 11
626.0
 21
1098.0
 31
0.0
  0
LINE
  5
2BA
330
1F
100
AcDbEntity
  8
調整材穴有475_492_502_
  6
EXLTYPE2
 62
     1
100
AcDbLine
 10
607.19436
 20
1077.0
 30
0.0
 11
669.59436
 21
1077.0
 31
0.0
  0
LINE
  5
2BB
330
1F
100
AcDbEntity
  8
調整材穴有475_492_502_
  6
EXLTYPE2
 62
     1
100
AcDbLine
 10
557.19436
 20
1027.0
 30
0.0
 11
594.59436
 21
1027.0
 31
0.0
  0
LINE
  5
2BC
330
1F
100
AcDbEntity
  8
調整材穴有475_492_502_
  6
EXLTYPE2
 62
     1
100
AcDbLine
 10
551.0
 20
981.7000000000002
 30
0.0
 11
551.0
 21
1023.0
 31
0.0
  0
LINE
  5
2BD
330
1F
100
AcDbEntity
  8
調整材穴有475_492_502_
  6
EXLTYPE2
 62
     1
100
AcDbLine
 10
357.1943600000002
 20
1027.0
 30
0.0
 11
394.5943600000001
 21
1027.0
 31
0.0
  0
LINE
  5
2BE
330
1F
100
AcDbEntity
  8
調整材穴有475_492_502_
  6
EXLTYPE2
 62
     1
100
AcDbLine
 10
401.0
 20
981.7000000000002
 30
0.0
 11
401.0
 21
1023.0
 31
0.0
  0
LINE
  5
2BF
330
1F
100
AcDbEntity
  8
調整材穴有475_492_502_
  6
EXLTYPE2
 62
     1
100
AcDbLine
 10
357.1943600000002
 20
827.0000000000001
 30
0.0
 11
394.5943600000001
 21
827.0000000000001
 31
0.0
  0
LINE
  5
2C0
330
1F
100
AcDbEntity
  8
調整材穴有475_492_502_
  6
EXLTYPE2
 62
     1
100
AcDbLine
 10
401.0
 20
831.7000000000002
 30
0.0
 11
401.0
 21
873.0000000000001
 31
0.0
  0
LINE
  5
2C1
330
1F
100
AcDbEntity
  8
調整材穴有475_492_502_
  6
EXLTYPE2
 62
     1
100
AcDbLine
 10
401.0
 20
756.7000000000002
 30
0.0
 11
401.0
 21
798.0000000000001
 31
0.0
  0
LINE
  5
2C2
330
1F
100
AcDbEntity
  8
調整材穴有475_492_502_
  6
EXLTYPE2
 62
     1
100
AcDbLine
 10
382.1943600000002
 20
777.0000000000001
 30
0.0
 11
419.5943600000001
 21
777.0000000000001
 31
0.0
  0
LINE
  5
2C3
330
1F
100
AcDbEntity
  8
調整材穴有475_492_502_
  6
EXLTYPE2
 62
     1
100
AcDbLine
 10
326.0
 20
756.7000000000002
 30
0.0
 11
326.0
 21
798.0000000000001
 31
0.0
  0
LINE
  5
2C4
330
1F
100
AcDbEntity
  8
調整材穴有475_492_502_
  6
EXLTYPE2
 62
     1
100
AcDbLine
 10
279.0
 20
777.0000000000001
 30
0.0
 11
344.5943600000001
 21
777.0000000000001
 31
0.0
  0
LINE
  5
2C5
330
1F
100
AcDbEntity
  8
調整材穴有475_492_502_
  6
EXLTYPE2
 62
     1
100
AcDbLine
 10
551.0
 20
831.7000000000002
 30
0.0
 11
551.0
 21
873.0000000000001
 31
0.0
  0
LINE
  5
2C6
330
1F
100
AcDbEntity
  8
調整材穴有475_492_502_
  6
EXLTYPE2
 62
     1
100
AcDbLine
 10
557.19436
 20
827.0000000000001
 30
0.0
 11
594.59436
 21
827.0000000000001
 31
0.0
  0
LINE
  5
2C7
330
1F
100
AcDbEntity
  8
調整材穴有475_492_502_
  6
EXLTYPE2
 62
     1
100
AcDbLine
 10
626.0
 20
756.7000000000002
 30
0.0
 11
626.0
 21
798.0000000000001
 31
0.0
  0
LINE
  5
2C8
330
1F
100
AcDbEntity
  8
調整材穴有475_492_502_
  6
EXLTYPE2
 62
     1
100
AcDbLine
 10
607.19436
 20
777.0000000000001
 30
0.0
 11
669.59436
 21
777.0000000000001
 31
0.0
  0
LINE
  5
2C9
330
1F
100
AcDbEntity
  8
調整材穴有475_492_502_
  6
EXLTYPE2
 62
     1
100
AcDbLine
 10
551.0
 20
756.7000000000002
 30
0.0
 11
551.0
 21
798.0000000000001
 31
0.0
  0
LINE
  5
2CA
330
1F
100
AcDbEntity
  8
調整材穴有475_492_502_
  6
EXLTYPE2
 62
     1
100
AcDbLine
 10
532.19436
 20
777.0000000000001
 30
0.0
 11
569.59436
 21
777.0000000000001
 31
0.0
  0
CIRCLE
  5
2CB
330
1F
100
AcDbEntity
  8
調整材穴有475_492_502_
  6
CONTINUOUS
 62
     7
100
AcDbCircle
 10
676.0
 20
852.0000000000001
 30
0.0
 40
12.5
  0
LINE
  5
2CC
330
1F
100
AcDbEntity
  8
調整材穴有475_492_502_
  6
EXLTYPE2
 62
     1
100
AcDbLine
 10
657.19436
 20
852.0000000000001
 30
0.0
 11
694.59436
 21
852.0000000000001
 31
0.0
  0
CIRCLE
  5
2CD
330
1F
100
AcDbEntity
  8
調整材穴有475_492_502_
  6
CONTINUOUS
 62
     7
100
AcDbCircle
 10
676.0
 20
1002.0
 30
0.0
 40
12.5
  0
LINE
  5
2CE
330
1F
100
AcDbEntity
  8
調整材穴有475_492_502_
  6
EXLTYPE2
 62
     1
100
AcDbLine
 10
657.19436
 20
1002.0
 30
0.0
 11
694.59436
 21
1002.0
 31
0.0
  0
CIRCLE
  5
2CF
330
1F
100
AcDbEntity
  8
調整材穴有475_492_502_
  6
CONTINUOUS
 62
     7
100
AcDbCircle
 10
276.0
 20
852.0000000000001
 30
0.0
 40
12.5
  0
CIRCLE
  5
2D0
330
1F
100
AcDbEntity
  8
調整材穴有475_492_502_
  6
CONTINUOUS
 62
     7
100
AcDbCircle
 10
276.0
 20
1002.0
 30
0.0
 40
12.5
  0
LINE
  5
2D1
330
1F
100
AcDbEntity
  8
調整材穴有475_492_502_
  6
EXLTYPE2
 62
     1
100
AcDbLine
 10
257.1943600000002
 20
1002.0
 30
0.0
 11
294.5943600000001
 21
1002.0
 31
0.0
  0
LINE
  5
2D2
330
1F
100
AcDbEntity
  8
調整材穴有475_492_502_
  6
EXLTYPE2
 62
     1
100
AcDbLine
 10
257.1943600000002
 20
852.0000000000001
 30
0.0
 11
294.5943600000001
 21
852.0000000000001
 31
0.0
  0
CIRCLE
  5
2D3
330
1F
100
AcDbEntity
  8
調整材穴有475_492_502_
  6
CONTINUOUS
 62
     7
100
AcDbCircle
 10
301.0000000000001
 20
1077.0
 30
0.0
 40
12.5
  0
CIRCLE
  5
2D4
330
1F
100
AcDbEntity
  8
調整材穴有475_492_502_
  6
CONTINUOUS
 62
     7
100
AcDbCircle
 10
651.0
 20
1077.0
 30
0.0
 40
12.5
  0
CIRCLE
  5
2D5
330
1F
100
AcDbEntity
  8
調整材穴有475_492_502_
  6
CONTINUOUS
 62
     7
100
AcDbCircle
 10
651.0
 20
777.0000000000001
 30
0.0
 40
12.5
  0
CIRCLE
  5
2D6
330
1F
100
AcDbEntity
  8
調整材穴有475_492_502_
  6
CONTINUOUS
 62
     7
100
AcDbCircle
 10
301.0000000000001
 20
777.0000000000001
 30
0.0
 40
12.5
  0
LINE
  5
2D7
330
1F
100
AcDbEntity
  8
調整材穴有475_492_502_
  6
EXLTYPE2
 62
     1
100
AcDbLine
 10
276.0
 20
981.7000000000003
 30
0.0
 11
276.0
 21
1023.0
 31
0.0
  0
LINE
  5
2D8
330
1F
100
AcDbEntity
  8
調整材穴有475_492_502_
  6
EXLTYPE2
 62
     1
100
AcDbLine
 10
382.1943600000002
 20
1002.0
 30
0.0
 11
419.5943600000001
 21
1002.0
 31
0.0
  0
LINE
  5
2D9
330
1F
100
AcDbEntity
  8
調整材穴有475_492_502_
  6
EXLTYPE2
 62
     1
100
AcDbLine
 10
301.0
 20
1056.7
 30
0.0
 11
301.0
 21
1098.0
 31
0.0
  0
LINE
  5
2DA
330
1F
100
AcDbEntity
  8
調整材穴有475_492_502_
  6
EXLTYPE2
 62
     1
100
AcDbLine
 10
376.0
 20
1006.0
 30
0.0
 11
376.0
 21
1048.0
 31
0.0
  0
LINE
  5
2DB
330
1F
100
AcDbEntity
  8
調整材穴有475_492_502_
  6
EXLTYPE2
 62
     1
100
AcDbLine
 10
651.0
 20
1056.7
 30
0.0
 11
651.0
 21
1098.0
 31
0.0
  0
LINE
  5
2DC
330
1F
100
AcDbEntity
  8
調整材穴有475_492_502_
  6
EXLTYPE2
 62
     1
100
AcDbLine
 10
676.0
 20
981.7000000000003
 30
0.0
 11
676.0
 21
1023.0
 31
0.0
  0
LINE
  5
2DD
330
1F
100
AcDbEntity
  8
調整材穴有475_492_502_
  6
EXLTYPE2
 62
     1
100
AcDbLine
 10
532.19436
 20
1002.0
 30
0.0
 11
569.59436
 21
1002.0
 31
0.0
  0
LINE
  5
2DE
330
1F
100
AcDbEntity
  8
調整材穴有475_492_502_
  6
EXLTYPE2
 62
     1
100
AcDbLine
 10
382.1943600000003
 20
852.0000000000001
 30
0.0
 11
419.5943600000001
 21
852.0000000000001
 31
0.0
  0
LINE
  5
2DF
330
1F
100
AcDbEntity
  8
調整材穴有475_492_502_
  6
EXLTYPE2
 62
     1
100
AcDbLine
 10
376.0
 20
806.7000000000002
 30
0.0
 11
376.0
 21
846.0000000000001
 31
0.0
  0
LINE
  5
2E0
330
1F
100
AcDbEntity
  8
調整材穴有475_492_502_
  6
EXLTYPE2
 62
     1
100
AcDbLine
 10
276.0
 20
831.7000000000002
 30
0.0
 11
276.0
 21
873.0000000000002
 31
0.0
  0
LINE
  5
2E1
330
1F
100
AcDbEntity
  8
調整材穴有475_492_502_
  6
EXLTYPE2
 62
     1
100
AcDbLine
 10
676.0
 20
831.7000000000002
 30
0.0
 11
676.0
 21
873.0000000000002
 31
0.0
  0
LINE
  5
2E2
330
1F
100
AcDbEntity
  8
調整材穴有475_492_502_
  6
EXLTYPE2
 62
     1
100
AcDbLine
 10
532.19436
 20
852.0000000000001
 30
0.0
 11
569.59436
 21
852.0000000000001
 31
0.0
  0
LINE
  5
2E3
330
1F
100
AcDbEntity
  8
調整材穴有475_492_502_
  6
EXLTYPE2
 62
     1
100
AcDbLine
 10
576.0
 20
806.7000000000002
 30
0.0
 11
576.0
 21
846.0000000000001
 31
0.0
  0
LINE
  5
2E4
330
1F
100
AcDbEntity
  8
調整材穴有475_492_502_
  6
EXLTYPE2
 62
     1
100
AcDbLine
 10
301.0
 20
756.7000000000002
 30
0.0
 11
301.0
 21
798.0000000000001
 31
0.0
  0
LINE
  5
2E5
330
1F
100
AcDbEntity
  8
調整材穴有475_492_502_
  6
EXLTYPE2
 62
     1
100
AcDbLine
 10
651.0
 20
756.7000000000002
 30
0.0
 11
651.0
 21
798.0000000000001
 31
0.0
  0
LINE
  5
2E6
330
1F
100
AcDbEntity
  8
調整材穴有475_492_502_
  6
EXLTYPE2
 62
     1
100
AcDbLine
 10
576.0
 20
1006.0
 30
0.0
 11
576.0
 21
1048.0
 31
0.0
  0
LINE
  5
2E7
330
1F
100
AcDbEntity
  8
調整材穴有475_492_502_
  6
EXLTYPE2
 62
     1
100
AcDbLine
 10
551.0
 20
1056.7
 30
0.0
 11
551.0
 21
1098.0
 31
0.0
  0
LEADER
  5
2E8
330
1F
100
AcDbEntity
  8
調整材穴有475_492_502_
  6
CONTINUOUS
 62
     1
100
AcDbLeader
  3
ISO-25
 76
     3
 10
294.0191316946
 20
1087.369063492
 30
0.0
 10
220.0310967047999
 20
1210.520099247
 30
0.0
 10
316.5943599999998
 20
1210.520099247
 30
0.0
1001
ACAD
1000
DSTYLE
1002
{
1070
     5
1000
EX_BNORM
1070
    41
1040
12.0
1070
   341
1005
7A
1002
}
  0
TEXT
  5
2E9
330
1F
100
AcDbEntity
  8
調整材穴有475_492_502_
  6
CONTINUOUS
 62
     1
100
AcDbText
 10
219.0310967047999
 20
1213.6062996
 30
0.0
 40
9.3543312
  1
２４－φ２５キリ
 41
0.9054986233103147
  7
EXCADSTD
 72
     5
 11
313.1110967047999
 21
1213.6062996
 31
0.0
100
AcDbText
  0
DIMENSION
  5
2EA
330
1F
100
AcDbEntity
  8
調整材穴有475_492_502_
  6
CONTINUOUS
 62
     1
100
AcDbDimension
  2
*D43
 10
551.0
 20
619.0
 30
0.0
 11
476.0000000000001
 21
627.0
 31
0.0
 70
   160
  3
ISO-25
100
AcDbAlignedDimension
 13
401.0
 23
756.7000000000002
 33
0.0
 14
551.0
 24
756.7000000000002
 34
0.0
100
AcDbRotatedDimension
1001
ACAD
1000
DSTYLE
1002
{
1070
   270
1070
     2
1070
     6
1000
EX_BNORM
1070
     7
1000
EX_BNORM
1070
    41
1040
12.0
1070
    42
1040
6.0
1070
    44
1040
6.0
1070
    73
1070
     0
1070
    74
1070
     0
1070
    75
1070
     0
1070
    76
1070
     0
1070
    77
1070
     1
1070
    78
1070
     0
1070
   140
1040
9.3543312
1070
   147
1040
0.0
1070
   173
1070
     1
1070
   176
1070
     1
1070
   177
1070
     1
1070
   178
1070
     1
1070
   271
1070
     0
1070
   277
1070
     2
1070
   279
1070
     2
1070
   280
1070
     0
1070
   287
1070
     5
1070
   340
1005
107
1002
}
  0
DIMENSION
  5
2F7
330
1F
100
AcDbEntity
  8
調整材穴有475_492_502_
  6
CONTINUOUS
 62
     1
100
AcDbDimension
  2
*D44
 10
576.0
 20
586.0
 30
0.0
 11
476.0000000000001
 21
594.0
 31
0.0
 70
   160
  3
ISO-25
100
AcDbAlignedDimension
 13
376.0
 23
806.7000000000002
 33
0.0
 14
576.0
 24
806.7000000000002
 34
0.0
100
AcDbRotatedDimension
1001
ACAD
1000
DSTYLE
1002
{
1070
   270
1070
     2
1070
     6
1000
EX_BNORM
1070
     7
1000
EX_BNORM
1070
    41
1040
12.0
1070
    42
1040
6.0
1070
    44
1040
6.0
1070
    73
1070
     0
1070
    74
1070
     0
1070
    75
1070
     0
1070
    76
1070
     0
1070
    77
1070
     1
1070
    78
1070
     0
1070
   140
1040
9.3543312
1070
   147
1040
0.0
1070
   173
1070
     1
1070
   176
1070
     1
1070
   177
1070
     1
1070
   178
1070
     1
1070
   271
1070
     0
1070
   277
1070
     2
1070
   279
1070
     2
1070
   280
1070
     0
1070
   287
1070
     5
1070
   340
1005
107
1002
}
  0
DIMENSION
  5
304
330
1F
100
AcDbEntity
  8
調整材穴有475_492_502_
  6
CONTINUOUS
 62
     1
100
AcDbDimension
  2
*D45
 10
626.0
 20
551.0
 30
0.0
 11
476.0000000000001
 21
559.0
 31
0.0
 70
   160
  3
ISO-25
100
AcDbAlignedDimension
 13
326.0
 23
756.7000000000002
 33
0.0
 14
626.0
 24
756.7000000000002
 34
0.0
100
AcDbRotatedDimension
1001
ACAD
1000
DSTYLE
1002
{
1070
   270
1070
     2
1070
     6
1000
EX_BNORM
1070
     7
1000
EX_BNORM
1070
    41
1040
12.0
1070
    42
1040
6.0
1070
    44
1040
6.0
1070
    73
1070
     0
1070
    74
1070
     0
1070
    75
1070
     0
1070
    76
1070
     0
1070
    77
1070
     1
1070
    78
1070
     0
1070
   140
1040
9.3543312
1070
   147
1040
0.0
1070
   173
1070
     1
1070
   176
1070
     1
1070
   177
1070
     1
1070
   178
1070
     1
1070
   271
1070
     0
1070
   277
1070
     2
1070
   279
1070
     2
1070
   280
1070
     0
1070
   287
1070
     5
1070
   340
1005
107
1002
}
  0
DIMENSION
  5
311
330
1F
100
AcDbEntity
  8
調整材穴有475_492_502_
  6
CONTINUOUS
 62
     1
100
AcDbDimension
  2
*D46
 10
651.0
 20
518.0
 30
0.0
 11
476.0000000000001
 21
526.0
 31
0.0
 70
   160
  3
ISO-25
100
AcDbAlignedDimension
 13
301.0
 23
769.7
 33
0.0
 14
651.0
 24
769.7
 34
0.0
100
AcDbRotatedDimension
1001
ACAD
1000
DSTYLE
1002
{
1070
   270
1070
     2
1070
     6
1000
EX_BNORM
1070
     7
1000
EX_BNORM
1070
    41
1040
12.0
1070
    42
1040
19.0
1070
    44
1040
6.0
1070
    73
1070
     0
1070
    74
1070
     0
1070
    75
1070
     0
1070
    76
1070
     0
1070
    77
1070
     1
1070
    78
1070
     0
1070
   140
1040
9.3543312
1070
   147
1040
0.0
1070
   173
1070
     1
1070
   176
1070
     1
1070
   177
1070
     1
1070
   178
1070
     1
1070
   271
1070
     0
1070
   277
1070
     2
1070
   279
1070
     2
1070
   280
1070
     0
1070
   287
1070
     5
1070
   340
1005
107
1002
}
  0
DIMENSION
  5
31E
330
1F
100
AcDbEntity
  8
調整材穴有475_492_502_
  6
CONTINUOUS
 62
     1
100
AcDbDimension
  2
*D47
 10
676.0
 20
484.0000000000001
 30
0.0
 11
476.0000000000001
 21
492.0000000000001
 31
0.0
 70
   160
  3
ISO-25
100
AcDbAlignedDimension
 13
276.0
 23
845.2999984741215
 33
0.0
 14
676.0
 24
845.2999984741215
 34
0.0
100
AcDbRotatedDimension
1001
ACAD
1000
DSTYLE
1002
{
1070
   270
1070
     2
1070
     6
1000
EX_BNORM
1070
     7
1000
EX_BNORM
1070
    41
1040
12.0
1070
    42
1040
19.29999923706055
1070
    44
1040
6.0
1070
    73
1070
     0
1070
    74
1070
     0
1070
    75
1070
     0
1070
    76
1070
     0
1070
    77
1070
     1
1070
    78
1070
     0
1070
   140
1040
9.3543312
1070
   147
1040
0.0
1070
   173
1070
     1
1070
   176
1070
     1
1070
   177
1070
     1
1070
   178
1070
     1
1070
   271
1070
     0
1070
   277
1070
     2
1070
   279
1070
     2
1070
   280
1070
     0
1070
   287
1070
     5
1070
   340
1005
107
1002
}
  0
DIMENSION
  5
32B
330
1F
100
AcDbEntity
  8
調整材穴有475_492_502_
  6
CONTINUOUS
 62
     1
100
AcDbDimension
  2
*D48
 10
713.5
 20
447.0000000000001
 30
0.0
 11
476.0
 21
455.0000000000001
 31
0.0
 70
   160
  3
ISO-25
100
AcDbAlignedDimension
 13
238.5
 23
681.0
 33
0.0
 14
713.5
 24
681.0
 34
0.0
100
AcDbRotatedDimension
1001
ACAD
1000
DSTYLE
1002
{
1070
   270
1070
     2
1070
     6
1000
EX_BNORM
1070
     7
1000
EX_BNORM
1070
    41
1040
12.0
1070
    42
1040
6.0
1070
    44
1040
6.0
1070
    73
1070
     0
1070
    74
1070
     0
1070
    75
1070
     0
1070
    76
1070
     0
1070
    77
1070
     1
1070
    78
1070
     0
1070
   140
1040
9.3543312
1070
   147
1040
0.0
1070
   173
1070
     1
1070
   176
1070
     1
1070
   177
1070
     1
1070
   178
1070
     1
1070
   271
1070
     0
1070
   277
1070
     2
1070
   279
1070
     2
1070
   280
1070
     0
1070
   287
1070
     5
1070
   340
1005
107
1002
}
  0
DIMENSION
  5
338
330
1F
100
AcDbEntity
  8
調整材穴有475_492_502_
  6
CONTINUOUS
 62
     1
100
AcDbDimension
  2
*D49
 10
779.5943600000002
 20
852.0000000000001
 30
0.0
 11
771.5943600000002
 21
927.0000000000002
 31
0.0
 70
   160
  3
ISO-25
100
AcDbAlignedDimension
 13
644.59436
 23
1002.0
 33
0.0
 14
638.5
 24
852.0000000000001
 34
0.0
 50
90.0
100
AcDbRotatedDimension
1001
ACAD
1000
DSTYLE
1002
{
1070
   270
1070
     2
1070
     6
1000
EX_BNORM
1070
     7
1000
EX_BNORM
1070
    41
1040
12.0
1070
    42
1040
56.0
1070
    44
1040
6.0
1070
    73
1070
     0
1070
    74
1070
     0
1070
    75
1070
     0
1070
    76
1070
     0
1070
    77
1070
     1
1070
    78
1070
     0
1070
   140
1040
9.3543312
1070
   147
1040
0.0
1070
   173
1070
     1
1070
   176
1070
     1
1070
   177
1070
     1
1070
   178
1070
     1
1070
   271
1070
     0
1070
   277
1070
     2
1070
   279
1070
     2
1070
   280
1070
     0
1070
   287
1070
     5
1070
   340
1005
107
1002
}
  0
DIMENSION
  5
345
330
1F
100
AcDbEntity
  8
調整材穴有475_492_502_
  6
CONTINUOUS
 62
     1
100
AcDbDimension
  2
*D50
 10
811.5943600000002
 20
827.0000000000001
 30
0.0
 11
803.5943600000002
 21
927.0
 31
0.0
 70
   160
  3
ISO-25
100
AcDbAlignedDimension
 13
694.59436
 23
1027.0
 33
0.0
 14
694.59436
 24
827.0000000000001
 34
0.0
 50
90.0
100
AcDbRotatedDimension
1001
ACAD
1000
DSTYLE
1002
{
1070
   270
1070
     2
1070
     6
1000
EX_BNORM
1070
     7
1000
EX_BNORM
1070
    41
1040
12.0
1070
    42
1040
0.0
1070
    44
1040
0.0
1070
    73
1070
     0
1070
    74
1070
     0
1070
    75
1070
     0
1070
    76
1070
     0
1070
    77
1070
     1
1070
    78
1070
     0
1070
   140
1040
9.3543312
1070
   147
1040
0.0
1070
   173
1070
     1
1070
   176
1070
     1
1070
   177
1070
     1
1070
   178
1070
     1
1070
   271
1070
     0
1070
   277
1070
     2
1070
   279
1070
     2
1070
   280
1070
     0
1070
   287
1070
     5
1070
   340
1005
107
1002
}
  0
DIMENSION
  5
352
330
1F
100
AcDbEntity
  8
調整材穴有475_492_502_
  6
CONTINUOUS
 62
     1
100
AcDbDimension
  2
*D51
 10
847.5943600000002
 20
777.0000000000001
 30
0.0
 11
839.5943600000002
 21
927.0
 31
0.0
 70
   160
  3
ISO-25
100
AcDbAlignedDimension
 13
644.59436
 23
1077.0
 33
0.0
 14
644.59436
 24
777.0000000000001
 34
0.0
 50
90.0
100
AcDbRotatedDimension
1001
ACAD
1000
DSTYLE
1002
{
1070
   270
1070
     2
1070
     6
1000
EX_BNORM
1070
     7
1000
EX_BNORM
1070
    41
1040
12.0
1070
    42
1040
31.0
1070
    44
1040
6.0
1070
    73
1070
     0
1070
    74
1070
     0
1070
    75
1070
     0
1070
    76
1070
     0
1070
    77
1070
     1
1070
    78
1070
     0
1070
   140
1040
9.3543312
1070
   147
1040
0.0
1070
   173
1070
     1
1070
   176
1070
     1
1070
   177
1070
     1
1070
   178
1070
     1
1070
   271
1070
     0
1070
   277
1070
     2
1070
   279
1070
     2
1070
   280
1070
     0
1070
   287
1070
     5
1070
   340
1005
107
1002
}
  0
DIMENSION
  5
35F
330
1F
100
AcDbEntity
  8
調整材穴有475_492_502_
  6
CONTINUOUS
 62
     1
100
AcDbDimension
  2
*D52
 10
889.5000000000002
 20
686.0
 30
0.0
 11
881.5000000000001
 21
927.0
 31
0.0
 70
   160
  3
ISO-25
100
AcDbAlignedDimension
 13
713.4999999999998
 23
1168.0
 33
0.0
 14
713.5
 24
686.0
 34
0.0
 50
90.0
100
AcDbRotatedDimension
1001
ACAD
1000
DSTYLE
1002
{
1070
   270
1070
     2
1070
     6
1000
EX_BNORM
1070
     7
1000
EX_BNORM
1070
    41
1040
12.0
1070
    42
1040
6.0
1070
    44
1040
6.0
1070
    73
1070
     0
1070
    74
1070
     0
1070
    75
1070
     0
1070
    76
1070
     0
1070
    77
1070
     1
1070
    78
1070
     0
1070
   140
1040
9.3543312
1070
   147
1040
0.0
1070
   173
1070
     1
1070
   176
1070
     1
1070
   177
1070
     1
1070
   178
1070
     1
1070
   271
1070
     0
1070
   277
1070
     2
1070
   279
1070
     2
1070
   280
1070
     0
1070
   287
1070
     5
1070
   340
1005
107
1002
}
  0
DIMENSION
  5
36C
330
1F
100
AcDbEntity
  8
調整材穴有475_492_502_
  6
CONTINUOUS
 62
     1
100
AcDbDimension
  2
*D53
 10
889.5
 20
1168.0
 30
0.0
 11
881.5000000000005
 21
1191.0
 31
0.0
 70
   160
 53
90.00000000000001
  3
ISO-25
100
AcDbAlignedDimension
 13
713.4999999999998
 23
1173.0
 33
0.0
 14
713.4999999999998
 24
1168.0
 34
0.0
 50
90.0
100
AcDbRotatedDimension
1001
ACAD
1000
DSTYLE
1002
{
1070
   270
1070
     2
1070
     6
1000
EX_BNORM
1070
     7
1000
EX_BNORM
1070
    41
1040
12.0
1070
    42
1040
6.0
1070
    44
1040
6.0
1070
    73
1070
     0
1070
    74
1070
     0
1070
    75
1070
     0
1070
    76
1070
     1
1070
    77
1070
     1
1070
    78
1070
     0
1070
   140
1040
9.3543312
1070
   147
1040
0.0
1070
   173
1070
     1
1070
   176
1070
     1
1070
   177
1070
     1
1070
   178
1070
     1
1070
   271
1070
     0
1070
   277
1070
     2
1070
   279
1070
     2
1070
   280
1070
     0
1070
   287
1070
     5
1070
   340
1005
107
1002
}
  0
DIMENSION
  5
37A
330
1F
100
AcDbEntity
  8
調整材穴有475_492_502_
  6
CONTINUOUS
 62
     1
100
AcDbDimension
  2
*D54
 10
889.5000000000002
 20
686.0
 30
0.0
 11
881.5000000000003
 21
662.9999999999997
 31
0.0
 70
   160
 53
90.00000000000001
  3
ISO-25
100
AcDbAlignedDimension
 13
713.5
 23
681.0
 33
0.0
 14
713.5
 24
686.0
 34
0.0
 50
90.0
100
AcDbRotatedDimension
1001
ACAD
1000
DSTYLE
1002
{
1070
   270
1070
     2
1070
     6
1000
EX_BNORM
1070
     7
1000
EX_BNORM
1070
    41
1040
12.0
1070
    42
1040
6.0
1070
    44
1040
6.0
1070
    73
1070
     0
1070
    74
1070
     0
1070
    75
1070
     0
1070
    76
1070
     1
1070
    77
1070
     1
1070
    78
1070
     0
1070
   140
1040
9.3543312
1070
   147
1040
0.0
1070
   173
1070
     1
1070
   176
1070
     1
1070
   177
1070
     1
1070
   178
1070
     1
1070
   271
1070
     0
1070
   277
1070
     2
1070
   279
1070
     2
1070
   280
1070
     0
1070
   287
1070
     5
1070
   340
1005
107
1002
}
  0
LINE
  5
388
330
1F
100
AcDbEntity
  8
調整材穴有475_492_502_
  6
EXLTYPE0
 62
     2
100
AcDbLine
 10
1107.811401
 20
839.4999999999999
 30
0.0
 11
1082.811401
 21
839.4999999999999
 31
0.0
  0
LINE
  5
389
330
1F
100
AcDbEntity
  8
調整材穴有475_492_502_
  6
EXLTYPE0
 62
     2
100
AcDbLine
 10
1107.811401
 20
864.4999999999999
 30
0.0
 11
1082.811401
 21
864.4999999999999
 31
0.0
  0
LINE
  5
38A
330
1F
100
AcDbEntity
  8
調整材穴有475_492_502_
  6
EXLTYPE0
 62
     2
100
AcDbLine
 10
1107.811401
 20
814.5000000000002
 30
0.0
 11
1082.811401
 21
814.5000000000002
 31
0.0
  0
LINE
  5
38B
330
1F
100
AcDbEntity
  8
調整材穴有475_492_502_
  6
EXLTYPE0
 62
     2
100
AcDbLine
 10
1107.811401
 20
764.5000000000002
 30
0.0
 11
1082.811401
 21
764.5000000000002
 31
0.0
  0
LINE
  5
38C
330
1F
100
AcDbEntity
  8
調整材穴有475_492_502_
  6
EXLTYPE0
 62
     2
100
AcDbLine
 10
1107.811401
 20
789.5000000000002
 30
0.0
 11
1082.811401
 21
789.5000000000002
 31
0.0
  0
LINE
  5
38D
330
1F
100
AcDbEntity
  8
調整材穴有475_492_502_
  6
EXLTYPE2
 62
     1
100
AcDbLine
 10
1070.284302
 20
827.0000000000002
 30
0.0
 11
1119.0
 21
827.0000000000002
 31
0.0
  0
LINE
  5
38E
330
1F
100
AcDbEntity
  8
調整材穴有475_492_502_
  6
EXLTYPE2
 62
     1
100
AcDbLine
 10
1070.284302
 20
777.0000000000002
 30
0.0
 11
1119.0
 21
777.0000000000002
 31
0.0
  0
LINE
  5
38F
330
1F
100
AcDbEntity
  8
調整材穴有475_492_502_
  6
EXLTYPE2
 62
     1
100
AcDbLine
 10
1070.284302
 20
851.9999999999999
 30
0.0
 11
1119.0
 21
851.9999999999999
 31
0.0
  0
CIRCLE
  5
390
330
1F
100
AcDbEntity
  8
調整材穴有475_492_502_
  6
CONTINUOUS
 62
     7
100
AcDbCircle
 10
476.0000000000001
 20
927.0000000000001
 30
0.0
 40
60.0
  0
DIMENSION
  5
391
330
1F
100
AcDbEntity
  8
調整材穴有475_492_502_
  6
CONTINUOUS
 62
     1
100
AcDbDimension
  2
*D55
 10
419.8202493458574
 20
905.9325935046966
 30
0.0
 11
503.66291272895
 21
945.917596018674
 31
0.0
 70
   163
 53
20.55604521958351
  3
ISO-25
100
AcDbDiametricDimension
 15
532.1797506541427
 25
948.0674064953037
 35
0.0
 40
0.0
1001
ACAD
1000
DSTYLE
1002
{
1070
   270
1070
     2
1070
     6
1000
EX_BNORM
1070
     7
1000
EX_BNORM
1070
    41
1040
12.0
1070
    73
1070
     0
1070
    74
1070
     0
1070
    77
1070
     1
1070
    78
1070
     0
1070
   140
1040
9.3543312
1070
   147
1040
0.0
1070
   173
1070
     1
1070
   176
1070
     1
1070
   177
1070
     1
1070
   178
1070
     1
1070
   271
1070
     0
1070
   277
1070
     2
1070
   279
1070
     2
1070
   280
1070
     0
1070
   287
1070
     5
1070
   340
1005
107
1002
}
  0
LINE
  5
39B
330
1F
100
AcDbEntity
  8
調整材穴有475_492_502_
  6
EXLTYPE0
 62
     2
100
AcDbLine
 10
575.9999999999999
 20
943.0
 30
0.0
 11
575.9999999999999
 21
911.0
 31
0.0
  0
LINE
  5
39C
330
1F
100
AcDbEntity
  8
調整材穴有475_492_502_
  6
EXLTYPE0
 62
     2
100
AcDbLine
 10
375.9999999999999
 20
943.0
 30
0.0
 11
376.0
 21
911.0
 31
0.0
  0
LINE
  5
39D
330
1F
100
AcDbEntity
  8
調整材穴有475_492_502_
  6
EXLTYPE0
 62
     2
100
AcDbLine
 10
1726.40564
 20
867.0
 30
0.0
 11
1726.40564
 21
706.0
 31
0.0
  0
LINE
  5
39E
330
1F
100
AcDbEntity
  8
調整材穴有475_492_502_
  6
EXLTYPE0
 62
     2
100
AcDbLine
 10
1762.40564
 20
867.0
 30
0.0
 11
1762.40564
 21
706.0
 31
0.0
  0
LINE
  5
39F
330
1F
100
AcDbEntity
  8
調整材穴有475_492_502_
  6
EXLTYPE0
 62
     2
100
AcDbLine
 10
1726.40564
 20
867.0
 30
0.0
 11
1762.40564
 21
867.0
 31
0.0
  0
LINE
  5
3A0
330
1F
100
AcDbEntity
  8
調整材穴有475_492_502_
  6
EXLTYPE0
 62
     2
100
AcDbLine
 10
458.0000000000001
 20
987.0
 30
0.0
 11
457.9999999999999
 21
1148.0
 31
0.0
  0
DIMENSION
  5
3A1
330
1F
100
AcDbEntity
  8
調整材穴有475_492_502_
  6
CONTINUOUS
 62
     1
100
AcDbDimension
  2
*D56
 10
494.0000000000001
 20
1204.0
 30
0.0
 11
476.0000000000001
 21
1212.0
 31
0.0
 70
   160
  3
ISO-25
100
AcDbAlignedDimension
 13
457.9999999999999
 23
1148.0
 33
0.0
 14
494.0000000000001
 24
1148.0
 34
0.0
100
AcDbRotatedDimension
1001
ACAD
1000
DSTYLE
1002
{
1070
   270
1070
     2
1070
     6
1000
EX_BNORM
1070
     7
1000
EX_BNORM
1070
    41
1040
12.0
1070
    42
1040
6.0
1070
    44
1040
6.0
1070
    73
1070
     0
1070
    74
1070
     0
1070
    75
1070
     0
1070
    76
1070
     0
1070
    77
1070
     1
1070
    78
1070
     0
1070
   140
1040
9.3543312
1070
   147
1040
0.0
1070
   173
1070
     1
1070
   176
1070
     1
1070
   177
1070
     1
1070
   178
1070
     1
1070
   271
1070
     0
1070
   277
1070
     2
1070
   279
1070
     2
1070
   280
1070
     0
1070
   287
1070
     5
1070
   340
1005
107
1002
}
  0
LINE
  5
3AE
330
1F
100
AcDbEntity
  8
調整材穴有475_492_502_
  6
EXLTYPE0
 62
     2
100
AcDbLine
 10
494.0000000000003
 20
987.0
 30
0.0
 11
494.0000000000001
 21
1148.0
 31
0.0
  0
LINE
  5
3AF
330
1F
100
AcDbEntity
  8
調整材穴有475_492_502_
  6
EXLTYPE0
 62
     2
100
AcDbLine
 10
458.0000000000001
 20
987.0
 30
0.0
 11
494.0000000000003
 21
987.0
 31
0.0
  0
LINE
  5
3B0
330
1F
100
AcDbEntity
  8
調整材穴有475_492_502_
  6
EXLTYPE0
 62
     2
100
AcDbLine
 10
458.0000000000001
 20
867.0
 30
0.0
 11
457.9999999999999
 21
706.0
 31
0.0
  0
LINE
  5
3B1
330
1F
100
AcDbEntity
  8
調整材穴有475_492_502_
  6
EXLTYPE0
 62
     2
100
AcDbLine
 10
494.0000000000003
 20
867.0
 30
0.0
 11
494.0000000000001
 21
706.0
 31
0.0
  0
LINE
  5
3B2
330
1F
100
AcDbEntity
  8
調整材穴有475_492_502_
  6
EXLTYPE0
 62
     2
100
AcDbLine
 10
458.0000000000001
 20
867.0
 30
0.0
 11
494.0000000000003
 21
867.0
 31
0.0
  0
CIRCLE
  5
3B3
330
1F
100
AcDbEntity
  8
調整材穴有475_492_502_
  6
CONTINUOUS
 62
     7
100
AcDbCircle
 10
1599.40564
 20
1072.0
 30
0.0
 40
13.00000000000001
  0
LINE
  5
3B4
330
1F
100
AcDbEntity
  8
調整材穴有475_492_502_
  6
EXLTYPE2
 62
     1
100
AcDbLine
 10
1623.700000000001
 20
1072.0
 30
0.0
 11
1575.91128
 21
1072.0
 31
0.0
  0
LINE
  5
3B5
330
1F
100
AcDbEntity
  8
調整材穴有475_492_502_
  6
EXLTYPE2
 62
     1
100
AcDbLine
 10
1599.40564
 20
1047.0
 30
0.0
 11
1599.40564
 21
1095.1
 31
0.0
  0
CIRCLE
  5
3B6
330
1F
100
AcDbEntity
  8
調整材穴有475_492_502_
  6
CONTINUOUS
 62
     7
100
AcDbCircle
 10
1889.40564
 20
1072.0
 30
0.0
 40
13.00000000000001
  0
LINE
  5
3B7
330
1F
100
AcDbEntity
  8
調整材穴有475_492_502_
  6
EXLTYPE2
 62
     1
100
AcDbLine
 10
1913.700000000001
 20
1072.0
 30
0.0
 11
1865.91128
 21
1072.0
 31
0.0
  0
LINE
  5
3B8
330
1F
100
AcDbEntity
  8
調整材穴有475_492_502_
  6
EXLTYPE2
 62
     1
100
AcDbLine
 10
1889.40564
 20
1047.0
 30
0.0
 11
1889.40564
 21
1095.1
 31
0.0
  0
CIRCLE
  5
3B9
330
1F
100
AcDbEntity
  8
調整材穴有475_492_502_
  6
CONTINUOUS
 62
     7
100
AcDbCircle
 10
1599.40564
 20
782.0
 30
0.0
 40
13.00000000000001
  0
LINE
  5
3BA
330
1F
100
AcDbEntity
  8
調整材穴有475_492_502_
  6
EXLTYPE2
 62
     1
100
AcDbLine
 10
1623.700000000001
 20
782.0
 30
0.0
 11
1575.91128
 21
782.0
 31
0.0
  0
LINE
  5
3BB
330
1F
100
AcDbEntity
  8
調整材穴有475_492_502_
  6
EXLTYPE2
 62
     1
100
AcDbLine
 10
1599.40564
 20
757.0000000000002
 30
0.0
 11
1599.40564
 21
805.1000000000001
 31
0.0
  0
CIRCLE
  5
3BC
330
1F
100
AcDbEntity
  8
調整材穴有475_492_502_
  6
CONTINUOUS
 62
     7
100
AcDbCircle
 10
1889.40564
 20
782.0
 30
0.0
 40
13.00000000000001
  0
LINE
  5
3BD
330
1F
100
AcDbEntity
  8
調整材穴有475_492_502_
  6
EXLTYPE2
 62
     1
100
AcDbLine
 10
1913.700000000001
 20
782.0
 30
0.0
 11
1865.91128
 21
782.0
 31
0.0
  0
LINE
  5
3BE
330
1F
100
AcDbEntity
  8
調整材穴有475_492_502_
  6
EXLTYPE2
 62
     1
100
AcDbLine
 10
1889.40564
 20
757.0000000000002
 30
0.0
 11
1889.40564
 21
805.1000000000001
 31
0.0
  0
DIMENSION
  5
3BF
330
1F
100
AcDbEntity
  8
調整材穴有475_492_502_
  6
CONTINUOUS
 62
     1
100
AcDbDimension
  2
*D57
 10
2045.6
 20
782.0
 30
0.0
 11
2037.6
 21
927.0
 31
0.0
 70
   160
  3
ISO-25
100
AcDbAlignedDimension
 13
1913.7
 23
1072.0
 33
0.0
 14
1913.7
 24
782.0
 34
0.0
 50
90.0
100
AcDbRotatedDimension
1001
ACAD
1000
DSTYLE
1002
{
1070
   270
1070
     2
1070
     6
1000
EX_BNORM
1070
     7
1000
EX_BNORM
1070
    41
1040
12.0
1070
    42
1040
6.0
1070
    44
1040
6.0
1070
    73
1070
     0
1070
    74
1070
     0
1070
    75
1070
     0
1070
    76
1070
     0
1070
    77
1070
     1
1070
    78
1070
     0
1070
   140
1040
9.3543312
1070
   147
1040
0.0
1070
   173
1070
     1
1070
   176
1070
     1
1070
   177
1070
     1
1070
   178
1070
     1
1070
   271
1070
     0
1070
   277
1070
     2
1070
   279
1070
     2
1070
   280
1070
     0
1070
   287
1070
     5
1070
   340
1005
107
1002
}
  0
DIMENSION
  5
3CC
330
1F
100
AcDbEntity
  8
調整材穴有475_492_502_
  6
CONTINUOUS
 62
     1
100
AcDbDimension
  2
*D58
 10
1889.40564
 20
629.6
 30
0.0
 11
1744.40564
 21
637.6
 31
0.0
 70
   160
  3
ISO-25
100
AcDbAlignedDimension
 13
1599.40564
 23
757.0
 33
0.0
 14
1889.40564
 24
757.0
 34
0.0
100
AcDbRotatedDimension
1001
ACAD
1000
DSTYLE
1002
{
1070
   270
1070
     2
1070
     6
1000
EX_BNORM
1070
     7
1000
EX_BNORM
1070
    41
1040
12.0
1070
    42
1040
6.0
1070
    44
1040
6.0
1070
    73
1070
     0
1070
    74
1070
     0
1070
    75
1070
     0
1070
    76
1070
     0
1070
    77
1070
     1
1070
    78
1070
     0
1070
   140
1040
9.3543312
1070
   147
1040
0.0
1070
   173
1070
     1
1070
   176
1070
     1
1070
   177
1070
     1
1070
   178
1070
     1
1070
   271
1070
     0
1070
   277
1070
     2
1070
   279
1070
     2
1070
   280
1070
     0
1070
   287
1070
     5
1070
   340
1005
107
1002
}
  0
TEXT
  5
3D9
330
1F
100
AcDbEntity
  8
調整材穴有475_492_502_
  6
CONTINUOUS
 62
     1
100
AcDbText
 10
1485.5132051
 20
1215.6062996
 30
0.0
 40
9.3543312
  1
８－φ２５キリ
 41
0.8838179888860046
  7
EXCADSTD
 72
     5
 11
1567.5932051
 21
1215.6062996
 31
0.0
100
AcDbText
  0
TEXT
  5
3DA
330
1F
100
AcDbEntity
  8
調整材穴有475_492_502_
  6
CONTINUOUS
 62
     1
100
AcDbText
 10
1247.136084
 20
1232.9743416
 30
0.0
 40
9.3543312
  1
  ５
 41
0.7103254712971736
  7
EXCADSTD
 72
     5
 11
1268.365644
 21
1232.9743416
 31
0.0
100
AcDbText
  0
LINE
  5
3DB
330
1F
100
AcDbEntity
  8
調整材穴有475_492_502_
  6
CONTINUOUS
 62
   134
100
AcDbLine
 10
48.0
 20
80.0
 30
0.0
 11
2328.0
 21
80.0
 31
0.0
  0
LINE
  5
3DC
330
1F
100
AcDbEntity
  8
調整材穴有475_492_502_
  6
CONTINUOUS
 62
    54
100
AcDbLine
 10
48.0
 20
40.0
 30
0.0
 11
2328.0
 21
40.0
 31
0.0
  0
LINE
  5
3DD
330
1F
100
AcDbEntity
  8
調整材穴有475_492_502_
  6
CONTINUOUS
 62
   134
100
AcDbLine
 10
48.0
 20
1640.0
 30
0.0
 11
48.0
 21
40.0
 31
0.0
  0
LINE
  5
3DE
330
1F
100
AcDbEntity
  8
調整材穴有475_492_502_
  6
CONTINUOUS
 62
   134
100
AcDbLine
 10
2328.0
 20
40.0
 30
0.0
 11
2328.0
 21
1640.0
 31
0.0
  0
LINE
  5
3DF
330
1F
100
AcDbEntity
  8
調整材穴有475_492_502_
  6
CONTINUOUS
 62
   134
100
AcDbLine
 10
2328.0
 20
1640.0
 30
0.0
 11
48.0
 21
1640.0
 31
0.0
  0
LINE
  5
3E0
330
1F
100
AcDbEntity
  8
調整材穴有475_492_502_
  6
CONTINUOUS
 62
    54
100
AcDbLine
 10
2244.0
 20
80.0
 30
0.0
 11
2244.0
 21
40.0
 31
0.0
  0
LINE
  5
3E1
330
1F
100
AcDbEntity
  8
調整材穴有475_492_502_
  6
CONTINUOUS
 62
    54
100
AcDbLine
 10
2224.0
 20
80.0
 30
0.0
 11
2224.0
 21
40.0
 31
0.0
  0
LINE
  5
3E2
330
1F
100
AcDbEntity
  8
調整材穴有475_492_502_
  6
CONTINUOUS
 62
    54
100
AcDbLine
 10
2144.0
 20
80.0
 30
0.0
 11
2144.0
 21
40.0
 31
0.0
  0
LINE
  5
3E3
330
1F
100
AcDbEntity
  8
調整材穴有475_492_502_
  6
CONTINUOUS
 62
    54
100
AcDbLine
 10
2124.0
 20
80.0
 30
0.0
 11
2124.0
 21
40.0
 31
0.0
  0
LINE
  5
3E4
330
1F
100
AcDbEntity
  8
調整材穴有475_492_502_
  6
CONTINUOUS
 62
    54
100
AcDbLine
 10
1804.0
 20
80.0
 30
0.0
 11
1804.0
 21
40.0
 31
0.0
  0
LINE
  5
3E5
330
1F
100
AcDbEntity
  8
調整材穴有475_492_502_
  6
CONTINUOUS
 62
    54
100
AcDbLine
 10
1784.0
 20
80.0
 30
0.0
 11
1784.0
 21
40.0
 31
0.0
  0
LINE
  5
3E6
330
1F
100
AcDbEntity
  8
調整材穴有475_492_502_
  6
CONTINUOUS
 62
   134
100
AcDbLine
 10
1604.0
 20
80.0
 30
0.0
 11
1604.0
 21
40.0
 31
0.0
  0
LINE
  5
3E7
330
1F
100
AcDbEntity
  8
調整材穴有475_492_502_
  6
CONTINUOUS
 62
   134
100
AcDbLine
 10
1244.0
 20
80.0
 30
0.0
 11
1244.0
 21
40.0
 31
0.0
  0
TEXT
  5
3E8
330
1F
100
AcDbEntity
  8
調整材穴有475_492_502_
  6
CONTINUOUS
 62
    54
100
AcDbText
 10
2234.0
 20
76.00000000000001
 30
0.0
 40
22.09944751381216
  1
図面
  7
EXCADVERT
 72
     3
 11
2234.0
 21
44.00000000000001
 31
0.0
100
AcDbText
  0
TEXT
  5
3E9
330
1F
100
AcDbEntity
  8
調整材穴有475_492_502_
  6
CONTINUOUS
 62
    54
100
AcDbText
 10
2134.4
 20
76.00000000000001
 30
0.0
 40
20.56555269922879
  1
尺度
  7
EXCADVERT
 72
     3
 11
2134.4
 21
44.00000000000001
 31
0.0
100
AcDbText
  0
TEXT
  5
3EA
330
1F
100
AcDbEntity
  8
調整材穴有475_492_502_
  6
CONTINUOUS
 62
    54
100
AcDbText
 10
1793.6
 20
76.00000000000001
 30
0.0
 40
20.65848934796643
  1
名称
  7
EXCADVERT
 72
     3
 11
1793.6
 21
44.00000000000001
 31
0.0
100
AcDbText
  0
TEXT
  5
3EB
330
1F
100
AcDbEntity
  8
調整材穴有475_492_502_
  6
CONTINUOUS
 62
    54
100
AcDbText
 10
1776.0
 20
68.00000000000001
 30
0.0
 40
12.30769230769231
  1
日
  7
EXCADVERT
 72
     3
 11
1776.0
 21
52.00000000000001
 31
0.0
100
AcDbText
  0
TEXT
  5
3EC
330
1F
100
AcDbEntity
  8
調整材穴有475_492_502_
  6
CONTINUOUS
 62
    54
100
AcDbText
 10
1720.0
 20
68.00000000000001
 30
0.0
 40
10.84745762711864
  1
月
  7
EXCADVERT
 72
     3
 11
1720.0
 21
52.00000000000001
 31
0.0
100
AcDbText
  0
TEXT
  5
3ED
330
1F
100
AcDbEntity
  8
調整材穴有475_492_502_
  6
CONTINUOUS
 62
    54
100
AcDbText
 10
1664.4
 20
68.00000000000001
 30
0.0
 40
10.47120418848167
  1
年
  7
EXCADVERT
 72
     3
 11
1664.4
 21
52.00000000000001
 31
0.0
100
AcDbText
  0
TEXT
  5
3EE
330
1F
100
AcDbEntity
  8
調整材穴有475_492_502_
  6
CONTINUOUS
 62
    94
100
AcDbText
 10
1350.600000000001
 20
52.67716600000001
 30
0.0
 40
15.590552
  1
大 和 建 工 株 式 会 社
 41
0.6977778186480043
  7
EXCADSTD
 72
     5
 11
1577.400000000001
 21
52.67716600000001
 31
0.0
100
AcDbText
  0
LINE
  5
3EF
330
1F
100
AcDbEntity
  8
調整材穴有475_492_502_
  6
CONTINUOUS
 62
    54
100
AcDbLine
 10
1268.8
 20
77.00000000000001
 30
0.0
 11
1274.799999999999
 21
77.00000000000001
 31
0.0
  0
LINE
  5
3F0
330
1F
100
AcDbEntity
  8
調整材穴有475_492_502_
  6
CONTINUOUS
 62
    54
100
AcDbLine
 10
1268.8
 20
43.00000000000001
 30
0.0
 11
1274.799999999999
 21
43.00000000000001
 31
0.0
  0
LINE
  5
3F1
330
1F
100
AcDbEntity
  8
調整材穴有475_492_502_
  6
CONTINUOUS
 62
    54
100
AcDbLine
 10
1268.8
 20
43.00000000000001
 30
0.0
 11
1268.8
 21
77.00000000000001
 31
0.0
  0
LINE
  5
3F2
330
1F
100
AcDbEntity
  8
調整材穴有475_492_502_
  6
CONTINUOUS
 62
    54
100
AcDbLine
 10
1272.8
 20
72.99999999999999
 30
0.0
 11
1272.8
 21
47.00000000000007
 31
0.0
  0
LINE
  5
3F3
330
1F
100
AcDbEntity
  8
調整材穴有475_492_502_
  6
CONTINUOUS
 62
    54
100
AcDbLine
 10
1278.799999999999
 20
72.99999999999999
 30
0.0
 11
1278.799999999999
 21
47.00000000000007
 31
0.0
  0
LINE
  5
3F4
330
1F
100
AcDbEntity
  8
調整材穴有475_492_502_
  6
CONTINUOUS
 62
    54
100
AcDbLine
 10
1274.799999999999
 20
70.99999999999999
 30
0.0
 11
1274.799999999999
 21
49.00000000000007
 31
0.0
  0
LINE
  5
3F5
330
1F
100
AcDbEntity
  8
調整材穴有475_492_502_
  6
CONTINUOUS
 62
    54
100
AcDbLine
 10
1280.799999999999
 20
72.99999999999999
 30
0.0
 11
1280.799999999999
 21
43.00000000000001
 31
0.0
  0
LINE
  5
3F6
330
1F
100
AcDbEntity
  8
調整材穴有475_492_502_
  6
CONTINUOUS
 62
    54
100
AcDbLine
 10
1290.799999999999
 20
72.99999999999999
 30
0.0
 11
1290.799999999999
 21
43.00000000000001
 31
0.0
  0
LINE
  5
3F7
330
1F
100
AcDbEntity
  8
調整材穴有475_492_502_
  6
CONTINUOUS
 62
    54
100
AcDbLine
 10
1284.799999999999
 20
71.99999999999953
 30
0.0
 11
1284.799999999999
 21
53.00000000000456
 31
0.0
  0
LINE
  5
3F8
330
1F
100
AcDbEntity
  8
調整材穴有475_492_502_
  6
CONTINUOUS
 62
    54
100
AcDbLine
 10
1286.799999999999
 20
71.99999999999953
 30
0.0
 11
1286.799999999999
 21
53.00000000000456
 31
0.0
  0
LINE
  5
3F9
330
1F
100
AcDbEntity
  8
調整材穴有475_492_502_
  6
CONTINUOUS
 62
    54
100
AcDbLine
 10
1292.799999999999
 20
77.00000000000001
 30
0.0
 11
1292.799999999999
 21
43.00000000000001
 31
0.0
  0
LINE
  5
3FA
330
1F
100
AcDbEntity
  8
調整材穴有475_492_502_
  6
CONTINUOUS
 62
    54
100
AcDbLine
 10
1296.799999999999
 20
77.00000000000001
 30
0.0
 11
1296.799999999999
 21
43.00000000000001
 31
0.0
  0
LINE
  5
3FB
330
1F
100
AcDbEntity
  8
調整材穴有475_492_502_
  6
CONTINUOUS
 62
    54
100
AcDbLine
 10
1298.799999999999
 20
77.00000000000001
 30
0.0
 11
1298.799999999999
 21
47.00000000000007
 31
0.0
  0
LINE
  5
3FC
330
1F
100
AcDbEntity
  8
調整材穴有475_492_502_
  6
CONTINUOUS
 62
    54
100
AcDbLine
 10
1302.799999999999
 20
77.00000000000001
 30
0.0
 11
1302.799999999999
 21
48.00000000000004
 31
0.0
  0
LINE
  5
3FD
330
1F
100
AcDbEntity
  8
調整材穴有475_492_502_
  6
CONTINUOUS
 62
    54
100
AcDbLine
 10
1304.799999999999
 20
77.00000000000001
 30
0.0
 11
1304.799999999999
 21
48.00000000000004
 31
0.0
  0
LINE
  5
3FE
330
1F
100
AcDbEntity
  8
調整材穴有475_492_502_
  6
CONTINUOUS
 62
    54
100
AcDbLine
 10
1308.799999999999
 20
77.00000000000001
 30
0.0
 11
1308.799999999999
 21
48.00000000000004
 31
0.0
  0
LINE
  5
3FF
330
1F
100
AcDbEntity
  8
調整材穴有475_492_502_
  6
CONTINUOUS
 62
    54
100
AcDbLine
 10
1310.799999999999
 20
77.00000000000001
 30
0.0
 11
1310.799999999999
 21
48.00000000000004
 31
0.0
  0
LINE
  5
400
330
1F
100
AcDbEntity
  8
調整材穴有475_492_502_
  6
CONTINUOUS
 62
    54
100
AcDbLine
 10
1314.799999999999
 20
77.00000000000001
 30
0.0
 11
1314.799999999999
 21
47.00000000000004
 31
0.0
  0
LINE
  5
401
330
1F
100
AcDbEntity
  8
調整材穴有475_492_502_
  6
CONTINUOUS
 62
    54
100
AcDbLine
 10
1316.799999999999
 20
72.99999999999999
 30
0.0
 11
1316.799999999999
 21
43.00000000000001
 31
0.0
  0
LINE
  5
402
330
1F
100
AcDbEntity
  8
調整材穴有475_492_502_
  6
CONTINUOUS
 62
    54
100
AcDbLine
 10
1320.799999999999
 20
71.99999999999953
 30
0.0
 11
1320.799999999999
 21
53.00000000000456
 31
0.0
  0
LINE
  5
403
330
1F
100
AcDbEntity
  8
調整材穴有475_492_502_
  6
CONTINUOUS
 62
    54
100
AcDbLine
 10
1322.799999999999
 20
71.99999999999953
 30
0.0
 11
1322.799999999999
 21
53.00000000000456
 31
0.0
  0
LINE
  5
404
330
1F
100
AcDbEntity
  8
調整材穴有475_492_502_
  6
CONTINUOUS
 62
    54
100
AcDbLine
 10
1326.799999999999
 20
72.99999999999999
 30
0.0
 11
1326.799999999999
 21
43.00000000000001
 31
0.0
  0
ARC
  5
405
330
1F
100
AcDbEntity
  8
調整材穴有475_492_502_
  6
CONTINUOUS
 62
    54
100
AcDbCircle
 10
1274.799999999999
 20
72.99999999999999
 30
0.0
 40
4.000000000000684
100
AcDbArc
 50
0.0
 51
89.99999999999996
  0
ARC
  5
406
330
1F
100
AcDbEntity
  8
調整材穴有475_492_502_
  6
CONTINUOUS
 62
    54
100
AcDbCircle
 10
1272.799999999999
 20
70.99999999999999
 30
0.0
 40
2.0
100
AcDbArc
 50
0.0
 51
89.99999999999996
  0
ARC
  5
407
330
1F
100
AcDbEntity
  8
調整材穴有475_492_502_
  6
CONTINUOUS
 62
    54
100
AcDbCircle
 10
1284.799999999999
 20
72.99999999999999
 30
0.0
 40
4.000000000000029
100
AcDbArc
 50
89.99999999999996
 51
180.0
  0
ARC
  5
408
330
1F
100
AcDbEntity
  8
調整材穴有475_492_502_
  6
CONTINUOUS
 62
    54
100
AcDbCircle
 10
1286.799999999999
 20
72.99999999999999
 30
0.0
 40
4.0
100
AcDbArc
 50
0.0
 51
89.99999999999996
  0
ARC
  5
409
330
1F
100
AcDbEntity
  8
調整材穴有475_492_502_
  6
CONTINUOUS
 62
    54
100
AcDbCircle
 10
1285.799999999999
 20
71.99999999999953
 30
0.0
 40
1.000000000000456
100
AcDbArc
 50
0.0
 51
180.0
  0
LINE
  5
40A
330
1F
100
AcDbEntity
  8
調整材穴有475_492_502_
  6
CONTINUOUS
 62
    54
100
AcDbLine
 10
1284.799999999999
 20
49.00000000000007
 30
0.0
 11
1286.799999999999
 21
49.00000000000007
 31
0.0
  0
LINE
  5
40B
330
1F
100
AcDbEntity
  8
調整材穴有475_492_502_
  6
CONTINUOUS
 62
    54
100
AcDbLine
 10
1284.799999999999
 20
53.00000000000456
 30
0.0
 11
1286.799999999999
 21
53.00000000000456
 31
0.0
  0
ARC
  5
40C
330
1F
100
AcDbEntity
  8
調整材穴有475_492_502_
  6
CONTINUOUS
 62
    54
100
AcDbCircle
 10
1302.799999999999
 20
47.00000000000007
 30
0.0
 40
4.0
100
AcDbArc
 50
180.0
 51
270.0
  0
ARC
  5
40D
330
1F
100
AcDbEntity
  8
調整材穴有475_492_502_
  6
CONTINUOUS
 62
    54
100
AcDbCircle
 10
1310.799999999999
 20
47.00000000000007
 30
0.0
 40
4.000000000000056
100
AcDbArc
 50
270.0
 51
0.0
  0
ARC
  5
40E
330
1F
100
AcDbEntity
  8
調整材穴有475_492_502_
  6
CONTINUOUS
 62
    54
100
AcDbCircle
 10
1309.799999999999
 20
48.00000000000004
 30
0.0
 40
1.0
100
AcDbArc
 50
180.0
 51
0.0
  0
ARC
  5
40F
330
1F
100
AcDbEntity
  8
調整材穴有475_492_502_
  6
CONTINUOUS
 62
    54
100
AcDbCircle
 10
1303.799999999999
 20
48.00000000000004
 30
0.0
 40
1.0
100
AcDbArc
 50
180.0
 51
0.0
  0
ARC
  5
410
330
1F
100
AcDbEntity
  8
調整材穴有475_492_502_
  6
CONTINUOUS
 62
    54
100
AcDbCircle
 10
1309.799999999999
 20
47.00000000000007
 30
0.0
 40
4.000000000000056
100
AcDbArc
 50
221.4096221092718
 51
270.0
  0
ARC
  5
411
330
1F
100
AcDbEntity
  8
調整材穴有475_492_502_
  6
CONTINUOUS
 62
    54
100
AcDbCircle
 10
1303.799999999999
 20
47.00000000000007
 30
0.0
 40
4.000000000000056
100
AcDbArc
 50
270.0
 51
318.5903778907281
  0
ARC
  5
412
330
1F
100
AcDbEntity
  8
調整材穴有475_492_502_
  6
CONTINUOUS
 62
    54
100
AcDbCircle
 10
1272.799999999999
 20
49.00000000000004
 30
0.0
 40
2.0
100
AcDbArc
 50
270.0
 51
0.0
  0
ARC
  5
413
330
1F
100
AcDbEntity
  8
調整材穴有475_492_502_
  6
CONTINUOUS
 62
    54
100
AcDbCircle
 10
1274.799999999999
 20
47.00000000000004
 30
0.0
 40
4.000000000000684
100
AcDbArc
 50
270.0
 51
0.0
  0
ARC
  5
414
330
1F
100
AcDbEntity
  8
調整材穴有475_492_502_
  6
CONTINUOUS
 62
    54
100
AcDbCircle
 10
1320.799999999999
 20
72.99999999999999
 30
0.0
 40
4.000000000000029
100
AcDbArc
 50
89.99999999999996
 51
180.0
  0
ARC
  5
415
330
1F
100
AcDbEntity
  8
調整材穴有475_492_502_
  6
CONTINUOUS
 62
    54
100
AcDbCircle
 10
1322.799999999999
 20
72.99999999999999
 30
0.0
 40
4.0
100
AcDbArc
 50
0.0
 51
89.99999999999996
  0
ARC
  5
416
330
1F
100
AcDbEntity
  8
調整材穴有475_492_502_
  6
CONTINUOUS
 62
    54
100
AcDbCircle
 10
1321.799999999999
 20
71.99999999999953
 30
0.0
 40
1.000000000000456
100
AcDbArc
 50
0.0
 51
180.0
  0
LINE
  5
417
330
1F
100
AcDbEntity
  8
調整材穴有475_492_502_
  6
CONTINUOUS
 62
    54
100
AcDbLine
 10
1320.799999999999
 20
49.00000000000007
 30
0.0
 11
1322.799999999999
 21
49.00000000000007
 31
0.0
  0
LINE
  5
418
330
1F
100
AcDbEntity
  8
調整材穴有475_492_502_
  6
CONTINUOUS
 62
    54
100
AcDbLine
 10
1320.799999999999
 20
53.00000000000456
 30
0.0
 11
1322.799999999999
 21
53.00000000000456
 31
0.0
  0
LINE
  5
419
330
1F
100
AcDbEntity
  8
調整材穴有475_492_502_
  6
CONTINUOUS
 62
    54
100
AcDbLine
 10
1284.799999999999
 20
77.00000000000001
 30
0.0
 11
1286.799999999999
 21
77.00000000000001
 31
0.0
  0
LINE
  5
41A
330
1F
100
AcDbEntity
  8
調整材穴有475_492_502_
  6
CONTINUOUS
 62
    54
100
AcDbLine
 10
1284.799999999999
 20
49.00000000000007
 30
0.0
 11
1284.799999999999
 21
43.00000000000001
 31
0.0
  0
LINE
  5
41B
330
1F
100
AcDbEntity
  8
調整材穴有475_492_502_
  6
CONTINUOUS
 62
    54
100
AcDbLine
 10
1286.799999999999
 20
49.00000000000007
 30
0.0
 11
1286.799999999999
 21
43.00000000000001
 31
0.0
  0
LINE
  5
41C
330
1F
100
AcDbEntity
  8
調整材穴有475_492_502_
  6
CONTINUOUS
 62
    54
100
AcDbLine
 10
1280.799999999999
 20
43.00000000000001
 30
0.0
 11
1284.799999999999
 21
43.00000000000001
 31
0.0
  0
LINE
  5
41D
330
1F
100
AcDbEntity
  8
調整材穴有475_492_502_
  6
CONTINUOUS
 62
    54
100
AcDbLine
 10
1286.799999999999
 20
43.00000000000001
 30
0.0
 11
1290.799999999999
 21
43.00000000000001
 31
0.0
  0
LINE
  5
41E
330
1F
100
AcDbEntity
  8
調整材穴有475_492_502_
  6
CONTINUOUS
 62
    54
100
AcDbLine
 10
1292.799999999999
 20
43.00000000000001
 30
0.0
 11
1296.799999999999
 21
43.00000000000001
 31
0.0
  0
LINE
  5
41F
330
1F
100
AcDbEntity
  8
調整材穴有475_492_502_
  6
CONTINUOUS
 62
    54
100
AcDbLine
 10
1292.799999999999
 20
77.00000000000001
 30
0.0
 11
1296.799999999999
 21
77.00000000000001
 31
0.0
  0
LINE
  5
420
330
1F
100
AcDbEntity
  8
調整材穴有475_492_502_
  6
CONTINUOUS
 62
    54
100
AcDbLine
 10
1298.799999999999
 20
77.00000000000001
 30
0.0
 11
1302.799999999999
 21
77.00000000000001
 31
0.0
  0
LINE
  5
421
330
1F
100
AcDbEntity
  8
調整材穴有475_492_502_
  6
CONTINUOUS
 62
    54
100
AcDbLine
 10
1304.799999999999
 20
77.00000000000001
 30
0.0
 11
1308.799999999999
 21
77.00000000000001
 31
0.0
  0
LINE
  5
422
330
1F
100
AcDbEntity
  8
調整材穴有475_492_502_
  6
CONTINUOUS
 62
    54
100
AcDbLine
 10
1310.799999999999
 20
77.00000000000001
 30
0.0
 11
1314.799999999999
 21
77.00000000000001
 31
0.0
  0
LINE
  5
423
330
1F
100
AcDbEntity
  8
調整材穴有475_492_502_
  6
CONTINUOUS
 62
    54
100
AcDbLine
 10
1320.799999999999
 20
77.00000000000001
 30
0.0
 11
1322.799999999999
 21
77.00000000000001
 31
0.0
  0
LINE
  5
424
330
1F
100
AcDbEntity
  8
調整材穴有475_492_502_
  6
CONTINUOUS
 62
    54
100
AcDbLine
 10
1302.799999999999
 20
43.00000000000001
 30
0.0
 11
1303.799999999999
 21
43.00000000000001
 31
0.0
  0
LINE
  5
425
330
1F
100
AcDbEntity
  8
調整材穴有475_492_502_
  6
CONTINUOUS
 62
    54
100
AcDbLine
 10
1309.799999999999
 20
43.00000000000001
 30
0.0
 11
1310.799999999999
 21
43.00000000000001
 31
0.0
  0
LINE
  5
426
330
1F
100
AcDbEntity
  8
調整材穴有475_492_502_
  6
CONTINUOUS
 62
    54
100
AcDbLine
 10
1316.799999999999
 20
43.00000000000001
 30
0.0
 11
1320.799999999999
 21
43.00000000000001
 31
0.0
  0
LINE
  5
427
330
1F
100
AcDbEntity
  8
調整材穴有475_492_502_
  6
CONTINUOUS
 62
    54
100
AcDbLine
 10
1322.799999999999
 20
43.00000000000001
 30
0.0
 11
1326.799999999999
 21
43.00000000000001
 31
0.0
  0
LINE
  5
428
330
1F
100
AcDbEntity
  8
調整材穴有475_492_502_
  6
CONTINUOUS
 62
    54
100
AcDbLine
 10
1320.799999999999
 20
49.00000000000007
 30
0.0
 11
1320.799999999999
 21
43.00000000000001
 31
0.0
  0
LINE
  5
429
330
1F
100
AcDbEntity
  8
調整材穴有475_492_502_
  6
CONTINUOUS
 62
    54
100
AcDbLine
 10
1322.799999999999
 20
49.00000000000007
 30
0.0
 11
1322.799999999999
 21
43.00000000000001
 31
0.0
  0
LINE
  5
42A
330
1F
100
AcDbEntity
  8
調整材穴有475_492_502_
  6
CONTINUOUS
 62
    54
100
AcDbLine
 10
1268.800000000002
 20
76.94112549695633
 30
0.0
 11
1268.858874503048
 21
77.00000000000269
 31
0.0
  0
LINE
  5
42B
330
1F
100
AcDbEntity
  8
調整材穴有475_492_502_
  6
CONTINUOUS
 62
    54
100
AcDbLine
 10
1268.8
 20
75.80975464705587
 30
0.0
 11
1269.990245352949
 21
77.00000000000473
 31
0.0
  0
LINE
  5
42C
330
1F
100
AcDbEntity
  8
調整材穴有475_492_502_
  6
CONTINUOUS
 62
    54
100
AcDbLine
 10
1268.800000000003
 20
74.67838379716041
 30
0.0
 11
1271.121616202844
 21
77.00000000000166
 31
0.0
  0
LINE
  5
42D
330
1F
100
AcDbEntity
  8
調整材穴有475_492_502_
  6
CONTINUOUS
 62
    54
100
AcDbLine
 10
1268.800000000006
 20
73.54701294726517
 30
0.0
 11
1272.25298705274
 21
76.9999999999987
 31
0.0
  0
LINE
  5
42E
330
1F
100
AcDbEntity
  8
調整材穴有475_492_502_
  6
CONTINUOUS
 62
    54
100
AcDbLine
 10
1268.799999999999
 20
72.41564209735948
 30
0.0
 11
1273.384357902645
 21
77.00000000000587
 31
0.0
  0
LINE
  5
42F
330
1F
100
AcDbEntity
  8
調整材穴有475_492_502_
  6
CONTINUOUS
 62
    54
100
AcDbLine
 10
1268.799999999997
 20
71.28427124745902
 30
0.0
 11
1274.51572875254
 21
77.0000000000028
 31
0.0
  0
LINE
  5
430
330
1F
100
AcDbEntity
  8
調整材穴有475_492_502_
  6
CONTINUOUS
 62
    54
100
AcDbLine
 10
1268.8
 20
70.15290039756367
 30
0.0
 11
1275.571911947647
 21
76.92481234521047
 31
0.0
  0
LINE
  5
431
330
1F
100
AcDbEntity
  8
調整材穴有475_492_502_
  6
CONTINUOUS
 62
    54
100
AcDbLine
 10
1268.800000000003
 20
69.02152954766832
 30
0.0
 11
1276.430892768695
 21
76.6524223163603
 31
0.0
  0
LINE
  5
432
330
1F
100
AcDbEntity
  8
調整材穴有475_492_502_
  6
CONTINUOUS
 62
    54
100
AcDbLine
 10
1268.800000000001
 20
67.89015869776786
 30
0.0
 11
1272.8
 21
71.89015869776757
 31
0.0
  0
LINE
  5
433
330
1F
100
AcDbEntity
  8
調整材穴有475_492_502_
  6
CONTINUOUS
 62
    54
100
AcDbLine
 10
1268.799999999999
 20
66.75878784786728
 30
0.0
 11
1272.8
 21
70.75878784786896
 31
0.0
  0
LINE
  5
434
330
1F
100
AcDbEntity
  8
調整材穴有475_492_502_
  6
CONTINUOUS
 62
    54
100
AcDbLine
 10
1268.800000000002
 20
65.62741699797193
 30
0.0
 11
1272.8
 21
69.62741699797083
 31
0.0
  0
LINE
  5
435
330
1F
100
AcDbEntity
  8
調整材穴有475_492_502_
  6
CONTINUOUS
 62
    54
100
AcDbLine
 10
1268.799999999999
 20
64.49604614807136
 30
0.0
 11
1272.8
 21
68.49604614807221
 31
0.0
  0
LINE
  5
436
330
1F
100
AcDbEntity
  8
調整材穴有475_492_502_
  6
CONTINUOUS
 62
    54
100
AcDbLine
 10
1268.800000000003
 20
63.36467529817612
 30
0.0
 11
1272.8
 21
67.36467529817396
 31
0.0
  0
LINE
  5
437
330
1F
100
AcDbEntity
  8
調整材穴有475_492_502_
  6
CONTINUOUS
 62
    54
100
AcDbLine
 10
1268.800000000001
 20
62.23330444827555
 30
0.0
 11
1272.8
 21
66.23330444827543
 31
0.0
  0
LINE
  5
438
330
1F
100
AcDbEntity
  8
調整材穴有475_492_502_
  6
CONTINUOUS
 62
    54
100
AcDbLine
 10
1268.800000000004
 20
61.1019335983802
 30
0.0
 11
1272.8
 21
65.10193359837713
 31
0.0
  0
LINE
  5
439
330
1F
100
AcDbEntity
  8
調整材穴有475_492_502_
  6
CONTINUOUS
 62
    54
100
AcDbLine
 10
1268.800000000002
 20
59.97056274847962
 30
0.0
 11
1272.8
 21
63.97056274847851
 31
0.0
  0
LINE
  5
43A
330
1F
100
AcDbEntity
  8
調整材穴有475_492_502_
  6
CONTINUOUS
 62
    54
100
AcDbLine
 10
1268.799999999999
 20
58.83919189857927
 30
0.0
 11
1272.8
 21
62.83919189858024
 31
0.0
  0
LINE
  5
43B
330
1F
100
AcDbEntity
  8
調整材穴有475_492_502_
  6
CONTINUOUS
 62
    54
100
AcDbLine
 10
1268.800000000002
 20
57.70782104868381
 30
0.0
 11
1272.8
 21
61.70782104868177
 31
0.0
  0
LINE
  5
43C
330
1F
100
AcDbEntity
  8
調整材穴有475_492_502_
  6
CONTINUOUS
 62
    54
100
AcDbLine
 10
1268.800000000005
 20
56.57645019878846
 30
0.0
 11
1272.8
 21
60.57645019878349
 31
0.0
  0
LINE
  5
43D
330
1F
100
AcDbEntity
  8
調整材穴有475_492_502_
  6
CONTINUOUS
 62
    54
100
AcDbLine
 10
1268.800000000003
 20
55.445079348888
 30
0.0
 11
1272.8
 21
59.44507934888507
 31
0.0
  0
LINE
  5
43E
330
1F
100
AcDbEntity
  8
調整材穴有475_492_502_
  6
CONTINUOUS
 62
    54
100
AcDbLine
 10
1268.800000000007
 20
54.31370849899265
 30
0.0
 11
1272.8
 21
58.31370849898657
 31
0.0
  0
LINE
  5
43F
330
1F
100
AcDbEntity
  8
調整材穴有475_492_502_
  6
CONTINUOUS
 62
    54
100
AcDbLine
 10
1268.799999999999
 20
53.18233764908696
 30
0.0
 11
1272.8
 21
57.18233764908807
 31
0.0
  0
LINE
  5
440
330
1F
100
AcDbEntity
  8
調整材穴有475_492_502_
  6
CONTINUOUS
 62
    54
100
AcDbLine
 10
1268.800000000002
 20
52.05096679919161
 30
0.0
 11
1272.8
 21
56.05096679918974
 31
0.0
  0
LINE
  5
441
330
1F
100
AcDbEntity
  8
調整材穴有475_492_502_
  6
CONTINUOUS
 62
    54
100
AcDbLine
 10
1268.8
 20
50.91959594929104
 30
0.0
 11
1272.8
 21
54.91959594929132
 31
0.0
  0
LINE
  5
442
330
1F
100
AcDbEntity
  8
調整材穴有475_492_502_
  6
CONTINUOUS
 62
    54
100
AcDbLine
 10
1268.800000000003
 20
49.7882250993958
 30
0.0
 11
1272.8
 21
53.7882250993929
 31
0.0
  0
LINE
  5
443
330
1F
100
AcDbEntity
  8
調整材穴有475_492_502_
  6
CONTINUOUS
 62
    54
100
AcDbLine
 10
1268.800000000006
 20
48.65685424950034
 30
0.0
 11
1272.8
 21
52.65685424949457
 31
0.0
  0
LINE
  5
444
330
1F
100
AcDbEntity
  8
調整材穴有475_492_502_
  6
CONTINUOUS
 62
    54
100
AcDbLine
 10
1268.799999999999
 20
47.52548339959476
 30
0.0
 11
1272.8
 21
51.52548339959613
 31
0.0
  0
LINE
  5
445
330
1F
100
AcDbEntity
  8
調整材穴有475_492_502_
  6
CONTINUOUS
 62
    54
100
AcDbLine
 10
1268.800000000002
 20
46.3941125496993
 30
0.0
 11
1272.8
 21
50.39411254969757
 31
0.0
  0
LINE
  5
446
330
1F
100
AcDbEntity
  8
調整材穴有475_492_502_
  6
CONTINUOUS
 62
    54
100
AcDbLine
 10
1268.800000000005
 20
45.26274169980407
 30
0.0
 11
1272.8
 21
49.26274169979929
 31
0.0
  0
LINE
  5
447
330
1F
100
AcDbEntity
  8
調整材穴有475_492_502_
  6
CONTINUOUS
 62
    54
100
AcDbLine
 10
1268.800000000003
 20
44.1313708499036
 30
0.0
 11
1272.8
 21
48.13137084990096
 31
0.0
  0
LINE
  5
448
330
1F
100
AcDbEntity
  8
調整材穴有475_492_502_
  6
CONTINUOUS
 62
    54
100
AcDbLine
 10
1268.799999999996
 20
42.99999999999791
 30
0.0
 11
1272.8
 21
47.00000000000254
 31
0.0
  0
LINE
  5
449
330
1F
100
AcDbEntity
  8
調整材穴有475_492_502_
  6
CONTINUOUS
 62
    54
100
AcDbLine
 10
1269.931370849896
 20
43.00000000000007
 30
0.0
 11
1278.799999999996
 21
51.86862915009915
 31
0.0
  0
LINE
  5
44A
330
1F
100
AcDbEntity
  8
調整材穴有475_492_502_
  6
CONTINUOUS
 62
    54
100
AcDbLine
 10
1271.062741699792
 20
42.99999999999689
 30
0.0
 11
1278.799999999998
 21
50.73725830020369
 31
0.0
  0
LINE
  5
44B
330
1F
100
AcDbEntity
  8
調整材穴有475_492_502_
  6
CONTINUOUS
 62
    54
100
AcDbLine
 10
1272.194112549692
 20
42.99999999999905
 30
0.0
 11
1278.800000000002
 21
49.60588745030846
 31
0.0
  0
LINE
  5
44C
330
1F
100
AcDbEntity
  8
調整材穴有475_492_502_
  6
CONTINUOUS
 62
    54
100
AcDbLine
 10
1273.325483399587
 20
42.99999999999598
 30
0.0
 11
1278.799999999999
 21
48.47451660040788
 31
0.0
  0
LINE
  5
44D
330
1F
100
AcDbEntity
  8
調整材穴有475_492_502_
  6
CONTINUOUS
 62
    54
100
AcDbLine
 10
1274.456854249483
 20
42.99999999999291
 30
0.0
 11
1278.800000000002
 21
47.34314575051253
 31
0.0
  0
LINE
  5
44E
330
1F
100
AcDbEntity
  8
調整材穴有475_492_502_
  6
CONTINUOUS
 62
    54
100
AcDbLine
 10
1275.688049768999
 20
43.09982466961021
 30
0.0
 11
1278.70017533039
 21
46.11195023100193
 31
0.0
  0
LINE
  5
44F
330
1F
100
AcDbEntity
  8
調整材穴有475_492_502_
  6
CONTINUOUS
 62
    54
100
AcDbLine
 10
1269.931370849898
 20
42.99999999999984
 30
0.0
 11
1268.799999999996
 21
44.13137084990247
 31
0.0
  0
LINE
  5
450
330
1F
100
AcDbEntity
  8
調整材穴有475_492_502_
  6
CONTINUOUS
 62
    54
100
AcDbLine
 10
1271.062741699799
 20
42.99999999999791
 30
0.0
 11
1268.799999999999
 21
45.26274169979793
 31
0.0
  0
LINE
  5
451
330
1F
100
AcDbEntity
  8
調整材穴有475_492_502_
  6
CONTINUOUS
 62
    54
100
AcDbLine
 10
1272.194112549694
 20
43.00000000000087
 30
0.0
 11
1268.800000000002
 21
46.39411254969316
 31
0.0
  0
LINE
  5
452
330
1F
100
AcDbEntity
  8
調整材穴有475_492_502_
  6
CONTINUOUS
 62
    54
100
AcDbLine
 10
1273.325483399595
 20
42.99999999999882
 30
0.0
 11
1268.8
 21
47.52548339959374
 31
0.0
  0
LINE
  5
453
330
1F
100
AcDbEntity
  8
調整材穴有475_492_502_
  6
CONTINUOUS
 62
    54
100
AcDbLine
 10
1274.456854249495
 20
42.99999999999666
 30
0.0
 11
1268.800000000003
 21
48.65685424948909
 31
0.0
  0
LINE
  5
454
330
1F
100
AcDbEntity
  8
調整材穴有475_492_502_
  6
CONTINUOUS
 62
    54
100
AcDbLine
 10
1275.522443603681
 20
43.06578149570949
 30
0.0
 11
1268.799999999996
 21
49.78822509939478
 31
0.0
  0
LINE
  5
455
330
1F
100
AcDbEntity
  8
調整材穴有475_492_502_
  6
CONTINUOUS
 62
    54
100
AcDbLine
 10
1276.390003241625
 20
43.32959270766317
 30
0.0
 11
1268.799999999999
 21
50.91959594929013
 31
0.0
  0
LINE
  5
456
330
1F
100
AcDbEntity
  8
調整材穴有475_492_502_
  6
CONTINUOUS
 62
    54
100
AcDbLine
 10
1277.113822330923
 20
43.73714446826462
 30
0.0
 11
1273.65771235737
 21
47.19325444181733
 31
0.0
  0
LINE
  5
457
330
1F
100
AcDbEntity
  8
調整材穴有475_492_502_
  6
CONTINUOUS
 62
    54
100
AcDbLine
 10
1277.718126242939
 20
44.26421140614657
 30
0.0
 11
1274.302440678379
 21
47.67989697070685
 31
0.0
  0
LINE
  5
458
330
1F
100
AcDbEntity
  8
調整材穴有475_492_502_
  6
CONTINUOUS
 62
    54
100
AcDbLine
 10
1278.207952665565
 20
44.90575583341929
 30
0.0
 11
1274.709268915217
 21
48.40443958376731
 31
0.0
  0
LINE
  5
459
330
1F
100
AcDbEntity
  8
調整材穴有475_492_502_
  6
CONTINUOUS
 62
    54
100
AcDbLine
 10
1278.573107600303
 20
45.67197174857957
 30
0.0
 11
1274.799999999999
 21
49.44507934888371
 31
0.0
  0
LINE
  5
45A
330
1F
100
AcDbEntity
  8
調整材穴有475_492_502_
  6
CONTINUOUS
 62
    54
100
AcDbLine
 10
1278.779628985923
 20
46.59682121285773
 30
0.0
 11
1274.799999999999
 21
50.57645019878176
 31
0.0
  0
LINE
  5
45B
330
1F
100
AcDbEntity
  8
調整材穴有475_492_502_
  6
CONTINUOUS
 62
    54
100
AcDbLine
 10
1278.799999999998
 20
47.70782104868108
 30
0.0
 11
1274.799999999999
 21
51.70782104868034
 31
0.0
  0
LINE
  5
45C
330
1F
100
AcDbEntity
  8
調整材穴有475_492_502_
  6
CONTINUOUS
 62
    54
100
AcDbLine
 10
1278.800000000001
 20
48.83919189857643
 30
0.0
 11
1274.799999999999
 21
52.8391918985787
 31
0.0
  0
LINE
  5
45D
330
1F
100
AcDbEntity
  8
調整材穴有475_492_502_
  6
CONTINUOUS
 62
    54
100
AcDbLine
 10
1278.800000000004
 20
49.97056274847189
 30
0.0
 11
1274.799999999999
 21
53.97056274847729
 31
0.0
  0
LINE
  5
45E
330
1F
100
AcDbEntity
  8
調整材穴有475_492_502_
  6
CONTINUOUS
 62
    54
100
AcDbLine
 10
1278.800000000002
 20
51.10193359837224
 30
0.0
 11
1274.799999999999
 21
55.10193359837537
 31
0.0
  0
LINE
  5
45F
330
1F
100
AcDbEntity
  8
調整材穴有475_492_502_
  6
CONTINUOUS
 62
    54
100
AcDbLine
 10
1278.8
 20
52.23330444827282
 30
0.0
 11
1274.799999999999
 21
56.23330444827413
 31
0.0
  0
LINE
  5
460
330
1F
100
AcDbEntity
  8
調整材穴有475_492_502_
  6
CONTINUOUS
 62
    54
100
AcDbLine
 10
1278.799999999998
 20
53.36467529817328
 30
0.0
 11
1274.799999999999
 21
57.36467529817254
 31
0.0
  0
LINE
  5
461
330
1F
100
AcDbEntity
  8
調整材穴有475_492_502_
  6
CONTINUOUS
 62
    54
100
AcDbLine
 10
1278.800000000001
 20
54.49604614806874
 30
0.0
 11
1274.799999999999
 21
58.49604614807096
 31
0.0
  0
LINE
  5
462
330
1F
100
AcDbEntity
  8
調整材穴有475_492_502_
  6
CONTINUOUS
 62
    54
100
AcDbLine
 10
1278.800000000004
 20
55.62741699796398
 30
0.0
 11
1274.799999999999
 21
59.62741699796909
 31
0.0
  0
LINE
  5
463
330
1F
100
AcDbEntity
  8
調整材穴有475_492_502_
  6
CONTINUOUS
 62
    54
100
AcDbLine
 10
1278.800000000002
 20
56.75878784786455
 30
0.0
 11
1274.799999999999
 21
60.75878784786771
 31
0.0
  0
LINE
  5
464
330
1F
100
AcDbEntity
  8
調整材穴有475_492_502_
  6
CONTINUOUS
 62
    54
100
AcDbLine
 10
1278.8
 20
57.89015869776502
 30
0.0
 11
1274.799999999999
 21
61.89015869776593
 31
0.0
  0
LINE
  5
465
330
1F
100
AcDbEntity
  8
調整材穴有475_492_502_
  6
CONTINUOUS
 62
    54
100
AcDbLine
 10
1278.800000000003
 20
59.02152954766048
 30
0.0
 11
1274.799999999999
 21
63.0215295476646
 31
0.0
  0
LINE
  5
466
330
1F
100
AcDbEntity
  8
調整材穴有475_492_502_
  6
CONTINUOUS
 62
    54
100
AcDbLine
 10
1278.800000000001
 20
60.15290039756094
 30
0.0
 11
1274.799999999999
 21
64.15290039756299
 31
0.0
  0
LINE
  5
467
330
1F
100
AcDbEntity
  8
調整材穴有475_492_502_
  6
CONTINUOUS
 62
    54
100
AcDbLine
 10
1278.800000000004
 20
61.28427124745629
 30
0.0
 11
1274.799999999999
 21
65.28427124746132
 31
0.0
  0
LINE
  5
468
330
1F
100
AcDbEntity
  8
調整材穴有475_492_502_
  6
CONTINUOUS
 62
    54
100
AcDbLine
 10
1278.800000000002
 20
62.41564209735675
 30
0.0
 11
1274.799999999999
 21
66.4156420973598
 31
0.0
  0
LINE
  5
469
330
1F
100
AcDbEntity
  8
調整材穴有475_492_502_
  6
CONTINUOUS
 62
    54
100
AcDbLine
 10
1278.8
 20
63.54701294725733
 30
0.0
 11
1274.799999999999
 21
67.54701294725824
 31
0.0
  0
LINE
  5
46A
330
1F
100
AcDbEntity
  8
調整材穴有475_492_502_
  6
CONTINUOUS
 62
    54
100
AcDbLine
 10
1278.800000000003
 20
64.67838379715256
 30
0.0
 11
1274.799999999999
 21
68.6783837971566
 31
0.0
  0
LINE
  5
46B
330
1F
100
AcDbEntity
  8
調整材穴有475_492_502_
  6
CONTINUOUS
 62
    54
100
AcDbLine
 10
1278.800000000001
 20
65.80975464705314
 30
0.0
 11
1274.799999999999
 21
69.80975464705507
 31
0.0
  0
LINE
  5
46C
330
1F
100
AcDbEntity
  8
調整材穴有475_492_502_
  6
CONTINUOUS
 62
    54
100
AcDbLine
 10
1278.800000000004
 20
66.94112549694849
 30
0.0
 11
1274.799999999999
 21
70.9411254969536
 31
0.0
  0
LINE
  5
46D
330
1F
100
AcDbEntity
  8
調整材穴有475_492_502_
  6
CONTINUOUS
 62
    54
100
AcDbLine
 10
1278.800000000002
 20
68.07249634684895
 30
0.0
 11
1269.872496346846
 21
77.00000000000462
 31
0.0
  0
LINE
  5
46E
330
1F
100
AcDbEntity
  8
調整材穴有475_492_502_
  6
CONTINUOUS
 62
    54
100
AcDbLine
 10
1278.8
 20
69.20386719674953
 30
0.0
 11
1271.003867196746
 21
77.00000000000257
 31
0.0
  0
LINE
  5
46F
330
1F
100
AcDbEntity
  8
調整材穴有475_492_502_
  6
CONTINUOUS
 62
    54
100
AcDbLine
 10
1278.800000000002
 20
70.33523804664476
 30
0.0
 11
1272.135238046647
 21
77.00000000000041
 31
0.0
  0
LINE
  5
470
330
1F
100
AcDbEntity
  8
調整材穴有475_492_502_
  6
CONTINUOUS
 62
    54
100
AcDbLine
 10
1278.800000000001
 20
71.46660889654534
 30
0.0
 11
1273.266608896542
 21
77.0000000000036
 31
0.0
  0
LINE
  5
471
330
1F
100
AcDbEntity
  8
調整材穴有475_492_502_
  6
CONTINUOUS
 62
    54
100
AcDbLine
 10
1278.800000000004
 20
72.59797974644069
 30
0.0
 11
1274.397979746443
 21
77.00000000000144
 31
0.0
  0
LINE
  5
472
330
1F
100
AcDbEntity
  8
調整材穴有475_492_502_
  6
CONTINUOUS
 62
    54
100
AcDbLine
 10
1278.716548596557
 20
73.81280199978558
 30
0.0
 11
1275.612801999793
 21
76.91654859654984
 31
0.0
  0
LINE
  5
473
330
1F
100
AcDbEntity
  8
調整材穴有475_492_502_
  6
CONTINUOUS
 62
    54
100
AcDbLine
 10
1272.8
 20
72.94112549695181
 30
0.0
 11
1268.799999999997
 21
76.94112549695531
 31
0.0
  0
LINE
  5
474
330
1F
100
AcDbEntity
  8
調整材穴有475_492_502_
  6
CONTINUOUS
 62
    54
100
AcDbLine
 10
1274.329667527676
 20
72.28845537554464
 30
0.0
 11
1277.746460667938
 21
75.70524851580633
 31
0.0
  0
LINE
  5
475
330
1F
100
AcDbEntity
  8
調整材穴有475_492_502_
  6
CONTINUOUS
 62
    54
100
AcDbLine
 10
1274.722820504165
 20
71.5502375021358
 30
0.0
 11
1278.230194556087
 21
75.05761155405749
 31
0.0
  0
LINE
  5
476
330
1F
100
AcDbEntity
  8
調整材穴有475_492_502_
  6
CONTINUOUS
 62
    54
100
AcDbLine
 10
1272.8
 20
70.67838379715498
 30
0.0
 11
1268.800000000001
 21
74.67838379715427
 31
0.0
  0
LINE
  5
477
330
1F
100
AcDbEntity
  8
調整材穴有475_492_502_
  6
CONTINUOUS
 62
    54
100
AcDbLine
 10
1274.799999999999
 20
69.36467529817223
 30
0.0
 11
1278.784711860749
 21
73.34938715892231
 31
0.0
  0
LINE
  5
478
330
1F
100
AcDbEntity
  8
調整材穴有475_492_502_
  6
CONTINUOUS
 62
    54
100
AcDbLine
 10
1272.8
 20
68.41564209735814
 30
0.0
 11
1268.8
 21
72.41564209735846
 31
0.0
  0
LINE
  5
479
330
1F
100
AcDbEntity
  8
調整材穴有475_492_502_
  6
CONTINUOUS
 62
    54
100
AcDbLine
 10
1274.799999999999
 20
68.23330444827381
 30
0.0
 11
1278.800000000002
 21
72.23330444827725
 31
0.0
  0
LINE
  5
47A
330
1F
100
AcDbEntity
  8
調整材穴有475_492_502_
  6
CONTINUOUS
 62
    54
100
AcDbLine
 10
1274.799999999999
 20
67.10193359837537
 30
0.0
 11
1278.8
 21
71.10193359837679
 31
0.0
  0
LINE
  5
47B
330
1F
100
AcDbEntity
  8
調整材穴有475_492_502_
  6
CONTINUOUS
 62
    54
100
AcDbLine
 10
1272.8
 20
66.15290039756134
 30
0.0
 11
1268.799999999994
 21
70.15290039756776
 31
0.0
  0
LINE
  5
47C
330
1F
100
AcDbEntity
  8
調整材穴有475_492_502_
  6
CONTINUOUS
 62
    54
100
AcDbLine
 10
1272.8
 20
65.02152954766306
 30
0.0
 11
1268.799999999996
 21
69.0215295476673
 31
0.0
  0
LINE
  5
47D
330
1F
100
AcDbEntity
  8
調整材穴有475_492_502_
  6
CONTINUOUS
 62
    54
100
AcDbLine
 10
1272.8
 20
63.89015869776445
 30
0.0
 11
1268.800000000003
 21
67.8901586977616
 31
0.0
  0
LINE
  5
47E
330
1F
100
AcDbEntity
  8
調整材穴有475_492_502_
  6
CONTINUOUS
 62
    54
100
AcDbLine
 10
1272.8
 20
62.758787847866
 30
0.0
 11
1268.8
 21
66.75878784786626
 31
0.0
  0
LINE
  5
47F
330
1F
100
AcDbEntity
  8
調整材穴有475_492_502_
  6
CONTINUOUS
 62
    54
100
AcDbLine
 10
1274.799999999999
 20
61.44507934888334
 30
0.0
 11
1278.8
 21
65.44507934888448
 31
0.0
  0
LINE
  5
480
330
1F
100
AcDbEntity
  8
調整材穴有475_492_502_
  6
CONTINUOUS
 62
    54
100
AcDbLine
 10
1272.8
 20
61.62741699796761
 30
0.0
 11
1268.799999999997
 21
65.6274169979708
 31
0.0
  0
LINE
  5
481
330
1F
100
AcDbEntity
  8
調整材穴有475_492_502_
  6
CONTINUOUS
 62
    54
100
AcDbLine
 10
1272.8
 20
60.49604614806934
 30
0.0
 11
1268.799999999999
 21
64.49604614807045
 31
0.0
  0
LINE
  5
482
330
1F
100
AcDbEntity
  8
調整材穴有475_492_502_
  6
CONTINUOUS
 62
    54
100
AcDbLine
 10
1274.799999999999
 20
59.18233764908656
 30
0.0
 11
1278.799999999996
 21
63.18233764908344
 31
0.0
  0
LINE
  5
483
330
1F
100
AcDbEntity
  8
調整材穴有475_492_502_
  6
CONTINUOUS
 62
    54
100
AcDbLine
 10
1272.8
 20
59.36467529817087
 30
0.0
 11
1268.800000000002
 21
63.36467529816987
 31
0.0
  0
LINE
  5
484
330
1F
100
AcDbEntity
  8
調整材穴有475_492_502_
  6
CONTINUOUS
 62
    54
100
AcDbLine
 10
1274.799999999999
 20
58.05096679918817
 30
0.0
 11
1278.799999999999
 21
62.0509667991882
 31
0.0
  0
LINE
  5
485
330
1F
100
AcDbEntity
  8
調整材穴有475_492_502_
  6
CONTINUOUS
 62
    54
100
AcDbLine
 10
1274.799999999999
 20
56.91959594928967
 30
0.0
 11
1278.800000000002
 21
60.91959594929274
 31
0.0
  0
LINE
  5
486
330
1F
100
AcDbEntity
  8
調整材穴有475_492_502_
  6
CONTINUOUS
 62
    54
100
AcDbLine
 10
1272.8
 20
57.10193359837386
 30
0.0
 11
1268.8
 21
61.10193359837395
 31
0.0
  0
LINE
  5
487
330
1F
100
AcDbEntity
  8
調整材穴有475_492_502_
  6
CONTINUOUS
 62
    54
100
AcDbLine
 10
1274.799999999999
 20
55.78822509939137
 30
0.0
 11
1278.8
 21
59.78822509939228
 31
0.0
  0
LINE
  5
488
330
1F
100
AcDbEntity
  8
調整材穴有475_492_502_
  6
CONTINUOUS
 62
    54
100
AcDbLine
 10
1272.8
 20
55.97056274847584
 30
0.0
 11
1268.799999999997
 21
59.97056274847871
 31
0.0
  0
LINE
  5
489
330
1F
100
AcDbEntity
  8
調整材穴有475_492_502_
  6
CONTINUOUS
 62
    54
100
AcDbLine
 10
1274.799999999999
 20
54.65685424949287
 30
0.0
 11
1278.800000000003
 21
58.65685424949693
 31
0.0
  0
LINE
  5
48A
330
1F
100
AcDbEntity
  8
調整材穴有475_492_502_
  6
CONTINUOUS
 62
    54
100
AcDbLine
 10
1272.8
 20
53.70782104867878
 30
0.0
 11
1268.800000000002
 21
57.70782104867767
 31
0.0
  0
LINE
  5
48B
330
1F
100
AcDbEntity
  8
調整材穴有475_492_502_
  6
CONTINUOUS
 62
    54
100
AcDbLine
 10
1274.799999999999
 20
53.52548339959465
 30
0.0
 11
1278.799999999996
 21
57.52548339959135
 31
0.0
  0
LINE
  5
48C
330
1F
100
AcDbEntity
  8
調整材穴有475_492_502_
  6
CONTINUOUS
 62
    54
100
AcDbLine
 10
1272.8
 20
52.57645019878025
 30
0.0
 11
1268.799999999998
 21
56.57645019878221
 31
0.0
  0
LINE
  5
48D
330
1F
100
AcDbEntity
  8
調整材穴有475_492_502_
  6
CONTINUOUS
 62
    54
100
AcDbLine
 10
1272.8
 20
51.44507934888212
 30
0.0
 11
1268.799999999996
 21
55.44507934888698
 31
0.0
  0
LINE
  5
48E
330
1F
100
AcDbEntity
  8
調整材穴有475_492_502_
  6
CONTINUOUS
 62
    54
100
AcDbLine
 10
1274.799999999999
 20
51.26274169979779
 30
0.0
 11
1278.800000000002
 21
55.26274169980054
 31
0.0
  0
LINE
  5
48F
330
1F
100
AcDbEntity
  8
調整材穴有475_492_502_
  6
CONTINUOUS
 62
    54
100
AcDbLine
 10
1272.8
 20
50.31370849898344
 30
0.0
 11
1268.799999999997
 21
54.3137084989864
 31
0.0
  0
LINE
  5
490
330
1F
100
AcDbEntity
  8
調整材穴有475_492_502_
  6
CONTINUOUS
 62
    54
100
AcDbLine
 10
1274.799999999999
 20
50.13137084989931
 30
0.0
 11
1278.8
 21
54.13137084990019
 31
0.0
  0
LINE
  5
491
330
1F
100
AcDbEntity
  8
調整材穴有475_492_502_
  6
CONTINUOUS
 62
    54
100
AcDbLine
 10
1272.8
 20
49.18233764908514
 30
0.0
 11
1268.8
 21
53.18233764908594
 31
0.0
  0
LINE
  5
492
330
1F
100
AcDbEntity
  8
調整材穴有475_492_502_
  6
CONTINUOUS
 62
    54
100
AcDbLine
 10
1273.697270967985
 20
72.78742966575182
 30
0.0
 11
1277.148109576558
 21
76.23826827432511
 31
0.0
  0
LINE
  5
493
330
1F
100
AcDbEntity
  8
調整材穴有475_492_502_
  6
CONTINUOUS
 62
    54
100
AcDbLine
 10
1272.8
 20
71.80975464705342
 30
0.0
 11
1268.799999999999
 21
75.80975464705485
 31
0.0
  0
LINE
  5
494
330
1F
100
AcDbEntity
  8
調整材穴有475_492_502_
  6
CONTINUOUS
 62
    54
100
AcDbLine
 10
1274.799999999999
 20
70.49604614807079
 30
0.0
 11
1278.588224898243
 21
74.28427104631494
 31
0.0
  0
LINE
  5
495
330
1F
100
AcDbEntity
  8
調整材穴有475_492_502_
  6
CONTINUOUS
 62
    54
100
AcDbLine
 10
1272.8
 20
69.5470129472567
 30
0.0
 11
1268.799999999998
 21
73.54701294725903
 31
0.0
  0
LINE
  5
496
330
1F
100
AcDbEntity
  8
調整材穴有475_492_502_
  6
CONTINUOUS
 62
    54
100
AcDbLine
 10
1272.8
 20
67.2842712474597
 30
0.0
 11
1268.799999999997
 21
71.28427124746311
 31
0.0
  0
LINE
  5
497
330
1F
100
AcDbEntity
  8
調整材穴有475_492_502_
  6
CONTINUOUS
 62
    54
100
AcDbLine
 10
1274.799999999999
 20
65.97056274847695
 30
0.0
 11
1278.800000000003
 21
69.97056274848133
 31
0.0
  0
LINE
  5
498
330
1F
100
AcDbEntity
  8
調整材穴有475_492_502_
  6
CONTINUOUS
 62
    54
100
AcDbLine
 10
1274.799999999999
 20
64.83919189857856
 30
0.0
 11
1278.800000000001
 21
68.83919189858086
 31
0.0
  0
LINE
  5
499
330
1F
100
AcDbEntity
  8
調整材穴有475_492_502_
  6
CONTINUOUS
 62
    54
100
AcDbLine
 10
1274.799999999999
 20
63.70782104868017
 30
0.0
 11
1278.799999999999
 21
67.7078210486804
 31
0.0
  0
LINE
  5
49A
330
1F
100
AcDbEntity
  8
調整材穴有475_492_502_
  6
CONTINUOUS
 62
    54
100
AcDbLine
 10
1274.799999999999
 20
62.57645019878187
 30
0.0
 11
1278.800000000002
 21
66.57645019878505
 31
0.0
  0
LINE
  5
49B
330
1F
100
AcDbEntity
  8
調整材穴有475_492_502_
  6
CONTINUOUS
 62
    54
100
AcDbLine
 10
1274.799999999999
 20
60.31370849898506
 30
0.0
 11
1278.800000000003
 21
64.31370849898924
 31
0.0
  0
LINE
  5
49C
330
1F
100
AcDbEntity
  8
調整材穴有475_492_502_
  6
CONTINUOUS
 62
    54
100
AcDbLine
 10
1272.8
 20
58.23330444827259
 30
0.0
 11
1268.799999999998
 21
62.23330444827452
 31
0.0
  0
LINE
  5
49D
330
1F
100
AcDbEntity
  8
調整材穴有475_492_502_
  6
CONTINUOUS
 62
    54
100
AcDbLine
 10
1272.8
 20
54.83919189857708
 30
0.0
 11
1268.799999999994
 21
58.83919189858325
 31
0.0
  0
LINE
  5
49E
330
1F
100
AcDbEntity
  8
調整材穴有475_492_502_
  6
CONTINUOUS
 62
    54
100
AcDbLine
 10
1274.799999999999
 20
52.394112549696
 30
0.0
 11
1278.799999999999
 21
56.39411254969589
 31
0.0
  0
LINE
  5
49F
330
1F
100
AcDbEntity
  8
調整材穴有475_492_502_
  6
CONTINUOUS
 62
    54
100
AcDbLine
 10
1274.799999999999
 20
49.00000000000081
 30
0.0
 11
1278.800000000003
 21
53.00000000000473
 31
0.0
  0
LINE
  5
4A0
330
1F
100
AcDbEntity
  8
調整材穴有475_492_502_
  6
CONTINUOUS
 62
    54
100
AcDbLine
 10
1272.8
 20
48.05096679918675
 30
0.0
 11
1268.799999999997
 21
52.05096679919059
 31
0.0
  0
LINE
  5
4A1
330
1F
100
AcDbEntity
  8
調整材穴有475_492_502_
  6
CONTINUOUS
 62
    54
100
AcDbLine
 10
1280.843885932674
 20
73.59089887993385
 30
0.0
 11
1284.209101120063
 21
76.95611406732208
 31
0.0
  0
LINE
  5
4A2
330
1F
100
AcDbEntity
  8
調整材穴有475_492_502_
  6
CONTINUOUS
 62
    54
100
AcDbLine
 10
1280.799999999994
 20
72.4156420973555
 30
0.0
 11
1285.384357902636
 21
76.99999999999677
 31
0.0
  0
LINE
  5
4A3
330
1F
100
AcDbEntity
  8
調整材穴有475_492_502_
  6
CONTINUOUS
 62
    54
100
AcDbLine
 10
1280.799999999997
 20
71.28427124746027
 30
0.0
 11
1286.515728752531
 21
76.99999999999382
 31
0.0
  0
LINE
  5
4A4
330
1F
100
AcDbEntity
  8
調整材穴有475_492_502_
  6
CONTINUOUS
 62
    54
100
AcDbLine
 10
1280.799999999995
 20
70.15290039755969
 30
0.0
 11
1287.571911947642
 21
76.92481234520638
 31
0.0
  0
LINE
  5
4A5
330
1F
100
AcDbEntity
  8
調整材穴有475_492_502_
  6
CONTINUOUS
 62
    54
100
AcDbLine
 10
1280.800000000004
 20
69.02152954766957
 30
0.0
 11
1288.430892768696
 21
76.65242231636155
 31
0.0
  0
LINE
  5
4A6
330
1F
100
AcDbEntity
  8
調整材穴有475_492_502_
  6
CONTINUOUS
 62
    54
100
AcDbLine
 10
1280.800000000002
 20
67.890158697769
 30
0.0
 11
1284.799999999999
 21
71.89015869776613
 31
0.0
  0
LINE
  5
4A7
330
1F
100
AcDbEntity
  8
調整材穴有475_492_502_
  6
CONTINUOUS
 62
    54
100
AcDbLine
 10
1280.799999999999
 20
66.75878784786853
 30
0.0
 11
1284.799999999999
 21
70.7587878478678
 31
0.0
  0
LINE
  5
4A8
330
1F
100
AcDbEntity
  8
調整材穴有475_492_502_
  6
CONTINUOUS
 62
    54
100
AcDbLine
 10
1280.799999999997
 20
65.62741699796796
 30
0.0
 11
1284.799999999999
 21
69.62741699796938
 31
0.0
  0
LINE
  5
4A9
330
1F
100
AcDbEntity
  8
調整材穴有475_492_502_
  6
CONTINUOUS
 62
    54
100
AcDbLine
 10
1280.8
 20
64.49604614807261
 30
0.0
 11
1284.799999999999
 21
68.49604614807119
 31
0.0
  0
LINE
  5
4AA
330
1F
100
AcDbEntity
  8
調整材穴有475_492_502_
  6
CONTINUOUS
 62
    54
100
AcDbLine
 10
1280.799999999998
 20
63.36467529817203
 30
0.0
 11
1284.799999999999
 21
67.3646752981726
 31
0.0
  0
LINE
  5
4AB
330
1F
100
AcDbEntity
  8
調整材穴有475_492_502_
  6
CONTINUOUS
 62
    54
100
AcDbLine
 10
1280.800000000001
 20
62.2333044482768
 30
0.0
 11
1284.799999999999
 21
66.2333044482743
 31
0.0
  0
LINE
  5
4AC
330
1F
100
AcDbEntity
  8
調整材穴有475_492_502_
  6
CONTINUOUS
 62
    54
100
AcDbLine
 10
1280.800000000004
 20
61.10193359838134
 30
0.0
 11
1284.799999999999
 21
65.10193359837577
 31
0.0
  0
LINE
  5
4AD
330
1F
100
AcDbEntity
  8
調整材穴有475_492_502_
  6
CONTINUOUS
 62
    54
100
AcDbLine
 10
1280.799999999997
 20
59.97056274847576
 30
0.0
 11
1284.799999999999
 21
63.97056274847755
 31
0.0
  0
LINE
  5
4AE
330
1F
100
AcDbEntity
  8
調整材穴有475_492_502_
  6
CONTINUOUS
 62
    54
100
AcDbLine
 10
1280.8
 20
58.83919189858041
 30
0.0
 11
1284.799999999999
 21
62.83919189857899
 31
0.0
  0
LINE
  5
4AF
330
1F
100
AcDbEntity
  8
調整材穴有475_492_502_
  6
CONTINUOUS
 62
    54
100
AcDbLine
 10
1280.799999999998
 20
57.70782104867995
 30
0.0
 11
1284.799999999999
 21
61.70782104868066
 31
0.0
  0
LINE
  5
4B0
330
1F
100
AcDbEntity
  8
調整材穴有475_492_502_
  6
CONTINUOUS
 62
    54
100
AcDbLine
 10
1280.800000000001
 20
56.57645019878449
 30
0.0
 11
1284.799999999999
 21
60.57645019878221
 31
0.0
  0
LINE
  5
4B1
330
1F
100
AcDbEntity
  8
調整材穴有475_492_502_
  6
CONTINUOUS
 62
    54
100
AcDbLine
 10
1280.800000000004
 20
55.44507934888914
 30
0.0
 11
1284.799999999999
 21
59.44507934888379
 31
0.0
  0
LINE
  5
4B2
330
1F
100
AcDbEntity
  8
調整材穴有475_492_502_
  6
CONTINUOUS
 62
    54
100
AcDbLine
 10
1280.799999999997
 20
54.31370849898356
 30
0.0
 11
1284.799999999999
 21
58.31370849898529
 31
0.0
  0
LINE
  5
4B3
330
1F
100
AcDbEntity
  8
調整材穴有475_492_502_
  6
CONTINUOUS
 62
    54
100
AcDbLine
 10
1280.8
 20
53.18233764908821
 30
0.0
 11
1284.799999999999
 21
57.18233764908688
 31
0.0
  0
LINE
  5
4B4
330
1F
100
AcDbEntity
  8
調整材穴有475_492_502_
  6
CONTINUOUS
 62
    54
100
AcDbLine
 10
1280.799999999998
 20
52.05096679918775
 30
0.0
 11
1284.799999999999
 21
56.05096679918863
 31
0.0
  0
LINE
  5
4B5
330
1F
100
AcDbEntity
  8
調整材穴有475_492_502_
  6
CONTINUOUS
 62
    54
100
AcDbLine
 10
1280.800000000001
 20
50.91959594929229
 30
0.0
 11
1284.799999999999
 21
54.9195959492901
 31
0.0
  0
LINE
  5
4B6
330
1F
100
AcDbEntity
  8
調整材穴有475_492_502_
  6
CONTINUOUS
 62
    54
100
AcDbLine
 10
1280.799999999994
 20
49.78822509938671
 30
0.0
 11
1284.799999999999
 21
53.78822509939177
 31
0.0
  0
LINE
  5
4B7
330
1F
100
AcDbEntity
  8
調整材穴有475_492_502_
  6
CONTINUOUS
 62
    54
100
AcDbLine
 10
1280.799999999997
 20
48.65685424949136
 30
0.0
 11
1285.14314575051
 21
53.00000000000456
 31
0.0
  0
LINE
  5
4B8
330
1F
100
AcDbEntity
  8
調整材穴有475_492_502_
  6
CONTINUOUS
 62
    54
100
AcDbLine
 10
1280.8
 20
47.52548339959601
 30
0.0
 11
1286.274516600408
 21
53.00000000000456
 31
0.0
  0
LINE
  5
4B9
330
1F
100
AcDbEntity
  8
調整材穴有475_492_502_
  6
CONTINUOUS
 62
    54
100
AcDbLine
 10
1280.799999999998
 20
46.39411254969544
 30
0.0
 11
1290.799999999999
 21
56.39411254969714
 31
0.0
  0
LINE
  5
4BA
330
1F
100
AcDbEntity
  8
調整材穴有475_492_502_
  6
CONTINUOUS
 62
    54
100
AcDbLine
 10
1280.800000000001
 20
45.26274169980009
 30
0.0
 11
1290.800000000002
 21
55.26274169980179
 31
0.0
  0
LINE
  5
4BB
330
1F
100
AcDbEntity
  8
調整材穴有475_492_502_
  6
CONTINUOUS
 62
    54
100
AcDbLine
 10
1280.799999999994
 20
44.1313708498944
 30
0.0
 11
1284.799999999999
 21
48.13137084990031
 31
0.0
  0
LINE
  5
4BC
330
1F
100
AcDbEntity
  8
調整材穴有475_492_502_
  6
CONTINUOUS
 62
    54
100
AcDbLine
 10
1285.668629150102
 20
49.00000000000314
 30
0.0
 11
1290.8
 21
54.13137084990122
 31
0.0
  0
LINE
  5
4BD
330
1F
100
AcDbEntity
  8
調整材穴有475_492_502_
  6
CONTINUOUS
 62
    54
100
AcDbLine
 10
1280.799999999992
 20
42.99999999999405
 30
0.0
 11
1284.800000000002
 21
47.00000000000496
 31
0.0
  0
LINE
  5
4BE
330
1F
100
AcDbEntity
  8
調整材穴有475_492_502_
  6
CONTINUOUS
 62
    54
100
AcDbLine
 10
1286.799999999998
 20
49.00000000000018
 30
0.0
 11
1290.800000000004
 21
53.00000000000598
 31
0.0
  0
LINE
  5
4BF
330
1F
100
AcDbEntity
  8
調整材穴有475_492_502_
  6
CONTINUOUS
 62
    54
100
AcDbLine
 10
1281.931370849892
 20
42.99999999999598
 30
0.0
 11
1284.800000000006
 21
45.8686291501095
 31
0.0
  0
LINE
  5
4C0
330
1F
100
AcDbEntity
  8
調整材穴有475_492_502_
  6
CONTINUOUS
 62
    54
100
AcDbLine
 10
1286.800000000001
 20
47.86862915010472
 30
0.0
 11
1290.799999999996
 21
51.86862915010029
 31
0.0
  0
LINE
  5
4C1
330
1F
100
AcDbEntity
  8
調整材穴有475_492_502_
  6
CONTINUOUS
 62
    54
100
AcDbLine
 10
1283.062741699792
 20
42.99999999999814
 30
0.0
 11
1284.799999999998
 21
44.73725830020392
 31
0.0
  0
LINE
  5
4C2
330
1F
100
AcDbEntity
  8
調整材穴有475_492_502_
  6
CONTINUOUS
 62
    54
100
AcDbLine
 10
1286.800000000004
 20
46.73725830020938
 30
0.0
 11
1290.799999999999
 21
50.73725830020494
 31
0.0
  0
LINE
  5
4C3
330
1F
100
AcDbEntity
  8
調整材穴有475_492_502_
  6
CONTINUOUS
 62
    54
100
AcDbLine
 10
1284.194112549688
 20
42.99999999999507
 30
0.0
 11
1284.800000000002
 21
43.60588745030857
 31
0.0
  0
LINE
  5
4C4
330
1F
100
AcDbEntity
  8
調整材穴有475_492_502_
  6
CONTINUOUS
 62
    54
100
AcDbLine
 10
1286.800000000002
 20
45.60588745030891
 30
0.0
 11
1290.800000000002
 21
49.6058874503096
 31
0.0
  0
LINE
  5
4C5
330
1F
100
AcDbEntity
  8
調整材穴有475_492_502_
  6
CONTINUOUS
 62
    54
100
AcDbLine
 10
1286.800000000005
 20
44.47451660041357
 30
0.0
 11
1290.8
 21
48.47451660040913
 31
0.0
  0
LINE
  5
4C6
330
1F
100
AcDbEntity
  8
調整材穴有475_492_502_
  6
CONTINUOUS
 62
    54
100
AcDbLine
 10
1286.800000000008
 20
43.3431457505181
 30
0.0
 11
1290.800000000003
 21
47.34314575051367
 31
0.0
  0
LINE
  5
4C7
330
1F
100
AcDbEntity
  8
調整材穴有475_492_502_
  6
CONTINUOUS
 62
    54
100
AcDbLine
 10
1287.588225099384
 20
42.99999999999621
 30
0.0
 11
1290.799999999996
 21
46.21177490060809
 31
0.0
  0
LINE
  5
4C8
330
1F
100
AcDbEntity
  8
調整材穴有475_492_502_
  6
CONTINUOUS
 62
    54
100
AcDbLine
 10
1288.71959594929
 20
43.00000000000337
 30
0.0
 11
1290.799999999999
 21
45.08040405071263
 31
0.0
  0
LINE
  5
4C9
330
1F
100
AcDbEntity
  8
調整材穴有475_492_502_
  6
CONTINUOUS
 62
    54
100
AcDbLine
 10
1289.850966799185
 20
43.00000000000041
 30
0.0
 11
1290.800000000002
 21
43.9490332008174
 31
0.0
  0
LINE
  5
4CA
330
1F
100
AcDbEntity
  8
調整材穴有475_492_502_
  6
CONTINUOUS
 62
    54
100
AcDbLine
 10
1281.931370849899
 20
42.99999999999859
 30
0.0
 11
1280.799999999997
 21
44.13137084990122
 31
0.0
  0
LINE
  5
4CB
330
1F
100
AcDbEntity
  8
調整材穴有475_492_502_
  6
CONTINUOUS
 62
    54
100
AcDbLine
 10
1283.062741699795
 20
43.00000000000178
 30
0.0
 11
1280.799999999994
 21
45.26274169980179
 31
0.0
  0
LINE
  5
4CC
330
1F
100
AcDbEntity
  8
調整材穴有475_492_502_
  6
CONTINUOUS
 62
    54
100
AcDbLine
 10
1284.194112549695
 20
42.99999999999962
 30
0.0
 11
1280.799999999992
 21
46.39411254970226
 31
0.0
  0
LINE
  5
4CD
330
1F
100
AcDbEntity
  8
調整材穴有475_492_502_
  6
CONTINUOUS
 62
    54
100
AcDbLine
 10
1284.800000000001
 20
43.52548339959181
 30
0.0
 11
1280.799999999996
 21
47.52548339959772
 31
0.0
  0
LINE
  5
4CE
330
1F
100
AcDbEntity
  8
調整材穴有475_492_502_
  6
CONTINUOUS
 62
    54
100
AcDbLine
 10
1284.799999999999
 20
44.65685424949227
 30
0.0
 11
1280.799999999993
 21
48.65685424949807
 31
0.0
  0
LINE
  5
4CF
330
1F
100
AcDbEntity
  8
調整材穴有475_492_502_
  6
CONTINUOUS
 62
    54
100
AcDbLine
 10
1287.588225099386
 20
43.00000000000371
 30
0.0
 11
1286.799999999997
 21
43.78822509939251
 31
0.0
  0
LINE
  5
4D0
330
1F
100
AcDbEntity
  8
調整材穴有475_492_502_
  6
CONTINUOUS
 62
    54
100
AcDbLine
 10
1284.800000000002
 20
45.78822509938773
 30
0.0
 11
1280.799999999997
 21
49.78822509939353
 31
0.0
  0
LINE
  5
4D1
330
1F
100
AcDbEntity
  8
調整材穴有475_492_502_
  6
CONTINUOUS
 62
    54
100
AcDbLine
 10
1288.719595949281
 20
43.00000000000666
 30
0.0
 11
1286.799999999995
 21
44.91959594929297
 31
0.0
  0
LINE
  5
4D2
330
1F
100
AcDbEntity
  8
調整材穴有475_492_502_
  6
CONTINUOUS
 62
    54
100
AcDbLine
 10
1284.799999999995
 20
46.91959594929331
 30
0.0
 11
1280.799999999994
 21
50.91959594929399
 31
0.0
  0
LINE
  5
4D3
330
1F
100
AcDbEntity
  8
調整材穴有475_492_502_
  6
CONTINUOUS
 62
    54
100
AcDbLine
 10
1289.850966799182
 20
43.00000000000462
 30
0.0
 11
1286.799999999993
 21
46.05096679919355
 31
0.0
  0
LINE
  5
4D4
330
1F
100
AcDbEntity
  8
調整材穴有475_492_502_
  6
CONTINUOUS
 62
    54
100
AcDbLine
 10
1284.799999999998
 20
48.05096679918877
 30
0.0
 11
1280.799999999992
 21
52.05096679919457
 31
0.0
  0
LINE
  5
4D5
330
1F
100
AcDbEntity
  8
調整材穴有475_492_502_
  6
CONTINUOUS
 62
    54
100
AcDbLine
 10
1290.799999999992
 20
43.18233764909333
 30
0.0
 11
1286.799999999996
 21
47.18233764908878
 31
0.0
  0
LINE
  5
4D6
330
1F
100
AcDbEntity
  8
調整材穴有475_492_502_
  6
CONTINUOUS
 62
    54
100
AcDbLine
 10
1284.982337649087
 20
48.99999999999837
 30
0.0
 11
1280.799999999995
 21
53.1823376490898
 31
0.0
  0
LINE
  5
4D7
330
1F
100
AcDbEntity
  8
調整材穴有475_492_502_
  6
CONTINUOUS
 62
    54
100
AcDbLine
 10
1290.799999999995
 20
44.31370849898867
 30
0.0
 11
1286.799999999999
 21
48.31370849898424
 31
0.0
  0
LINE
  5
4D8
330
1F
100
AcDbEntity
  8
調整材穴有475_492_502_
  6
CONTINUOUS
 62
    54
100
AcDbLine
 10
1286.113708498987
 20
48.99999999999632
 30
0.0
 11
1280.799999999998
 21
54.31370849898526
 31
0.0
  0
LINE
  5
4D9
330
1F
100
AcDbEntity
  8
調整材穴有475_492_502_
  6
CONTINUOUS
 62
    54
100
AcDbLine
 10
1290.799999999998
 20
45.44507934888402
 30
0.0
 11
1280.799999999996
 21
55.44507934888573
 31
0.0
  0
LINE
  5
4DA
330
1F
100
AcDbEntity
  8
調整材穴有475_492_502_
  6
CONTINUOUS
 62
    54
100
AcDbLine
 10
1290.799999999996
 20
46.5764501987846
 30
0.0
 11
1280.799999999999
 21
56.57645019878107
 31
0.0
  0
LINE
  5
4DB
330
1F
100
AcDbEntity
  8
調整材穴有475_492_502_
  6
CONTINUOUS
 62
    54
100
AcDbLine
 10
1290.799999999994
 20
47.70782104868506
 30
0.0
 11
1285.507821048674
 21
53.00000000000456
 31
0.0
  0
LINE
  5
4DC
330
1F
100
AcDbEntity
  8
調整材穴有475_492_502_
  6
CONTINUOUS
 62
    54
100
AcDbLine
 10
1290.799999999992
 20
48.83919189858564
 30
0.0
 11
1286.639191898573
 21
53.00000000000456
 31
0.0
  0
LINE
  5
4DD
330
1F
100
AcDbEntity
  8
調整材穴有475_492_502_
  6
CONTINUOUS
 62
    54
100
AcDbLine
 10
1290.799999999995
 20
49.97056274848087
 30
0.0
 11
1286.799999999999
 21
53.97056274847618
 31
0.0
  0
LINE
  5
4DE
330
1F
100
AcDbEntity
  8
調整材穴有475_492_502_
  6
CONTINUOUS
 62
    54
100
AcDbLine
 10
1290.799999999998
 20
51.10193359837633
 30
0.0
 11
1286.799999999999
 21
55.10193359837469
 31
0.0
  0
LINE
  5
4DF
330
1F
100
AcDbEntity
  8
調整材穴有475_492_502_
  6
CONTINUOUS
 62
    54
100
AcDbLine
 10
1290.800000000001
 20
52.23330444827157
 30
0.0
 11
1286.799999999999
 21
56.23330444827299
 31
0.0
  0
LINE
  5
4E0
330
1F
100
AcDbEntity
  8
調整材穴有475_492_502_
  6
CONTINUOUS
 62
    54
100
AcDbLine
 10
1290.799999999999
 20
53.36467529817214
 30
0.0
 11
1286.799999999999
 21
57.36467529817141
 31
0.0
  0
LINE
  5
4E1
330
1F
100
AcDbEntity
  8
調整材穴有475_492_502_
  6
CONTINUOUS
 62
    54
100
AcDbLine
 10
1290.799999999997
 20
54.49604614807261
 30
0.0
 11
1286.799999999999
 21
58.49604614806971
 31
0.0
  0
LINE
  5
4E2
330
1F
100
AcDbEntity
  8
調整材穴有475_492_502_
  6
CONTINUOUS
 62
    54
100
AcDbLine
 10
1290.799999999995
 20
55.62741699797319
 30
0.0
 11
1286.799999999999
 21
59.62741699796841
 31
0.0
  0
LINE
  5
4E3
330
1F
100
AcDbEntity
  8
調整材穴有475_492_502_
  6
CONTINUOUS
 62
    54
100
AcDbLine
 10
1290.799999999998
 20
56.75878784786853
 30
0.0
 11
1286.799999999999
 21
60.75878784786671
 31
0.0
  0
LINE
  5
4E4
330
1F
100
AcDbEntity
  8
調整材穴有475_492_502_
  6
CONTINUOUS
 62
    54
100
AcDbLine
 10
1290.799999999996
 20
57.890158697769
 30
0.0
 11
1286.799999999999
 21
61.89015869776507
 31
0.0
  0
LINE
  5
4E5
330
1F
100
AcDbEntity
  8
調整材穴有475_492_502_
  6
CONTINUOUS
 62
    54
100
AcDbLine
 10
1290.799999999999
 20
59.02152954766434
 30
0.0
 11
1286.799999999999
 21
63.02152954766349
 31
0.0
  0
LINE
  5
4E6
330
1F
100
AcDbEntity
  8
調整材穴有475_492_502_
  6
CONTINUOUS
 62
    54
100
AcDbLine
 10
1290.799999999997
 20
60.15290039756481
 30
0.0
 11
1286.799999999999
 21
64.1529003975618
 31
0.0
  0
LINE
  5
4E7
330
1F
100
AcDbEntity
  8
調整材穴有475_492_502_
  6
CONTINUOUS
 62
    54
100
AcDbLine
 10
1290.799999999994
 20
61.28427124746538
 30
0.0
 11
1286.799999999999
 21
65.28427124746032
 31
0.0
  0
LINE
  5
4E8
330
1F
100
AcDbEntity
  8
調整材穴有475_492_502_
  6
CONTINUOUS
 62
    54
100
AcDbLine
 10
1290.799999999997
 20
62.41564209736062
 30
0.0
 11
1286.799999999999
 21
66.41564209735846
 31
0.0
  0
LINE
  5
4E9
330
1F
100
AcDbEntity
  8
調整材穴有475_492_502_
  6
CONTINUOUS
 62
    54
100
AcDbLine
 10
1290.799999999995
 20
63.54701294726119
 30
0.0
 11
1286.799999999999
 21
67.54701294725702
 31
0.0
  0
LINE
  5
4EA
330
1F
100
AcDbEntity
  8
調整材穴有475_492_502_
  6
CONTINUOUS
 62
    54
100
AcDbLine
 10
1290.799999999993
 20
64.67838379716166
 30
0.0
 11
1286.799999999999
 21
68.67838379715552
 31
0.0
  0
LINE
  5
4EB
330
1F
100
AcDbEntity
  8
調整材穴有475_492_502_
  6
CONTINUOUS
 62
    54
100
AcDbLine
 10
1290.799999999997
 20
65.80975464705712
 30
0.0
 11
1286.799999999999
 21
69.80975464705408
 31
0.0
  0
LINE
  5
4EC
330
1F
100
AcDbEntity
  8
調整材穴有475_492_502_
  6
CONTINUOUS
 62
    54
100
AcDbLine
 10
1290.799999999999
 20
66.94112549695235
 30
0.0
 11
1286.799999999999
 21
70.94112549695221
 31
0.0
  0
LINE
  5
4ED
330
1F
100
AcDbEntity
  8
調整材穴有475_492_502_
  6
CONTINUOUS
 62
    54
100
AcDbLine
 10
1290.799999999997
 20
68.07249634685293
 30
0.0
 11
1286.797158030662
 21
72.07533831618862
 31
0.0
  0
LINE
  5
4EE
330
1F
100
AcDbEntity
  8
調整材穴有475_492_502_
  6
CONTINUOUS
 62
    54
100
AcDbLine
 10
1290.799999999995
 20
69.2038671967534
 30
0.0
 11
1283.296987851385
 21
76.70687934536382
 31
0.0
  0
LINE
  5
4EF
330
1F
100
AcDbEntity
  8
調整材穴有475_492_502_
  6
CONTINUOUS
 62
    54
100
AcDbLine
 10
1290.799999999993
 20
70.33523804665397
 30
0.0
 11
1284.183095704763
 21
76.95214234188366
 31
0.0
  0
LINE
  5
4F0
330
1F
100
AcDbEntity
  8
調整材穴有475_492_502_
  6
CONTINUOUS
 62
    54
100
AcDbLine
 10
1290.799999999996
 20
71.4666088965492
 30
0.0
 11
1285.266608896543
 21
77.00000000000234
 31
0.0
  0
LINE
  5
4F1
330
1F
100
AcDbEntity
  8
調整材穴有475_492_502_
  6
CONTINUOUS
 62
    54
100
AcDbLine
 10
1290.799999999999
 20
72.59797974644466
 30
0.0
 11
1286.397979746444
 21
77.0000000000003
 31
0.0
  0
LINE
  5
4F2
330
1F
100
AcDbEntity
  8
調整材穴有475_492_502_
  6
CONTINUOUS
 62
    54
100
AcDbLine
 10
1290.716548596553
 20
73.81280199978956
 30
0.0
 11
1287.612801999794
 21
76.9165485965486
 31
0.0
  0
LINE
  5
4F3
330
1F
100
AcDbEntity
  8
調整材穴有475_492_502_
  6
CONTINUOUS
 62
    54
100
AcDbLine
 10
1285.891168824541
 20
72.98132752230886
 30
0.0
 11
1289.148109576559
 21
76.23826827432624
 31
0.0
  0
LINE
  5
4F4
330
1F
100
AcDbEntity
  8
調整材穴有475_492_502_
  6
CONTINUOUS
 62
    54
100
AcDbLine
 10
1285.064068977645
 20
72.6770565193071
 30
0.0
 11
1281.942288814039
 21
75.79883668291309
 31
0.0
  0
LINE
  5
4F5
330
1F
100
AcDbEntity
  8
調整材穴有475_492_502_
  6
CONTINUOUS
 62
    54
100
AcDbLine
 10
1284.799999999999
 20
71.80975464705476
 30
0.0
 11
1281.439768103275
 21
75.16998654377842
 31
0.0
  0
LINE
  5
4F6
330
1F
100
AcDbEntity
  8
調整材穴有475_492_502_
  6
CONTINUOUS
 62
    54
100
AcDbLine
 10
1286.617351491849
 20
72.57613933971818
 30
0.0
 11
1289.746460667939
 21
75.70524851580758
 31
0.0
  0
LINE
  5
4F7
330
1F
100
AcDbEntity
  8
調整材穴有475_492_502_
  6
CONTINUOUS
 62
    54
100
AcDbLine
 10
1285.891168824541
 20
72.98132752230889
 30
0.0
 11
1282.55912053925
 21
76.31337580760005
 31
0.0
  0
LINE
  5
4F8
330
1F
100
AcDbEntity
  8
調整材穴有475_492_502_
  6
CONTINUOUS
 62
    54
100
AcDbLine
 10
1286.799999999999
 20
71.62741699797009
 30
0.0
 11
1290.230194556088
 21
75.05761155405862
 31
0.0
  0
LINE
  5
4F9
330
1F
100
AcDbEntity
  8
調整材穴有475_492_502_
  6
CONTINUOUS
 62
    54
100
AcDbLine
 10
1284.799999999999
 20
70.67838379715614
 30
0.0
 11
1281.059943063805
 21
74.41844073335024
 31
0.0
  0
LINE
  5
4FA
330
1F
100
AcDbEntity
  8
調整材穴有475_492_502_
  6
CONTINUOUS
 62
    54
100
AcDbLine
 10
1284.799999999999
 20
69.54701294725773
 30
0.0
 11
1280.833144872593
 21
73.51386807466345
 31
0.0
  0
LINE
  5
4FB
330
1F
100
AcDbEntity
  8
調整材穴有475_492_502_
  6
CONTINUOUS
 62
    54
100
AcDbLine
 10
1284.799999999999
 20
68.4156420973592
 30
0.0
 11
1280.799999999996
 21
72.41564209736232
 31
0.0
  0
LINE
  5
4FC
330
1F
100
AcDbEntity
  8
調整材穴有475_492_502_
  6
CONTINUOUS
 62
    54
100
AcDbLine
 10
1286.799999999999
 20
70.49604614807187
 30
0.0
 11
1290.588224898244
 21
74.28427104631619
 31
0.0
  0
LINE
  5
4FD
330
1F
100
AcDbEntity
  8
調整材穴有475_492_502_
  6
CONTINUOUS
 62
    54
100
AcDbLine
 10
1286.799999999999
 20
69.36467529817322
 30
0.0
 11
1290.78471186075
 21
73.34938715892345
 31
0.0
  0
LINE
  5
4FE
330
1F
100
AcDbEntity
  8
調整材穴有475_492_502_
  6
CONTINUOUS
 62
    54
100
AcDbLine
 10
1286.799999999999
 20
68.23330444827504
 30
0.0
 11
1290.800000000003
 21
72.2333044482785
 31
0.0
  0
LINE
  5
4FF
330
1F
100
AcDbEntity
  8
調整材穴有475_492_502_
  6
CONTINUOUS
 62
    54
100
AcDbLine
 10
1286.799999999999
 20
67.1019335983765
 30
0.0
 11
1290.800000000006
 21
71.10193359838304
 31
0.0
  0
LINE
  5
500
330
1F
100
AcDbEntity
  8
調整材穴有475_492_502_
  6
CONTINUOUS
 62
    54
100
AcDbLine
 10
1286.799999999999
 20
65.97056274847826
 30
0.0
 11
1290.800000000004
 21
69.97056274848258
 31
0.0
  0
LINE
  5
501
330
1F
100
AcDbEntity
  8
調整材穴有475_492_502_
  6
CONTINUOUS
 62
    54
100
AcDbLine
 10
1286.799999999999
 20
64.83919189857959
 30
0.0
 11
1290.800000000002
 21
68.839191898582
 31
0.0
  0
LINE
  5
502
330
1F
100
AcDbEntity
  8
調整材穴有475_492_502_
  6
CONTINUOUS
 62
    54
100
AcDbLine
 10
1286.799999999999
 20
63.70782104868137
 30
0.0
 11
1290.8
 21
67.70782104868165
 31
0.0
  0
LINE
  5
503
330
1F
100
AcDbEntity
  8
調整材穴有475_492_502_
  6
CONTINUOUS
 62
    54
100
AcDbLine
 10
1286.799999999999
 20
62.57645019878284
 30
0.0
 11
1290.800000000003
 21
66.57645019878619
 31
0.0
  0
LINE
  5
504
330
1F
100
AcDbEntity
  8
調整材穴有475_492_502_
  6
CONTINUOUS
 62
    54
100
AcDbLine
 10
1286.799999999999
 20
61.44507934888451
 30
0.0
 11
1290.800000000001
 21
65.44507934888573
 31
0.0
  0
LINE
  5
505
330
1F
100
AcDbEntity
  8
調整材穴有475_492_502_
  6
CONTINUOUS
 62
    54
100
AcDbLine
 10
1286.799999999999
 20
60.31370849898606
 30
0.0
 11
1290.800000000004
 21
64.31370849899038
 31
0.0
  0
LINE
  5
506
330
1F
100
AcDbEntity
  8
調整材穴有475_492_502_
  6
CONTINUOUS
 62
    54
100
AcDbLine
 10
1286.799999999999
 20
59.18233764908753
 30
0.0
 11
1290.800000000007
 21
63.18233764909503
 31
0.0
  0
LINE
  5
507
330
1F
100
AcDbEntity
  8
調整材穴有475_492_502_
  6
CONTINUOUS
 62
    54
100
AcDbLine
 10
1286.799999999999
 20
58.05096679918928
 30
0.0
 11
1290.8
 21
62.05096679918945
 31
0.0
  0
LINE
  5
508
330
1F
100
AcDbEntity
  8
調整材穴有475_492_502_
  6
CONTINUOUS
 62
    54
100
AcDbLine
 10
1286.799999999999
 20
56.91959594929075
 30
0.0
 11
1290.800000000003
 21
60.91959594929399
 31
0.0
  0
LINE
  5
509
330
1F
100
AcDbEntity
  8
調整材穴有475_492_502_
  6
CONTINUOUS
 62
    54
100
AcDbLine
 10
1286.799999999999
 20
55.78822509939239
 30
0.0
 11
1290.800000000001
 21
59.78822509939353
 31
0.0
  0
LINE
  5
50A
330
1F
100
AcDbEntity
  8
調整材穴有475_492_502_
  6
CONTINUOUS
 62
    54
100
AcDbLine
 10
1286.799999999999
 20
54.65685424949386
 30
0.0
 11
1290.800000000004
 21
58.65685424949818
 31
0.0
  0
LINE
  5
50B
330
1F
100
AcDbEntity
  8
調整材穴有475_492_502_
  6
CONTINUOUS
 62
    54
100
AcDbLine
 10
1286.799999999999
 20
53.52548339959556
 30
0.0
 11
1290.800000000007
 21
57.52548339960283
 31
0.0
  0
LINE
  5
50C
330
1F
100
AcDbEntity
  8
調整材穴有475_492_502_
  6
CONTINUOUS
 62
    54
100
AcDbLine
 10
1284.799999999999
 20
53.70782104868006
 30
0.0
 11
1280.799999999997
 21
57.70782104868154
 31
0.0
  0
LINE
  5
50D
330
1F
100
AcDbEntity
  8
調整材穴有475_492_502_
  6
CONTINUOUS
 62
    54
100
AcDbLine
 10
1284.799999999999
 20
54.83919189857851
 30
0.0
 11
1280.799999999995
 21
58.83919189858211
 31
0.0
  0
LINE
  5
50E
330
1F
100
AcDbEntity
  8
調整材穴有475_492_502_
  6
CONTINUOUS
 62
    54
100
AcDbLine
 10
1284.799999999999
 20
55.97056274847689
 30
0.0
 11
1280.799999999998
 21
59.97056274847746
 31
0.0
  0
LINE
  5
50F
330
1F
100
AcDbEntity
  8
調整材穴有475_492_502_
  6
CONTINUOUS
 62
    54
100
AcDbLine
 10
1284.799999999999
 20
57.10193359837534
 30
0.0
 11
1280.800000000001
 21
61.10193359837281
 31
0.0
  0
LINE
  5
510
330
1F
100
AcDbEntity
  8
調整材穴有475_492_502_
  6
CONTINUOUS
 62
    54
100
AcDbLine
 10
1284.799999999999
 20
58.23330444827367
 30
0.0
 11
1280.799999999999
 21
62.23330444827327
 31
0.0
  0
LINE
  5
511
330
1F
100
AcDbEntity
  8
調整材穴有475_492_502_
  6
CONTINUOUS
 62
    54
100
AcDbLine
 10
1284.799999999999
 20
59.36467529817206
 30
0.0
 11
1280.799999999997
 21
63.36467529817385
 31
0.0
  0
LINE
  5
512
330
1F
100
AcDbEntity
  8
調整材穴有475_492_502_
  6
CONTINUOUS
 62
    54
100
AcDbLine
 10
1284.799999999999
 20
60.49604614807039
 30
0.0
 11
1280.799999999995
 21
64.49604614807431
 31
0.0
  0
LINE
  5
513
330
1F
100
AcDbEntity
  8
調整材穴有475_492_502_
  6
CONTINUOUS
 62
    54
100
AcDbLine
 10
1284.799999999999
 20
61.62741699796912
 30
0.0
 11
1280.799999999998
 21
65.62741699796977
 31
0.0
  0
LINE
  5
514
330
1F
100
AcDbEntity
  8
調整材穴有475_492_502_
  6
CONTINUOUS
 62
    54
100
AcDbLine
 10
1284.799999999999
 20
62.75878784786737
 30
0.0
 11
1280.799999999996
 21
66.75878784787012
 31
0.0
  0
LINE
  5
515
330
1F
100
AcDbEntity
  8
調整材穴有475_492_502_
  6
CONTINUOUS
 62
    54
100
AcDbLine
 10
1284.799999999999
 20
63.89015869776573
 30
0.0
 11
1280.799999999994
 21
67.8901586977707
 31
0.0
  0
LINE
  5
516
330
1F
100
AcDbEntity
  8
調整材穴有475_492_502_
  6
CONTINUOUS
 62
    54
100
AcDbLine
 10
1284.799999999999
 20
65.0215295476642
 30
0.0
 11
1280.799999999997
 21
69.02152954766605
 31
0.0
  0
LINE
  5
517
330
1F
100
AcDbEntity
  8
調整材穴有475_492_502_
  6
CONTINUOUS
 62
    54
100
AcDbLine
 10
1284.799999999999
 20
66.15290039756245
 30
0.0
 11
1280.799999999995
 21
70.15290039756651
 31
0.0
  0
LINE
  5
518
330
1F
100
AcDbEntity
  8
調整材穴有475_492_502_
  6
CONTINUOUS
 62
    54
100
AcDbLine
 10
1284.799999999999
 20
67.284271247461
 30
0.0
 11
1280.799999999998
 21
71.28427124746186
 31
0.0
  0
LINE
  5
519
330
1F
100
AcDbEntity
  8
調整材穴有475_492_502_
  6
CONTINUOUS
 62
    54
100
AcDbLine
 10
1292.799999999999
 20
76.94112549695338
 30
0.0
 11
1292.85887450304
 21
76.99999999999461
 31
0.0
  0
LINE
  5
51A
330
1F
100
AcDbEntity
  8
調整材穴有475_492_502_
  6
CONTINUOUS
 62
    54
100
AcDbLine
 10
1292.799999999997
 20
75.80975464705303
 30
0.0
 11
1293.990245352945
 21
77.00000000000189
 31
0.0
  0
LINE
  5
51B
330
1F
100
AcDbEntity
  8
調整材穴有475_492_502_
  6
CONTINUOUS
 62
    54
100
AcDbLine
 10
1292.8
 20
74.67838379715757
 30
0.0
 11
1295.121616202841
 21
76.99999999999882
 31
0.0
  0
LINE
  5
51C
330
1F
100
AcDbEntity
  8
調整材穴有475_492_502_
  6
CONTINUOUS
 62
    54
100
AcDbLine
 10
1292.799999999997
 20
73.5470129472571
 30
0.0
 11
1296.252987052741
 21
77.00000000000087
 31
0.0
  0
LINE
  5
51D
330
1F
100
AcDbEntity
  8
調整材穴有475_492_502_
  6
CONTINUOUS
 62
    54
100
AcDbLine
 10
1292.799999999995
 20
72.41564209735652
 30
0.0
 11
1296.800000000001
 21
76.41564209736232
 31
0.0
  0
LINE
  5
51E
330
1F
100
AcDbEntity
  8
調整材穴有475_492_502_
  6
CONTINUOUS
 62
    54
100
AcDbLine
 10
1292.799999999998
 20
71.28427124746129
 30
0.0
 11
1296.799999999994
 21
75.28427124745674
 31
0.0
  0
LINE
  5
51F
330
1F
100
AcDbEntity
  8
調整材穴有475_492_502_
  6
CONTINUOUS
 62
    54
100
AcDbLine
 10
1292.800000000002
 20
70.15290039756583
 30
0.0
 11
1296.799999999997
 21
74.1529003975614
 31
0.0
  0
LINE
  5
520
330
1F
100
AcDbEntity
  8
調整材穴有475_492_502_
  6
CONTINUOUS
 62
    54
100
AcDbLine
 10
1292.799999999999
 20
69.02152954766537
 30
0.0
 11
1296.8
 21
73.02152954766605
 31
0.0
  0
LINE
  5
521
330
1F
100
AcDbEntity
  8
調整材穴有475_492_502_
  6
CONTINUOUS
 62
    54
100
AcDbLine
 10
1292.799999999992
 20
67.89015869775979
 30
0.0
 11
1296.799999999998
 21
71.89015869776559
 31
0.0
  0
LINE
  5
522
330
1F
100
AcDbEntity
  8
調整材穴有475_492_502_
  6
CONTINUOUS
 62
    54
100
AcDbLine
 10
1292.799999999995
 20
66.75878784786433
 30
0.0
 11
1296.800000000001
 21
70.75878784787024
 31
0.0
  0
LINE
  5
523
330
1F
100
AcDbEntity
  8
調整材穴有475_492_502_
  6
CONTINUOUS
 62
    54
100
AcDbLine
 10
1292.799999999998
 20
65.62741699796909
 30
0.0
 11
1296.799999999994
 21
69.62741699796466
 31
0.0
  0
LINE
  5
524
330
1F
100
AcDbEntity
  8
調整材穴有475_492_502_
  6
CONTINUOUS
 62
    54
100
AcDbLine
 10
1292.799999999996
 20
64.49604614806852
 30
0.0
 11
1296.799999999997
 21
68.4960461480692
 31
0.0
  0
LINE
  5
525
330
1F
100
AcDbEntity
  8
調整材穴有475_492_502_
  6
CONTINUOUS
 62
    54
100
AcDbLine
 10
1292.799999999999
 20
63.36467529817317
 30
0.0
 11
1296.8
 21
67.36467529817385
 31
0.0
  0
LINE
  5
526
330
1F
100
AcDbEntity
  8
調整材穴有475_492_502_
  6
CONTINUOUS
 62
    54
100
AcDbLine
 10
1292.800000000002
 20
62.23330444827782
 30
0.0
 11
1296.799999999998
 21
66.23330444827327
 31
0.0
  0
LINE
  5
527
330
1F
100
AcDbEntity
  8
調整材穴有475_492_502_
  6
CONTINUOUS
 62
    54
100
AcDbLine
 10
1292.799999999995
 20
61.10193359837224
 30
0.0
 11
1296.800000000001
 21
65.10193359837804
 31
0.0
  0
LINE
  5
528
330
1F
100
AcDbEntity
  8
調整材穴有475_492_502_
  6
CONTINUOUS
 62
    54
100
AcDbLine
 10
1292.799999999998
 20
59.97056274847678
 30
0.0
 11
1296.800000000004
 21
63.97056274848258
 31
0.0
  0
LINE
  5
529
330
1F
100
AcDbEntity
  8
調整材穴有475_492_502_
  6
CONTINUOUS
 62
    54
100
AcDbLine
 10
1292.799999999996
 20
58.83919189857632
 30
0.0
 11
1296.799999999997
 21
62.839191898577
 31
0.0
  0
LINE
  5
52A
330
1F
100
AcDbEntity
  8
調整材穴有475_492_502_
  6
CONTINUOUS
 62
    54
100
AcDbLine
 10
1292.799999999999
 20
57.70782104868097
 30
0.0
 11
1296.799999999995
 21
61.70782104867642
 31
0.0
  0
LINE
  5
52B
330
1F
100
AcDbEntity
  8
調整材穴有475_492_502_
  6
CONTINUOUS
 62
    54
100
AcDbLine
 10
1292.800000000002
 20
56.57645019878562
 30
0.0
 11
1296.799999999998
 21
60.57645019878119
 31
0.0
  0
LINE
  5
52C
330
1F
100
AcDbEntity
  8
調整材穴有475_492_502_
  6
CONTINUOUS
 62
    54
100
AcDbLine
 10
1292.799999999995
 20
55.44507934887993
 30
0.0
 11
1296.800000000001
 21
59.44507934888573
 31
0.0
  0
LINE
  5
52D
330
1F
100
AcDbEntity
  8
調整材穴有475_492_502_
  6
CONTINUOUS
 62
    54
100
AcDbLine
 10
1292.799999999998
 20
54.31370849898458
 30
0.0
 11
1296.799999999993
 21
58.31370849898015
 31
0.0
  0
LINE
  5
52E
330
1F
100
AcDbEntity
  8
調整材穴有475_492_502_
  6
CONTINUOUS
 62
    54
100
AcDbLine
 10
1292.799999999996
 20
53.182337649084
 30
0.0
 11
1296.799999999997
 21
57.18233764908469
 31
0.0
  0
LINE
  5
52F
330
1F
100
AcDbEntity
  8
調整材穴有475_492_502_
  6
CONTINUOUS
 62
    54
100
AcDbLine
 10
1292.799999999999
 20
52.05096679918877
 30
0.0
 11
1296.8
 21
56.05096679918945
 31
0.0
  0
LINE
  5
530
330
1F
100
AcDbEntity
  8
調整材穴有475_492_502_
  6
CONTINUOUS
 62
    54
100
AcDbLine
 10
1292.800000000002
 20
50.91959594929331
 30
0.0
 11
1296.799999999997
 21
54.91959594928888
 31
0.0
  0
LINE
  5
531
330
1F
100
AcDbEntity
  8
調整材穴有475_492_502_
  6
CONTINUOUS
 62
    54
100
AcDbLine
 10
1292.799999999995
 20
49.78822509938773
 30
0.0
 11
1296.800000000001
 21
53.78822509939353
 31
0.0
  0
LINE
  5
532
330
1F
100
AcDbEntity
  8
調整材穴有475_492_502_
  6
CONTINUOUS
 62
    54
100
AcDbLine
 10
1292.799999999998
 20
48.65685424949227
 30
0.0
 11
1296.800000000004
 21
52.65685424949818
 31
0.0
  0
LINE
  5
533
330
1F
100
AcDbEntity
  8
調整材穴有475_492_502_
  6
CONTINUOUS
 62
    54
100
AcDbLine
 10
1292.799999999996
 20
47.52548339959192
 30
0.0
 11
1296.799999999997
 21
51.5254833995926
 31
0.0
  0
LINE
  5
534
330
1F
100
AcDbEntity
  8
調整材穴有475_492_502_
  6
CONTINUOUS
 62
    54
100
AcDbLine
 10
1292.799999999999
 20
46.39411254969646
 30
0.0
 11
1296.799999999994
 21
50.39411254969203
 31
0.0
  0
LINE
  5
535
330
1F
100
AcDbEntity
  8
調整材穴有475_492_502_
  6
CONTINUOUS
 62
    54
100
AcDbLine
 10
1292.800000000002
 20
45.26274169980111
 30
0.0
 11
1296.799999999997
 21
49.26274169979668
 31
0.0
  0
LINE
  5
536
330
1F
100
AcDbEntity
  8
調整材穴有475_492_502_
  6
CONTINUOUS
 62
    54
100
AcDbLine
 10
1292.799999999995
 20
44.13137084989542
 30
0.0
 11
1296.8
 21
48.13137084990122
 31
0.0
  0
LINE
  5
537
330
1F
100
AcDbEntity
  8
調整材穴有475_492_502_
  6
CONTINUOUS
 62
    54
100
AcDbLine
 10
1292.799999999998
 20
43.00000000000018
 30
0.0
 11
1296.799999999998
 21
47.00000000000087
 31
0.0
  0
LINE
  5
538
330
1F
100
AcDbEntity
  8
調整材穴有475_492_502_
  6
CONTINUOUS
 62
    54
100
AcDbLine
 10
1293.931370849893
 20
42.99999999999712
 30
0.0
 11
1296.799999999996
 21
45.8686291501004
 31
0.0
  0
LINE
  5
539
330
1F
100
AcDbEntity
  8
調整材穴有475_492_502_
  6
CONTINUOUS
 62
    54
100
AcDbLine
 10
1295.062741699794
 20
42.99999999999916
 30
0.0
 11
1296.799999999999
 21
44.73725830020494
 31
0.0
  0
LINE
  5
53A
330
1F
100
AcDbEntity
  8
調整材穴有475_492_502_
  6
CONTINUOUS
 62
    54
100
AcDbLine
 10
1296.194112549694
 20
43.00000000000132
 30
0.0
 11
1296.799999999997
 21
43.60588745030448
 31
0.0
  0
LINE
  5
53B
330
1F
100
AcDbEntity
  8
調整材穴有475_492_502_
  6
CONTINUOUS
 62
    54
100
AcDbLine
 10
1293.9313708499
 20
42.99999999999768
 30
0.0
 11
1292.800000000003
 21
44.13137084989508
 31
0.0
  0
LINE
  5
53C
330
1F
100
AcDbEntity
  8
調整材穴有475_492_502_
  6
CONTINUOUS
 62
    54
100
AcDbLine
 10
1295.062741699795
 20
43.00000000000075
 30
0.0
 11
1292.800000000006
 21
45.26274169979054
 31
0.0
  0
LINE
  5
53D
330
1F
100
AcDbEntity
  8
調整材穴有475_492_502_
  6
CONTINUOUS
 62
    54
100
AcDbLine
 10
1296.194112549696
 20
42.99999999999859
 30
0.0
 11
1292.799999999999
 21
46.39411254969612
 31
0.0
  0
LINE
  5
53E
330
1F
100
AcDbEntity
  8
調整材穴有475_492_502_
  6
CONTINUOUS
 62
    54
100
AcDbLine
 10
1296.800000000002
 20
43.52548339959078
 30
0.0
 11
1292.800000000002
 21
47.52548339959147
 31
0.0
  0
LINE
  5
53F
330
1F
100
AcDbEntity
  8
調整材穴有475_492_502_
  6
CONTINUOUS
 62
    54
100
AcDbLine
 10
1296.8
 20
44.65685424949125
 30
0.0
 11
1292.800000000005
 21
48.65685424948681
 31
0.0
  0
LINE
  5
540
330
1F
100
AcDbEntity
  8
調整材穴有475_492_502_
  6
CONTINUOUS
 62
    54
100
AcDbLine
 10
1296.800000000003
 20
45.78822509938671
 30
0.0
 11
1292.800000000002
 21
49.78822509938739
 31
0.0
  0
LINE
  5
541
330
1F
100
AcDbEntity
  8
調整材穴有475_492_502_
  6
CONTINUOUS
 62
    54
100
AcDbLine
 10
1296.800000000001
 20
46.91959594928717
 30
0.0
 11
1292.800000000001
 21
50.91959594928785
 31
0.0
  0
LINE
  5
542
330
1F
100
AcDbEntity
  8
調整材穴有475_492_502_
  6
CONTINUOUS
 62
    54
100
AcDbLine
 10
1296.800000000004
 20
48.05096679918252
 30
0.0
 11
1292.800000000004
 21
52.0509667991832
 31
0.0
  0
LINE
  5
543
330
1F
100
AcDbEntity
  8
調整材穴有475_492_502_
  6
CONTINUOUS
 62
    54
100
AcDbLine
 10
1296.800000000002
 20
49.18233764908298
 30
0.0
 11
1292.800000000002
 21
53.18233764908366
 31
0.0
  0
LINE
  5
544
330
1F
100
AcDbEntity
  8
調整材穴有475_492_502_
  6
CONTINUOUS
 62
    54
100
AcDbLine
 10
1296.800000000005
 20
50.31370849897844
 30
0.0
 11
1292.800000000004
 21
54.31370849897912
 31
0.0
  0
LINE
  5
545
330
1F
100
AcDbEntity
  8
調整材穴有475_492_502_
  6
CONTINUOUS
 62
    54
100
AcDbLine
 10
1296.800000000003
 20
51.44507934887891
 30
0.0
 11
1292.799999999997
 21
55.4450793488847
 31
0.0
  0
LINE
  5
546
330
1F
100
AcDbEntity
  8
調整材穴有475_492_502_
  6
CONTINUOUS
 62
    54
100
AcDbLine
 10
1296.800000000001
 20
52.57645019877937
 30
0.0
 11
1292.8
 21
56.57645019877994
 31
0.0
  0
LINE
  5
547
330
1F
100
AcDbEntity
  8
調整材穴有475_492_502_
  6
CONTINUOUS
 62
    54
100
AcDbLine
 10
1296.799999999999
 20
53.70782104867983
 30
0.0
 11
1292.800000000003
 21
57.7078210486754
 31
0.0
  0
LINE
  5
548
330
1F
100
AcDbEntity
  8
調整材穴有475_492_502_
  6
CONTINUOUS
 62
    54
100
AcDbLine
 10
1296.800000000002
 20
54.83919189857518
 30
0.0
 11
1292.800000000001
 21
58.83919189857586
 31
0.0
  0
LINE
  5
549
330
1F
100
AcDbEntity
  8
調整材穴有475_492_502_
  6
CONTINUOUS
 62
    54
100
AcDbLine
 10
1296.800000000005
 20
55.97056274847064
 30
0.0
 11
1292.800000000004
 21
59.97056274847132
 31
0.0
  0
LINE
  5
54A
330
1F
100
AcDbEntity
  8
調整材穴有475_492_502_
  6
CONTINUOUS
 62
    54
100
AcDbLine
 10
1296.800000000003
 20
57.10193359837099
 30
0.0
 11
1292.800000000002
 21
61.10193359837167
 31
0.0
  0
LINE
  5
54B
330
1F
100
AcDbEntity
  8
調整材穴有475_492_502_
  6
CONTINUOUS
 62
    54
100
AcDbLine
 10
1296.800000000001
 20
58.23330444827157
 30
0.0
 11
1292.8
 21
62.23330444827225
 31
0.0
  0
LINE
  5
54C
330
1F
100
AcDbEntity
  8
調整材穴有475_492_502_
  6
CONTINUOUS
 62
    54
100
AcDbLine
 10
1296.800000000004
 20
59.36467529816692
 30
0.0
 11
1292.800000000003
 21
63.3646752981676
 31
0.0
  0
LINE
  5
54D
330
1F
100
AcDbEntity
  8
調整材穴有475_492_502_
  6
CONTINUOUS
 62
    54
100
AcDbLine
 10
1296.800000000002
 20
60.49604614806749
 30
0.0
 11
1292.800000000001
 21
64.49604614806817
 31
0.0
  0
LINE
  5
54E
330
1F
100
AcDbEntity
  8
調整材穴有475_492_502_
  6
CONTINUOUS
 62
    54
100
AcDbLine
 10
1296.8
 20
61.62741699796796
 30
0.0
 11
1292.799999999999
 21
65.62741699796864
 31
0.0
  0
LINE
  5
54F
330
1F
100
AcDbEntity
  8
調整材穴有475_492_502_
  6
CONTINUOUS
 62
    54
100
AcDbLine
 10
1296.800000000003
 20
62.7587878478633
 30
0.0
 11
1292.800000000002
 21
66.75878784786399
 31
0.0
  0
LINE
  5
550
330
1F
100
AcDbEntity
  8
調整材穴有475_492_502_
  6
CONTINUOUS
 62
    54
100
AcDbLine
 10
1296.800000000001
 20
63.89015869776377
 30
0.0
 11
1292.8
 21
67.89015869776445
 31
0.0
  0
LINE
  5
551
330
1F
100
AcDbEntity
  8
調整材穴有475_492_502_
  6
CONTINUOUS
 62
    54
100
AcDbLine
 10
1296.800000000004
 20
65.02152954765923
 30
0.0
 11
1292.800000000003
 21
69.02152954765991
 31
0.0
  0
LINE
  5
552
330
1F
100
AcDbEntity
  8
調整材穴有475_492_502_
  6
CONTINUOUS
 62
    54
100
AcDbLine
 10
1296.800000000002
 20
66.15290039755969
 30
0.0
 11
1292.800000000001
 21
70.15290039756037
 31
0.0
  0
LINE
  5
553
330
1F
100
AcDbEntity
  8
調整材穴有475_492_502_
  6
CONTINUOUS
 62
    54
100
AcDbLine
 10
1296.800000000005
 20
67.28427124745504
 30
0.0
 11
1292.800000000004
 21
71.28427124745572
 31
0.0
  0
LINE
  5
554
330
1F
100
AcDbEntity
  8
調整材穴有475_492_502_
  6
CONTINUOUS
 62
    54
100
AcDbLine
 10
1296.800000000002
 20
68.4156420973555
 30
0.0
 11
1292.800000000002
 21
72.41564209735618
 31
0.0
  0
LINE
  5
555
330
1F
100
AcDbEntity
  8
調整材穴有475_492_502_
  6
CONTINUOUS
 62
    54
100
AcDbLine
 10
1296.800000000001
 20
69.54701294725608
 30
0.0
 11
1292.8
 21
73.54701294725676
 31
0.0
  0
LINE
  5
556
330
1F
100
AcDbEntity
  8
調整材穴有475_492_502_
  6
CONTINUOUS
 62
    54
100
AcDbLine
 10
1296.800000000004
 20
70.67838379715143
 30
0.0
 11
1292.800000000003
 21
74.678383797152
 31
0.0
  0
LINE
  5
557
330
1F
100
AcDbEntity
  8
調整材穴有475_492_502_
  6
CONTINUOUS
 62
    54
100
AcDbLine
 10
1296.800000000002
 20
71.80975464705189
 30
0.0
 11
1292.800000000001
 21
75.80975464705257
 31
0.0
  0
LINE
  5
558
330
1F
100
AcDbEntity
  8
調整材穴有475_492_502_
  6
CONTINUOUS
 62
    54
100
AcDbLine
 10
1296.799999999999
 20
72.94112549695235
 30
0.0
 11
1292.799999999999
 21
76.94112549695303
 31
0.0
  0
LINE
  5
559
330
1F
100
AcDbEntity
  8
調整材穴有475_492_502_
  6
CONTINUOUS
 62
    54
100
AcDbLine
 10
1296.800000000002
 20
74.07249634684781
 30
0.0
 11
1293.872496346848
 21
77.00000000000246
 31
0.0
  0
LINE
  5
55A
330
1F
100
AcDbEntity
  8
調整材穴有475_492_502_
  6
CONTINUOUS
 62
    54
100
AcDbLine
 10
1296.8
 20
75.20386719674828
 30
0.0
 11
1295.003867196743
 21
77.00000000000553
 31
0.0
  0
LINE
  5
55B
330
1F
100
AcDbEntity
  8
調整材穴有475_492_502_
  6
CONTINUOUS
 62
    54
100
AcDbLine
 10
1296.800000000003
 20
76.33523804664351
 30
0.0
 11
1296.135238046644
 21
77.00000000000337
 31
0.0
  0
LINE
  5
55C
330
1F
100
AcDbEntity
  8
調整材穴有475_492_502_
  6
CONTINUOUS
 62
    54
100
AcDbLine
 10
1298.8
 20
75.868629150102
 30
0.0
 11
1299.931370849897
 21
76.9999999999995
 31
0.0
  0
LINE
  5
55D
330
1F
100
AcDbEntity
  8
調整材穴有475_492_502_
  6
CONTINUOUS
 62
    54
100
AcDbLine
 10
1298.799999999992
 20
74.73725830019642
 30
0.0
 11
1301.062741699798
 21
77.00000000000166
 31
0.0
  0
LINE
  5
55E
330
1F
100
AcDbEntity
  8
調整材穴有475_492_502_
  6
CONTINUOUS
 62
    54
100
AcDbLine
 10
1298.799999999996
 20
73.60588745030107
 30
0.0
 11
1302.194112549693
 21
76.99999999999848
 31
0.0
  0
LINE
  5
55F
330
1F
100
AcDbEntity
  8
調整材穴有475_492_502_
  6
CONTINUOUS
 62
    54
100
AcDbLine
 10
1298.799999999999
 20
72.47451660040572
 30
0.0
 11
1302.799999999999
 21
76.4745166004064
 31
0.0
  0
LINE
  5
560
330
1F
100
AcDbEntity
  8
調整材穴有475_492_502_
  6
CONTINUOUS
 62
    54
100
AcDbLine
 10
1298.800000000002
 20
71.34314575051037
 30
0.0
 11
1302.800000000002
 21
75.34314575051094
 31
0.0
  0
LINE
  5
561
330
1F
100
AcDbEntity
  8
調整材穴有475_492_502_
  6
CONTINUOUS
 62
    54
100
AcDbLine
 10
1298.8
 20
70.21177490060991
 30
0.0
 11
1302.800000000006
 21
74.21177490061571
 31
0.0
  0
LINE
  5
562
330
1F
100
AcDbEntity
  8
調整材穴有475_492_502_
  6
CONTINUOUS
 62
    54
100
AcDbLine
 10
1304.800000000006
 20
76.21177490061605
 30
0.0
 11
1305.588225099395
 21
77.00000000000485
 31
0.0
  0
LINE
  5
563
330
1F
100
AcDbEntity
  8
調整材穴有475_492_502_
  6
CONTINUOUS
 62
    54
100
AcDbLine
 10
1298.799999999998
 20
69.08040405070933
 30
0.0
 11
1302.800000000003
 21
73.08040405071513
 31
0.0
  0
LINE
  5
564
330
1F
100
AcDbEntity
  8
調整材穴有475_492_502_
  6
CONTINUOUS
 62
    54
100
AcDbLine
 10
1304.800000000009
 20
75.08040405072059
 30
0.0
 11
1306.71959594929
 21
77.00000000000178
 31
0.0
  0
LINE
  5
565
330
1F
100
AcDbEntity
  8
調整材穴有475_492_502_
  6
CONTINUOUS
 62
    54
100
AcDbLine
 10
1298.799999999996
 20
67.94903320080887
 30
0.0
 11
1302.800000000007
 21
71.94903320081978
 31
0.0
  0
LINE
  5
566
330
1F
100
AcDbEntity
  8
調整材穴有475_492_502_
  6
CONTINUOUS
 62
    54
100
AcDbLine
 10
1304.800000000002
 20
73.94903320081501
 30
0.0
 11
1307.850966799185
 21
76.9999999999987
 31
0.0
  0
LINE
  5
567
330
1F
100
AcDbEntity
  8
調整材穴有475_492_502_
  6
CONTINUOUS
 62
    54
100
AcDbLine
 10
1298.799999999999
 20
66.81766235091352
 30
0.0
 11
1302.799999999999
 21
70.8176623509142
 31
0.0
  0
LINE
  5
568
330
1F
100
AcDbEntity
  8
調整材穴有475_492_502_
  6
CONTINUOUS
 62
    54
100
AcDbLine
 10
1304.800000000005
 20
72.81766235091978
 30
0.0
 11
1308.8
 21
76.81766235091523
 31
0.0
  0
LINE
  5
569
330
1F
100
AcDbEntity
  8
調整材穴有475_492_502_
  6
CONTINUOUS
 62
    54
100
AcDbLine
 10
1298.800000000002
 20
65.68629150101818
 30
0.0
 11
1302.800000000002
 21
69.68629150101886
 31
0.0
  0
LINE
  5
56A
330
1F
100
AcDbEntity
  8
調整材穴有475_492_502_
  6
CONTINUOUS
 62
    54
100
AcDbLine
 10
1304.800000000003
 20
71.6862915010192
 30
0.0
 11
1308.799999999998
 21
75.68629150101465
 31
0.0
  0
LINE
  5
56B
330
1F
100
AcDbEntity
  8
調整材穴有475_492_502_
  6
CONTINUOUS
 62
    54
100
AcDbLine
 10
1298.8
 20
64.55492065111771
 30
0.0
 11
1302.8
 21
68.5549206511184
 31
0.0
  0
LINE
  5
56C
330
1F
100
AcDbEntity
  8
調整材穴有475_492_502_
  6
CONTINUOUS
 62
    54
100
AcDbLine
 10
1304.800000000006
 20
70.55492065112385
 30
0.0
 11
1308.800000000001
 21
74.55492065111942
 31
0.0
  0
LINE
  5
56D
330
1F
100
AcDbEntity
  8
調整材穴有475_492_502_
  6
CONTINUOUS
 62
    54
100
AcDbLine
 10
1310.800000000002
 20
76.55492065111976
 30
0.0
 11
1311.245079348882
 21
76.99999999999996
 31
0.0
  0
LINE
  5
56E
330
1F
100
AcDbEntity
  8
調整材穴有475_492_502_
  6
CONTINUOUS
 62
    54
100
AcDbLine
 10
1298.800000000002
 20
63.42354980122225
 30
0.0
 11
1302.800000000003
 21
67.42354980122293
 31
0.0
  0
LINE
  5
56F
330
1F
100
AcDbEntity
  8
調整材穴有475_492_502_
  6
CONTINUOUS
 62
    54
100
AcDbLine
 10
1304.799999999998
 20
69.42354980121816
 30
0.0
 11
1308.799999999999
 21
73.42354980121884
 31
0.0
  0
LINE
  5
570
330
1F
100
AcDbEntity
  8
調整材穴有475_492_502_
  6
CONTINUOUS
 62
    54
100
AcDbLine
 10
1310.799999999994
 20
75.42354980121407
 30
0.0
 11
1312.376450198777
 21
76.99999999999677
 31
0.0
  0
LINE
  5
571
330
1F
100
AcDbEntity
  8
調整材穴有475_492_502_
  6
CONTINUOUS
 62
    54
100
AcDbLine
 10
1298.799999999995
 20
62.29217895131667
 30
0.0
 11
1302.800000000007
 21
66.2921789513277
 31
0.0
  0
LINE
  5
572
330
1F
100
AcDbEntity
  8
調整材穴有475_492_502_
  6
CONTINUOUS
 62
    54
100
AcDbLine
 10
1304.800000000002
 20
68.29217895132281
 30
0.0
 11
1308.800000000002
 21
72.29217895132349
 31
0.0
  0
LINE
  5
573
330
1F
100
AcDbEntity
  8
調整材穴有475_492_502_
  6
CONTINUOUS
 62
    54
100
AcDbLine
 10
1310.800000000002
 20
74.29217895132383
 30
0.0
 11
1313.507821048678
 21
76.99999999999893
 31
0.0
  0
LINE
  5
574
330
1F
100
AcDbEntity
  8
調整材穴有475_492_502_
  6
CONTINUOUS
 62
    54
100
AcDbLine
 10
1298.799999999998
 20
61.16080810142132
 30
0.0
 11
1302.800000000009
 21
65.16080810143224
 31
0.0
  0
LINE
  5
575
330
1F
100
AcDbEntity
  8
調整材穴有475_492_502_
  6
CONTINUOUS
 62
    54
100
AcDbLine
 10
1304.800000000005
 20
67.16080810142746
 30
0.0
 11
1308.8
 21
71.16080810142292
 31
0.0
  0
LINE
  5
576
330
1F
100
AcDbEntity
  8
調整材穴有475_492_502_
  6
CONTINUOUS
 62
    54
100
AcDbLine
 10
1310.8
 20
73.16080810142326
 30
0.0
 11
1314.639191898573
 21
76.99999999999586
 31
0.0
  0
LINE
  5
577
330
1F
100
AcDbEntity
  8
調整材穴有475_492_502_
  6
CONTINUOUS
 62
    54
100
AcDbLine
 10
1298.799999999997
 20
60.02943725152086
 30
0.0
 11
1302.800000000002
 21
64.02943725152666
 31
0.0
  0
LINE
  5
578
330
1F
100
AcDbEntity
  8
調整材穴有475_492_502_
  6
CONTINUOUS
 62
    54
100
AcDbLine
 10
1304.800000000002
 20
66.029437251527
 30
0.0
 11
1308.799999999998
 21
70.02943725152257
 31
0.0
  0
LINE
  5
579
330
1F
100
AcDbEntity
  8
調整材穴有475_492_502_
  6
CONTINUOUS
 62
    54
100
AcDbLine
 10
1310.800000000004
 20
72.02943725152802
 30
0.0
 11
1314.799999999999
 21
76.02943725152348
 31
0.0
  0
LINE
  5
57A
330
1F
100
AcDbEntity
  8
調整材穴有475_492_502_
  6
CONTINUOUS
 62
    54
100
AcDbLine
 10
1298.799999999999
 20
58.8980664016254
 30
0.0
 11
1302.800000000005
 21
62.8980664016312
 31
0.0
  0
LINE
  5
57B
330
1F
100
AcDbEntity
  8
調整材穴有475_492_502_
  6
CONTINUOUS
 62
    54
100
AcDbLine
 10
1304.800000000006
 20
64.89806640163154
 30
0.0
 11
1308.800000000001
 21
68.8980664016271
 31
0.0
  0
LINE
  5
57C
330
1F
100
AcDbEntity
  8
調整材穴有475_492_502_
  6
CONTINUOUS
 62
    54
100
AcDbLine
 10
1310.800000000002
 20
70.89806640162745
 30
0.0
 11
1314.800000000002
 21
74.89806640162813
 31
0.0
  0
LINE
  5
57D
330
1F
100
AcDbEntity
  8
調整材穴有475_492_502_
  6
CONTINUOUS
 62
    54
100
AcDbLine
 10
1298.800000000002
 20
57.76669555173005
 30
0.0
 11
1302.800000000003
 21
61.76669555173073
 31
0.0
  0
LINE
  5
57E
330
1F
100
AcDbEntity
  8
調整材穴有475_492_502_
  6
CONTINUOUS
 62
    54
100
AcDbLine
 10
1304.800000000003
 20
63.76669555173108
 30
0.0
 11
1308.799999999999
 21
67.76669555172664
 31
0.0
  0
LINE
  5
57F
330
1F
100
AcDbEntity
  8
調整材穴有475_492_502_
  6
CONTINUOUS
 62
    54
100
AcDbLine
 10
1310.800000000005
 20
69.7666955517321
 30
0.0
 11
1314.8
 21
73.76669555172766
 31
0.0
  0
LINE
  5
580
330
1F
100
AcDbEntity
  8
調整材穴有475_492_502_
  6
CONTINUOUS
 62
    54
100
AcDbLine
 10
1298.799999999995
 20
56.63532470182436
 30
0.0
 11
1302.800000000006
 21
60.63532470183539
 31
0.0
  0
LINE
  5
581
330
1F
100
AcDbEntity
  8
調整材穴有475_492_502_
  6
CONTINUOUS
 62
    54
100
AcDbLine
 10
1304.800000000002
 20
62.63532470183061
 30
0.0
 11
1308.800000000002
 21
66.63532470183118
 31
0.0
  0
LINE
  5
582
330
1F
100
AcDbEntity
  8
調整材穴有475_492_502_
  6
CONTINUOUS
 62
    54
100
AcDbLine
 10
1310.799999999997
 20
68.6353247018264
 30
0.0
 11
1314.800000000003
 21
72.6353247018322
 31
0.0
  0
LINE
  5
583
330
1F
100
AcDbEntity
  8
調整材穴有475_492_502_
  6
CONTINUOUS
 62
    54
100
AcDbLine
 10
1298.799999999998
 20
55.50395385192913
 30
0.0
 11
1302.800000000004
 21
59.50395385193492
 31
0.0
  0
LINE
  5
584
330
1F
100
AcDbEntity
  8
調整材穴有475_492_502_
  6
CONTINUOUS
 62
    54
100
AcDbLine
 10
1304.799999999999
 20
61.50395385193015
 30
0.0
 11
1308.799999999995
 21
65.5039538519256
 31
0.0
  0
LINE
  5
585
330
1F
100
AcDbEntity
  8
調整材穴有475_492_502_
  6
CONTINUOUS
 62
    54
100
AcDbLine
 10
1310.8
 20
67.50395385193117
 30
0.0
 11
1314.799999999996
 21
71.50395385192662
 31
0.0
  0
LINE
  5
586
330
1F
100
AcDbEntity
  8
調整材穴有475_492_502_
  6
CONTINUOUS
 62
    54
100
AcDbLine
 10
1298.799999999996
 20
54.37258300202855
 30
0.0
 11
1302.800000000002
 21
58.37258300203435
 31
0.0
  0
LINE
  5
587
330
1F
100
AcDbEntity
  8
調整材穴有475_492_502_
  6
CONTINUOUS
 62
    54
100
AcDbLine
 10
1304.800000000002
 20
60.37258300203469
 30
0.0
 11
1308.799999999998
 21
64.37258300203025
 31
0.0
  0
LINE
  5
588
330
1F
100
AcDbEntity
  8
調整材穴有475_492_502_
  6
CONTINUOUS
 62
    54
100
AcDbLine
 10
1310.799999999998
 20
66.3725830020306
 30
0.0
 11
1314.799999999999
 21
70.37258300203128
 31
0.0
  0
LINE
  5
589
330
1F
100
AcDbEntity
  8
調整材穴有475_492_502_
  6
CONTINUOUS
 62
    54
100
AcDbLine
 10
1298.799999999999
 20
53.2412121521332
 30
0.0
 11
1302.800000000005
 21
57.241212152139
 31
0.0
  0
LINE
  5
58A
330
1F
100
AcDbEntity
  8
調整材穴有475_492_502_
  6
CONTINUOUS
 62
    54
100
AcDbLine
 10
1304.800000000005
 20
59.24121215213934
 30
0.0
 11
1308.799999999996
 21
63.24121215212979
 31
0.0
  0
LINE
  5
58B
330
1F
100
AcDbEntity
  8
調整材穴有475_492_502_
  6
CONTINUOUS
 62
    54
100
AcDbLine
 10
1310.800000000001
 20
65.24121215213525
 30
0.0
 11
1314.799999999997
 21
69.24121215213081
 31
0.0
  0
LINE
  5
58C
330
1F
100
AcDbEntity
  8
調整材穴有475_492_502_
  6
CONTINUOUS
 62
    54
100
AcDbLine
 10
1298.799999999992
 20
52.10984130222751
 30
0.0
 11
1302.800000000003
 21
56.10984130223854
 31
0.0
  0
LINE
  5
58D
330
1F
100
AcDbEntity
  8
調整材穴有475_492_502_
  6
CONTINUOUS
 62
    54
100
AcDbLine
 10
1304.800000000008
 20
58.10984130224399
 30
0.0
 11
1308.800000000004
 21
62.10984130223956
 31
0.0
  0
LINE
  5
58E
330
1F
100
AcDbEntity
  8
調整材穴有475_492_502_
  6
CONTINUOUS
 62
    54
100
AcDbLine
 10
1310.800000000004
 20
64.1098413022399
 30
0.0
 11
1314.8
 21
68.10984130223535
 31
0.0
  0
LINE
  5
58F
330
1F
100
AcDbEntity
  8
調整材穴有475_492_502_
  6
CONTINUOUS
 62
    54
100
AcDbLine
 10
1298.799999999995
 20
50.97847045233227
 30
0.0
 11
1302.800000000006
 21
54.97847045234319
 31
0.0
  0
LINE
  5
590
330
1F
100
AcDbEntity
  8
調整材穴有475_492_502_
  6
CONTINUOUS
 62
    54
100
AcDbLine
 10
1304.800000000006
 20
56.97847045234353
 30
0.0
 11
1308.800000000002
 21
60.9784704523391
 31
0.0
  0
LINE
  5
591
330
1F
100
AcDbEntity
  8
調整材穴有475_492_502_
  6
CONTINUOUS
 62
    54
100
AcDbLine
 10
1310.799999999997
 20
62.97847045233421
 30
0.0
 11
1314.800000000003
 21
66.97847045234012
 31
0.0
  0
LINE
  5
592
330
1F
100
AcDbEntity
  8
調整材穴有475_492_502_
  6
CONTINUOUS
 62
    54
100
AcDbLine
 10
1298.799999999998
 20
49.84709960243681
 30
0.0
 11
1302.800000000004
 21
53.84709960244261
 31
0.0
  0
LINE
  5
593
330
1F
100
AcDbEntity
  8
調整材穴有475_492_502_
  6
CONTINUOUS
 62
    54
100
AcDbLine
 10
1304.800000000004
 20
55.84709960244295
 30
0.0
 11
1308.800000000005
 21
59.84709960244363
 31
0.0
  0
LINE
  5
594
330
1F
100
AcDbEntity
  8
調整材穴有475_492_502_
  6
CONTINUOUS
 62
    54
100
AcDbLine
 10
1310.8
 20
61.84709960243886
 30
0.0
 11
1314.799999999996
 21
65.84709960243431
 31
0.0
  0
LINE
  5
595
330
1F
100
AcDbEntity
  8
調整材穴有475_492_502_
  6
CONTINUOUS
 62
    54
100
AcDbLine
 10
1298.799999999996
 20
48.71572875253635
 30
0.0
 11
1302.800000000007
 21
52.71572875254738
 31
0.0
  0
LINE
  5
596
330
1F
100
AcDbEntity
  8
調整材穴有475_492_502_
  6
CONTINUOUS
 62
    54
100
AcDbLine
 10
1304.800000000002
 20
54.71572875254249
 30
0.0
 11
1308.799999999998
 21
58.71572875253806
 31
0.0
  0
LINE
  5
597
330
1F
100
AcDbEntity
  8
調整材穴有475_492_502_
  6
CONTINUOUS
 62
    54
100
AcDbLine
 10
1310.799999999998
 20
60.7157287525384
 30
0.0
 11
1314.799999999999
 21
64.71572875253908
 31
0.0
  0
LINE
  5
598
330
1F
100
AcDbEntity
  8
調整材穴有475_492_502_
  6
CONTINUOUS
 62
    54
100
AcDbLine
 10
1298.799999999999
 20
47.584357902641
 30
0.0
 11
1302.8
 21
51.58435790264157
 31
0.0
  0
LINE
  5
599
330
1F
100
AcDbEntity
  8
調整材穴有475_492_502_
  6
CONTINUOUS
 62
    54
100
AcDbLine
 10
1304.800000000005
 20
53.58435790264714
 30
0.0
 11
1308.800000000001
 21
57.58435790264259
 31
0.0
  0
LINE
  5
59A
330
1F
100
AcDbEntity
  8
調整材穴有475_492_502_
  6
CONTINUOUS
 62
    54
100
AcDbLine
 10
1310.800000000001
 20
59.58435790264294
 30
0.0
 11
1314.799999999997
 21
63.5843579026385
 31
0.0
  0
LINE
  5
59B
330
1F
100
AcDbEntity
  8
調整材穴有475_492_502_
  6
CONTINUOUS
 62
    54
100
AcDbLine
 10
1298.833144872581
 20
46.48613192532453
 30
0.0
 11
1302.800000000003
 21
50.45298705274634
 31
0.0
  0
LINE
  5
59C
330
1F
100
AcDbEntity
  8
調整材穴有475_492_502_
  6
CONTINUOUS
 62
    54
100
AcDbLine
 10
1304.800000000003
 20
52.45298705274668
 30
0.0
 11
1308.799999999999
 21
56.45298705274213
 31
0.0
  0
LINE
  5
59D
330
1F
100
AcDbEntity
  8
調整材穴有475_492_502_
  6
CONTINUOUS
 62
    54
100
AcDbLine
 10
1310.800000000004
 20
58.4529870527477
 30
0.0
 11
1314.8
 21
62.45298705274315
 31
0.0
  0
LINE
  5
59E
330
1F
100
AcDbEntity
  8
調整材穴有475_492_502_
  6
CONTINUOUS
 62
    54
100
AcDbLine
 10
1299.059943063803
 20
45.58155926664786
 30
0.0
 11
1302.800000000001
 21
49.32161620284576
 31
0.0
  0
LINE
  5
59F
330
1F
100
AcDbEntity
  8
調整材穴有475_492_502_
  6
CONTINUOUS
 62
    54
100
AcDbLine
 10
1304.800000000006
 20
51.32161620285122
 30
0.0
 11
1308.800000000002
 21
55.32161620284678
 31
0.0
  0
LINE
  5
5A0
330
1F
100
AcDbEntity
  8
調整材穴有475_492_502_
  6
CONTINUOUS
 62
    54
100
AcDbLine
 10
1310.799999999997
 20
57.32161620284201
 30
0.0
 11
1314.799999999992
 21
61.32161620283746
 31
0.0
  0
LINE
  5
5A1
330
1F
100
AcDbEntity
  8
調整材穴有475_492_502_
  6
CONTINUOUS
 62
    54
100
AcDbLine
 10
1299.439768103268
 20
44.83001345621467
 30
0.0
 11
1302.800000000004
 21
48.19024535295041
 31
0.0
  0
LINE
  5
5A2
330
1F
100
AcDbEntity
  8
調整材穴有475_492_502_
  6
CONTINUOUS
 62
    54
100
AcDbLine
 10
1304.799999999999
 20
50.19024535294564
 30
0.0
 11
1308.799999999994
 21
54.1902453529412
 31
0.0
  0
LINE
  5
5A3
330
1F
100
AcDbEntity
  8
調整材穴有475_492_502_
  6
CONTINUOUS
 62
    54
100
AcDbLine
 10
1310.8
 20
56.19024535294666
 30
0.0
 11
1314.799999999996
 21
60.19024535294223
 31
0.0
  0
LINE
  5
5A4
330
1F
100
AcDbEntity
  8
調整材穴有475_492_502_
  6
CONTINUOUS
 62
    54
100
AcDbLine
 10
1299.942288814037
 20
44.20116331708512
 30
0.0
 11
1303.064068977643
 21
47.32294348069134
 31
0.0
  0
LINE
  5
5A5
330
1F
100
AcDbEntity
  8
調整材穴有475_492_502_
  6
CONTINUOUS
 62
    54
100
AcDbLine
 10
1304.800000000002
 20
49.05887450305029
 30
0.0
 11
1308.799999999997
 21
53.05887450304586
 31
0.0
  0
LINE
  5
5A6
330
1F
100
AcDbEntity
  8
調整材穴有475_492_502_
  6
CONTINUOUS
 62
    54
100
AcDbLine
 10
1310.800000000003
 20
55.05887450305131
 30
0.0
 11
1314.799999999999
 21
59.05887450304688
 31
0.0
  0
LINE
  5
5A7
330
1F
100
AcDbEntity
  8
調整材穴有475_492_502_
  6
CONTINUOUS
 62
    54
100
AcDbLine
 10
1300.559120539248
 20
43.68662419239827
 30
0.0
 11
1303.875338316193
 21
47.00284196934258
 31
0.0
  0
LINE
  5
5A8
330
1F
100
AcDbEntity
  8
調整材穴有475_492_502_
  6
CONTINUOUS
 62
    54
100
AcDbLine
 10
1304.797158030663
 20
47.924661683813
 30
0.0
 11
1308.800000000001
 21
51.92750365315051
 31
0.0
  0
LINE
  5
5A9
330
1F
100
AcDbEntity
  8
調整材穴有475_492_502_
  6
CONTINUOUS
 62
    54
100
AcDbLine
 10
1310.800000000001
 20
53.92750365315085
 30
0.0
 11
1314.799999999997
 21
57.9275036531463
 31
0.0
  0
LINE
  5
5AA
330
1F
100
AcDbEntity
  8
調整材穴有475_492_502_
  6
CONTINUOUS
 62
    54
100
AcDbLine
 10
1301.296987851378
 20
43.29312065462928
 30
0.0
 11
1308.799999999999
 21
50.79613280325005
 31
0.0
  0
LINE
  5
5AB
330
1F
100
AcDbEntity
  8
調整材穴有475_492_502_
  6
CONTINUOUS
 62
    54
100
AcDbLine
 10
1310.800000000004
 20
52.7961328032555
 30
0.0
 11
1314.8
 21
56.79613280325107
 31
0.0
  0
LINE
  5
5AC
330
1F
100
AcDbEntity
  8
調整材穴有475_492_502_
  6
CONTINUOUS
 62
    54
100
AcDbLine
 10
1302.183095704756
 20
43.04785765810944
 30
0.0
 11
1308.800000000002
 21
49.66476195335458
 31
0.0
  0
LINE
  5
5AD
330
1F
100
AcDbEntity
  8
調整材穴有475_492_502_
  6
CONTINUOUS
 62
    54
100
AcDbLine
 10
1310.799999999997
 20
51.66476195334981
 30
0.0
 11
1314.799999999997
 21
55.66476195335049
 31
0.0
  0
LINE
  5
5AE
330
1F
100
AcDbEntity
  8
調整材穴有475_492_502_
  6
CONTINUOUS
 62
    54
100
AcDbLine
 10
1303.266608896547
 20
43.00000000000109
 30
0.0
 11
1308.799999999994
 21
48.53339110344901
 31
0.0
  0
LINE
  5
5AF
330
1F
100
AcDbEntity
  8
調整材穴有475_492_502_
  6
CONTINUOUS
 62
    54
100
AcDbLine
 10
1310.8
 20
50.53339110345446
 30
0.0
 11
1314.799999999995
 21
54.53339110345003
 31
0.0
  0
LINE
  5
5B0
330
1F
100
AcDbEntity
  8
調整材穴有475_492_502_
  6
CONTINUOUS
 62
    54
100
AcDbLine
 10
1304.451371724862
 20
43.05339197841802
 30
0.0
 11
1308.921055563029
 21
47.52307581658563
 31
0.0
  0
LINE
  5
5B1
330
1F
100
AcDbEntity
  8
調整材穴有475_492_502_
  6
CONTINUOUS
 62
    54
100
AcDbLine
 10
1310.799999999998
 20
49.40202025355389
 30
0.0
 11
1314.799999999998
 21
53.40202025355457
 31
0.0
  0
LINE
  5
5B2
330
1F
100
AcDbEntity
  8
調整材穴有475_492_502_
  6
CONTINUOUS
 62
    54
100
AcDbLine
 10
1306.839487299995
 20
44.3101367036531
 30
0.0
 11
1309.558860205171
 21
47.02950960882909
 31
0.0
  0
LINE
  5
5B3
330
1F
100
AcDbEntity
  8
調整材穴有475_492_502_
  6
CONTINUOUS
 62
    54
100
AcDbLine
 10
1310.800000000001
 20
48.27064940365865
 30
0.0
 11
1314.800000000002
 21
52.27064940365933
 31
0.0
  0
LINE
  5
5B4
330
1F
100
AcDbEntity
  8
調整材穴有475_492_502_
  6
CONTINUOUS
 62
    54
100
AcDbLine
 10
1307.43486619657
 20
43.77414475032909
 30
0.0
 11
1314.799999999999
 21
51.13927855375876
 31
0.0
  0
LINE
  5
5B5
330
1F
100
AcDbEntity
  8
調整材穴有475_492_502_
  6
CONTINUOUS
 62
    54
100
AcDbLine
 10
1308.148803795942
 20
43.35671149980244
 30
0.0
 11
1314.800000000002
 21
50.00790770386341
 31
0.0
  0
LINE
  5
5B6
330
1F
100
AcDbEntity
  8
調整材穴有475_492_502_
  6
CONTINUOUS
 62
    54
100
AcDbLine
 10
1309.00355547827
 20
43.08009233223261
 30
0.0
 11
1314.8
 21
48.87653685396283
 31
0.0
  0
LINE
  5
5B7
330
1F
100
AcDbEntity
  8
調整材穴有475_492_502_
  6
CONTINUOUS
 62
    54
100
AcDbLine
 10
1310.054833995934
 20
42.99999999999814
 30
0.0
 11
1314.799999999998
 21
47.74516600406237
 31
0.0
  0
LINE
  5
5B8
330
1F
100
AcDbEntity
  8
調整材穴有475_492_502_
  6
CONTINUOUS
 62
    54
100
AcDbLine
 10
1311.206960837653
 20
43.02075599181906
 30
0.0
 11
1314.779244008172
 21
46.59303916233792
 31
0.0
  0
LINE
  5
5B9
330
1F
100
AcDbEntity
  8
調整材穴有475_492_502_
  6
CONTINUOUS
 62
    54
100
AcDbLine
 10
1312.935017368874
 20
43.61744167314198
 30
0.0
 11
1314.18255832686
 21
44.86498263112692
 31
0.0
  0
LINE
  5
5BA
330
1F
100
AcDbEntity
  8
調整材穴有475_492_502_
  6
CONTINUOUS
 62
    54
100
AcDbLine
 10
1302.209101120067
 20
43.04388593267295
 30
0.0
 11
1298.843885932669
 21
46.40910112007153
 31
0.0
  0
LINE
  5
5BB
330
1F
100
AcDbEntity
  8
調整材穴有475_492_502_
  6
CONTINUOUS
 62
    54
100
AcDbLine
 10
1303.384357902635
 20
43.00000000000348
 30
0.0
 11
1298.799999999994
 21
47.58435790264475
 31
0.0
  0
LINE
  5
5BC
330
1F
100
AcDbEntity
  8
調整材穴有475_492_502_
  6
CONTINUOUS
 62
    54
100
AcDbLine
 10
1304.460773534987
 20
43.05495521755013
 30
0.0
 11
1298.799999999997
 21
48.71572875253999
 31
0.0
  0
LINE
  5
5BD
330
1F
100
AcDbEntity
  8
調整材穴有475_492_502_
  6
CONTINUOUS
 62
    54
100
AcDbLine
 10
1305.33912908114
 20
43.30797052129613
 30
0.0
 11
1298.799999999995
 21
49.84709960244057
 31
0.0
  0
LINE
  5
5BE
330
1F
100
AcDbEntity
  8
調整材穴有475_492_502_
  6
CONTINUOUS
 62
    54
100
AcDbLine
 10
1306.071162498012
 20
43.70730795432208
 30
0.0
 11
1298.799999999998
 21
50.97847045233591
 31
0.0
  0
LINE
  5
5BF
330
1F
100
AcDbEntity
  8
調整材穴有475_492_502_
  6
CONTINUOUS
 62
    54
100
AcDbLine
 10
1306.682814517957
 20
44.22702678427557
 30
0.0
 11
1303.904378905396
 21
47.0054623968369
 31
0.0
  0
LINE
  5
5C0
330
1F
100
AcDbEntity
  8
調整材穴有475_492_502_
  6
CONTINUOUS
 62
    54
100
AcDbLine
 10
1302.799999999997
 20
48.10984130223581
 30
0.0
 11
1298.799999999996
 21
52.10984130223649
 31
0.0
  0
LINE
  5
5C1
330
1F
100
AcDbEntity
  8
調整材穴有475_492_502_
  6
CONTINUOUS
 62
    54
100
AcDbLine
 10
1308.94981651114
 20
43.09139564099083
 30
0.0
 11
1304.617351491848
 21
47.42386066028298
 31
0.0
  0
LINE
  5
5C2
330
1F
100
AcDbEntity
  8
調整材穴有475_492_502_
  6
CONTINUOUS
 62
    54
100
AcDbLine
 10
1302.8
 20
49.24121215213104
 30
0.0
 11
1298.799999999994
 21
53.24121215213684
 31
0.0
  0
LINE
  5
5C3
330
1F
100
AcDbEntity
  8
調整材穴有475_492_502_
  6
CONTINUOUS
 62
    54
100
AcDbLine
 10
1310.172583002028
 20
43.00000000000121
 30
0.0
 11
1304.799999999998
 21
48.37258300203128
 31
0.0
  0
LINE
  5
5C4
330
1F
100
AcDbEntity
  8
調整材穴有475_492_502_
  6
CONTINUOUS
 62
    54
100
AcDbLine
 10
1302.799999999998
 20
50.37258300203162
 30
0.0
 11
1298.799999999997
 21
54.3725830020323
 31
0.0
  0
LINE
  5
5C5
330
1F
100
AcDbEntity
  8
調整材穴有475_492_502_
  6
CONTINUOUS
 62
    54
100
AcDbLine
 10
1311.275581057239
 20
43.02837279468811
 30
0.0
 11
1304.799999999996
 21
49.50395385193174
 31
0.0
  0
LINE
  5
5C6
330
1F
100
AcDbEntity
  8
調整材穴有475_492_502_
  6
CONTINUOUS
 62
    54
100
AcDbLine
 10
1302.799999999996
 20
51.50395385193208
 30
0.0
 11
1298.799999999995
 21
55.50395385193276
 31
0.0
  0
LINE
  5
5C7
330
1F
100
AcDbEntity
  8
調整材穴有475_492_502_
  6
CONTINUOUS
 62
    54
100
AcDbLine
 10
1312.187113203441
 20
43.24821149838472
 30
0.0
 11
1304.799999999999
 21
50.6353247018272
 31
0.0
  0
LINE
  5
5C8
330
1F
100
AcDbEntity
  8
調整材穴有475_492_502_
  6
CONTINUOUS
 62
    54
100
AcDbLine
 10
1302.799999999999
 20
52.63532470182754
 30
0.0
 11
1298.799999999993
 21
56.63532470183334
 31
0.0
  0
LINE
  5
5C9
330
1F
100
AcDbEntity
  8
調整材穴有475_492_502_
  6
CONTINUOUS
 62
    54
100
AcDbLine
 10
1312.943735436035
 20
43.62296011568897
 30
0.0
 11
1309.529382506006
 21
47.03731304571836
 31
0.0
  0
LINE
  5
5CA
330
1F
100
AcDbEntity
  8
調整材穴有475_492_502_
  6
CONTINUOUS
 62
    54
100
AcDbLine
 10
1308.83731304572
 20
47.72938250600414
 30
0.0
 11
1304.799999999997
 21
51.76669555172755
 31
0.0
  0
LINE
  5
5CB
330
1F
100
AcDbEntity
  8
調整材穴有475_492_502_
  6
CONTINUOUS
 62
    54
100
AcDbLine
 10
1302.799999999997
 20
53.76669555172789
 30
0.0
 11
1298.799999999996
 21
57.76669555172857
 31
0.0
  0
LINE
  5
5CC
330
1F
100
AcDbEntity
  8
調整材穴有475_492_502_
  6
CONTINUOUS
 62
    54
100
AcDbLine
 10
1313.577001090547
 20
44.12106531107607
 30
0.0
 11
1310.454300799232
 21
47.24376560239143
 31
0.0
  0
LINE
  5
5CD
330
1F
100
AcDbEntity
  8
調整材穴有475_492_502_
  6
CONTINUOUS
 62
    54
100
AcDbLine
 10
1308.800000000001
 20
48.89806640162233
 30
0.0
 11
1304.799999999995
 21
52.89806640162813
 31
0.0
  0
LINE
  5
5CE
330
1F
100
AcDbEntity
  8
調整材穴有475_492_502_
  6
CONTINUOUS
 62
    54
100
AcDbLine
 10
1302.799999999994
 20
54.89806640162847
 30
0.0
 11
1298.799999999994
 21
58.89806640162915
 31
0.0
  0
LINE
  5
5CF
330
1F
100
AcDbEntity
  8
調整材穴有475_492_502_
  6
CONTINUOUS
 62
    54
100
AcDbLine
 10
1314.095917061016
 20
44.73352019050567
 30
0.0
 11
1310.799999999994
 21
48.02943725152757
 31
0.0
  0
LINE
  5
5D0
330
1F
100
AcDbEntity
  8
調整材穴有475_492_502_
  6
CONTINUOUS
 62
    54
100
AcDbLine
 10
1308.799999999998
 20
50.02943725152279
 30
0.0
 11
1304.799999999998
 21
54.02943725152348
 31
0.0
  0
LINE
  5
5D1
330
1F
100
AcDbEntity
  8
調整材穴有475_492_502_
  6
CONTINUOUS
 62
    54
100
AcDbLine
 10
1302.799999999992
 20
56.02943725152893
 30
0.0
 11
1298.799999999997
 21
60.0294372515245
 31
0.0
  0
LINE
  5
5D2
330
1F
100
AcDbEntity
  8
調整材穴有475_492_502_
  6
CONTINUOUS
 62
    54
100
AcDbLine
 10
1314.494352613166
 20
45.46645548825434
 30
0.0
 11
1310.800000000002
 21
49.16080810141791
 31
0.0
  0
LINE
  5
5D3
330
1F
100
AcDbEntity
  8
調整材穴有475_492_502_
  6
CONTINUOUS
 62
    54
100
AcDbLine
 10
1308.800000000002
 20
51.16080810141825
 30
0.0
 11
1304.800000000001
 21
55.16080810141894
 31
0.0
  0
LINE
  5
5D4
330
1F
100
AcDbEntity
  8
調整材穴有475_492_502_
  6
CONTINUOUS
 62
    54
100
AcDbLine
 10
1302.799999999996
 20
57.16080810142439
 30
0.0
 11
1298.799999999995
 21
61.16080810142508
 31
0.0
  0
LINE
  5
5D5
330
1F
100
AcDbEntity
  8
調整材穴有475_492_502_
  6
CONTINUOUS
 62
    54
100
AcDbLine
 10
1314.746174134556
 20
46.34600481676178
 30
0.0
 11
1310.8
 21
50.29217895131826
 31
0.0
  0
LINE
  5
5D6
330
1F
100
AcDbEntity
  8
調整材穴有475_492_502_
  6
CONTINUOUS
 62
    54
100
AcDbLine
 10
1308.799999999999
 20
52.2921789513186
 30
0.0
 11
1304.799999999999
 21
56.29217895131929
 31
0.0
  0
LINE
  5
5D7
330
1F
100
AcDbEntity
  8
調整材穴有475_492_502_
  6
CONTINUOUS
 62
    54
100
AcDbLine
 10
1302.799999999998
 20
58.29217895131963
 30
0.0
 11
1298.799999999993
 21
62.29217895132554
 31
0.0
  0
LINE
  5
5D8
330
1F
100
AcDbEntity
  8
調整材穴有475_492_502_
  6
CONTINUOUS
 62
    54
100
AcDbLine
 10
1314.799999999998
 20
47.42354980121816
 30
0.0
 11
1310.799999999998
 21
51.42354980121884
 31
0.0
  0
LINE
  5
5D9
330
1F
100
AcDbEntity
  8
調整材穴有475_492_502_
  6
CONTINUOUS
 62
    54
100
AcDbLine
 10
1308.800000000002
 20
53.42354980121407
 30
0.0
 11
1304.799999999997
 21
57.42354980121986
 31
0.0
  0
LINE
  5
5DA
330
1F
100
AcDbEntity
  8
調整材穴有475_492_502_
  6
CONTINUOUS
 62
    54
100
AcDbLine
 10
1302.799999999997
 20
59.4235498012202
 30
0.0
 11
1298.799999999996
 21
63.42354980122089
 31
0.0
  0
LINE
  5
5DB
330
1F
100
AcDbEntity
  8
調整材穴有475_492_502_
  6
CONTINUOUS
 62
    54
100
AcDbLine
 10
1314.800000000002
 20
48.55492065111351
 30
0.0
 11
1310.799999999996
 21
52.5549206511193
 31
0.0
  0
LINE
  5
5DC
330
1F
100
AcDbEntity
  8
調整材穴有475_492_502_
  6
CONTINUOUS
 62
    54
100
AcDbLine
 10
1308.8
 20
54.55492065111453
 30
0.0
 11
1304.799999999995
 21
58.55492065112033
 31
0.0
  0
LINE
  5
5DD
330
1F
100
AcDbEntity
  8
調整材穴有475_492_502_
  6
CONTINUOUS
 62
    54
100
AcDbLine
 10
1302.799999999994
 20
60.55492065112067
 30
0.0
 11
1298.799999999999
 21
64.55492065111623
 31
0.0
  0
LINE
  5
5DE
330
1F
100
AcDbEntity
  8
調整材穴有475_492_502_
  6
CONTINUOUS
 62
    54
100
AcDbLine
 10
1314.799999999999
 20
49.68629150101397
 30
0.0
 11
1310.799999999999
 21
53.68629150101465
 31
0.0
  0
LINE
  5
5DF
330
1F
100
AcDbEntity
  8
調整材穴有475_492_502_
  6
CONTINUOUS
 62
    54
100
AcDbLine
 10
1308.800000000003
 20
55.68629150100976
 30
0.0
 11
1304.799999999998
 21
59.68629150101567
 31
0.0
  0
LINE
  5
5E0
330
1F
100
AcDbEntity
  8
調整材穴有475_492_502_
  6
CONTINUOUS
 62
    54
100
AcDbLine
 10
1302.799999999997
 20
61.68629150101602
 30
0.0
 11
1298.799999999997
 21
65.6862915010167
 31
0.0
  0
LINE
  5
5E1
330
1F
100
AcDbEntity
  8
調整材穴有475_492_502_
  6
CONTINUOUS
 62
    54
100
AcDbLine
 10
1314.799999999997
 20
50.81766235091455
 30
0.0
 11
1310.799999999997
 21
54.81766235091523
 31
0.0
  0
LINE
  5
5E2
330
1F
100
AcDbEntity
  8
調整材穴有475_492_502_
  6
CONTINUOUS
 62
    54
100
AcDbLine
 10
1308.800000000002
 20
56.81766235091034
 30
0.0
 11
1304.799999999996
 21
60.81766235091625
 31
0.0
  0
LINE
  5
5E3
330
1F
100
AcDbEntity
  8
調整材穴有475_492_502_
  6
CONTINUOUS
 62
    54
100
AcDbLine
 10
1302.799999999995
 20
62.81766235091659
 30
0.0
 11
1298.8
 21
66.81766235091204
 31
0.0
  0
LINE
  5
5E4
330
1F
100
AcDbEntity
  8
調整材穴有475_492_502_
  6
CONTINUOUS
 62
    54
100
AcDbLine
 10
1314.8
 20
51.94903320080978
 30
0.0
 11
1310.799999999994
 21
55.94903320081569
 31
0.0
  0
LINE
  5
5E5
330
1F
100
AcDbEntity
  8
調整材穴有475_492_502_
  6
CONTINUOUS
 62
    54
100
AcDbLine
 10
1308.799999999999
 20
57.9490332008108
 30
0.0
 11
1304.799999999993
 21
61.9490332008166
 31
0.0
  0
LINE
  5
5E6
330
1F
100
AcDbEntity
  8
調整材穴有475_492_502_
  6
CONTINUOUS
 62
    54
100
AcDbLine
 10
1302.799999999998
 20
63.94903320081183
 30
0.0
 11
1298.799999999997
 21
67.94903320081251
 31
0.0
  0
LINE
  5
5E7
330
1F
100
AcDbEntity
  8
調整材穴有475_492_502_
  6
CONTINUOUS
 62
    54
100
AcDbLine
 10
1314.799999999998
 20
53.08040405071036
 30
0.0
 11
1310.799999999997
 21
57.08040405071104
 31
0.0
  0
LINE
  5
5E8
330
1F
100
AcDbEntity
  8
調整材穴有475_492_502_
  6
CONTINUOUS
 62
    54
100
AcDbLine
 10
1308.800000000002
 20
59.08040405070626
 30
0.0
 11
1304.799999999997
 21
63.08040405071206
 31
0.0
  0
LINE
  5
5E9
330
1F
100
AcDbEntity
  8
調整材穴有475_492_502_
  6
CONTINUOUS
 62
    54
100
AcDbLine
 10
1302.799999999996
 20
65.0804040507124
 30
0.0
 11
1298.799999999996
 21
69.08040405071308
 31
0.0
  0
LINE
  5
5EA
330
1F
100
AcDbEntity
  8
調整材穴有475_492_502_
  6
CONTINUOUS
 62
    54
100
AcDbLine
 10
1314.799999999996
 20
54.21177490061082
 30
0.0
 11
1310.799999999995
 21
58.2117749006115
 31
0.0
  0
LINE
  5
5EB
330
1F
100
AcDbEntity
  8
調整材穴有475_492_502_
  6
CONTINUOUS
 62
    54
100
AcDbLine
 10
1308.8
 20
60.21177490060673
 30
0.0
 11
1304.8
 21
64.21177490060741
 31
0.0
  0
LINE
  5
5EC
330
1F
100
AcDbEntity
  8
調整材穴有475_492_502_
  6
CONTINUOUS
 62
    54
100
AcDbLine
 10
1302.799999999999
 20
66.21177490060775
 30
0.0
 11
1298.799999999999
 21
70.21177490060843
 31
0.0
  0
LINE
  5
5ED
330
1F
100
AcDbEntity
  8
調整材穴有475_492_502_
  6
CONTINUOUS
 62
    54
100
AcDbLine
 10
1314.799999999999
 20
55.34314575050628
 30
0.0
 11
1310.799999999999
 21
59.34314575050696
 31
0.0
  0
LINE
  5
5EE
330
1F
100
AcDbEntity
  8
調整材穴有475_492_502_
  6
CONTINUOUS
 62
    54
100
AcDbLine
 10
1308.800000000003
 20
61.34314575050207
 30
0.0
 11
1304.799999999997
 21
65.34314575050787
 31
0.0
  0
LINE
  5
5EF
330
1F
100
AcDbEntity
  8
調整材穴有475_492_502_
  6
CONTINUOUS
 62
    54
100
AcDbLine
 10
1302.799999999997
 20
67.34314575050821
 30
0.0
 11
1298.799999999997
 21
71.3431457505089
 31
0.0
  0
LINE
  5
5F0
330
1F
100
AcDbEntity
  8
調整材穴有475_492_502_
  6
CONTINUOUS
 62
    54
100
AcDbLine
 10
1314.799999999997
 20
56.47451660040663
 30
0.0
 11
1310.799999999997
 21
60.47451660040731
 31
0.0
  0
LINE
  5
5F1
330
1F
100
AcDbEntity
  8
調整材穴有475_492_502_
  6
CONTINUOUS
 62
    54
100
AcDbLine
 10
1308.800000000001
 20
62.47451660040254
 30
0.0
 11
1304.800000000001
 21
66.47451660040322
 31
0.0
  0
LINE
  5
5F2
330
1F
100
AcDbEntity
  8
調整材穴有475_492_502_
  6
CONTINUOUS
 62
    54
100
AcDbLine
 10
1302.8
 20
68.47451660040356
 30
0.0
 11
1298.799999999999
 21
72.47451660040424
 31
0.0
  0
LINE
  5
5F3
330
1F
100
AcDbEntity
  8
調整材穴有475_492_502_
  6
CONTINUOUS
 62
    54
100
AcDbLine
 10
1314.8
 20
57.60588745030209
 30
0.0
 11
1310.799999999994
 21
61.60588745030789
 31
0.0
  0
LINE
  5
5F4
330
1F
100
AcDbEntity
  8
調整材穴有475_492_502_
  6
CONTINUOUS
 62
    54
100
AcDbLine
 10
1308.799999999999
 20
63.60588745030311
 30
0.0
 11
1304.799999999998
 21
67.6058874503038
 31
0.0
  0
LINE
  5
5F5
330
1F
100
AcDbEntity
  8
調整材穴有475_492_502_
  6
CONTINUOUS
 62
    54
100
AcDbLine
 10
1302.799999999998
 20
69.60588745030414
 30
0.0
 11
1298.799999999997
 21
73.60588745030482
 31
0.0
  0
LINE
  5
5F6
330
1F
100
AcDbEntity
  8
調整材穴有475_492_502_
  6
CONTINUOUS
 62
    54
100
AcDbLine
 10
1314.799999999998
 20
58.73725830020256
 30
0.0
 11
1310.799999999997
 21
62.73725830020324
 31
0.0
  0
LINE
  5
5F7
330
1F
100
AcDbEntity
  8
調整材穴有475_492_502_
  6
CONTINUOUS
 62
    54
100
AcDbLine
 10
1308.800000000002
 20
64.73725830019846
 30
0.0
 11
1304.799999999996
 21
68.73725830020426
 31
0.0
  0
LINE
  5
5F8
330
1F
100
AcDbEntity
  8
調整材穴有475_492_502_
  6
CONTINUOUS
 62
    54
100
AcDbLine
 10
1302.799999999996
 20
70.7372583002046
 30
0.0
 11
1298.799999999995
 21
74.73725830020528
 31
0.0
  0
LINE
  5
5F9
330
1F
100
AcDbEntity
  8
調整材穴有475_492_502_
  6
CONTINUOUS
 62
    54
100
AcDbLine
 10
1314.799999999996
 20
59.86862915010313
 30
0.0
 11
1310.799999999995
 21
63.86862915010381
 31
0.0
  0
LINE
  5
5FA
330
1F
100
AcDbEntity
  8
調整材穴有475_492_502_
  6
CONTINUOUS
 62
    54
100
AcDbLine
 10
1308.8
 20
65.86862915009893
 30
0.0
 11
1304.799999999999
 21
69.86862915009961
 31
0.0
  0
LINE
  5
5FB
330
1F
100
AcDbEntity
  8
調整材穴有475_492_502_
  6
CONTINUOUS
 62
    54
100
AcDbLine
 10
1302.799999999994
 20
71.86862915010518
 30
0.0
 11
1298.799999999998
 21
75.86862915010063
 31
0.0
  0
LINE
  5
5FC
330
1F
100
AcDbEntity
  8
調整材穴有475_492_502_
  6
CONTINUOUS
 62
    54
100
AcDbLine
 10
1314.799999999999
 20
60.99999999999837
 30
0.0
 11
1310.799999999993
 21
65.00000000000428
 31
0.0
  0
LINE
  5
5FD
330
1F
100
AcDbEntity
  8
調整材穴有475_492_502_
  6
CONTINUOUS
 62
    54
100
AcDbLine
 10
1308.799999999998
 20
66.99999999999939
 30
0.0
 11
1304.799999999997
 21
71.00000000000007
 31
0.0
  0
LINE
  5
5FE
330
1F
100
AcDbEntity
  8
調整材穴有475_492_502_
  6
CONTINUOUS
 62
    54
100
AcDbLine
 10
1302.799999999997
 20
73.00000000000041
 30
0.0
 11
1298.799999999991
 21
77.00000000000621
 31
0.0
  0
LINE
  5
5FF
330
1F
100
AcDbEntity
  8
調整材穴有475_492_502_
  6
CONTINUOUS
 62
    54
100
AcDbLine
 10
1314.799999999997
 20
62.13137084989894
 30
0.0
 11
1310.799999999996
 21
66.13137084989962
 31
0.0
  0
LINE
  5
600
330
1F
100
AcDbEntity
  8
調整材穴有475_492_502_
  6
CONTINUOUS
 62
    54
100
AcDbLine
 10
1308.800000000001
 20
68.13137084989485
 30
0.0
 11
1304.799999999995
 21
72.13137084990065
 31
0.0
  0
LINE
  5
601
330
1F
100
AcDbEntity
  8
調整材穴有475_492_502_
  6
CONTINUOUS
 62
    54
100
AcDbLine
 10
1302.799999999995
 20
74.13137084990099
 30
0.0
 11
1299.931370849887
 21
77.0000000000094
 31
0.0
  0
LINE
  5
602
330
1F
100
AcDbEntity
  8
調整材穴有475_492_502_
  6
CONTINUOUS
 62
    54
100
AcDbLine
 10
1314.8
 20
63.26274169979429
 30
0.0
 11
1310.799999999994
 21
67.26274169980009
 31
0.0
  0
LINE
  5
603
330
1F
100
AcDbEntity
  8
調整材穴有475_492_502_
  6
CONTINUOUS
 62
    54
100
AcDbLine
 10
1308.800000000004
 20
69.2627416997902
 30
0.0
 11
1304.799999999993
 21
73.26274169980111
 31
0.0
  0
LINE
  5
604
330
1F
100
AcDbEntity
  8
調整材穴有475_492_502_
  6
CONTINUOUS
 62
    54
100
AcDbLine
 10
1302.799999999993
 20
75.26274169980145
 30
0.0
 11
1301.062741699787
 21
77.00000000000723
 31
0.0
  0
LINE
  5
605
330
1F
100
AcDbEntity
  8
調整材穴有475_492_502_
  6
CONTINUOUS
 62
    54
100
AcDbLine
 10
1314.799999999998
 20
64.39411254969487
 30
0.0
 11
1310.799999999997
 21
68.39411254969555
 31
0.0
  0
LINE
  5
606
330
1F
100
AcDbEntity
  8
調整材穴有475_492_502_
  6
CONTINUOUS
 62
    54
100
AcDbLine
 10
1308.800000000002
 20
70.39411254969066
 30
0.0
 11
1304.799999999996
 21
74.39411254969657
 31
0.0
  0
LINE
  5
607
330
1F
100
AcDbEntity
  8
調整材穴有475_492_502_
  6
CONTINUOUS
 62
    54
100
AcDbLine
 10
1302.800000000001
 20
76.39411254969168
 30
0.0
 11
1302.194112549688
 21
77.00000000000519
 31
0.0
  0
LINE
  5
608
330
1F
100
AcDbEntity
  8
調整材穴有475_492_502_
  6
CONTINUOUS
 62
    54
100
AcDbLine
 10
1314.799999999996
 20
65.52548339959533
 30
0.0
 11
1310.8
 21
69.52548339959078
 31
0.0
  0
LINE
  5
609
330
1F
100
AcDbEntity
  8
調整材穴有475_492_502_
  6
CONTINUOUS
 62
    54
100
AcDbLine
 10
1308.800000000005
 20
71.52548339958601
 30
0.0
 11
1304.799999999999
 21
75.5254833995918
 31
0.0
  0
LINE
  5
60A
330
1F
100
AcDbEntity
  8
調整材穴有475_492_502_
  6
CONTINUOUS
 62
    54
100
AcDbLine
 10
1314.799999999999
 20
66.65685424949068
 30
0.0
 11
1310.799999999998
 21
70.65685424949136
 31
0.0
  0
LINE
  5
60B
330
1F
100
AcDbEntity
  8
調整材穴有475_492_502_
  6
CONTINUOUS
 62
    54
100
AcDbLine
 10
1308.800000000003
 20
72.65685424948659
 30
0.0
 11
1304.799999999997
 21
76.65685424949238
 31
0.0
  0
LINE
  5
60C
330
1F
100
AcDbEntity
  8
調整材穴有475_492_502_
  6
CONTINUOUS
 62
    54
100
AcDbLine
 10
1314.799999999997
 20
67.78822509939114
 30
0.0
 11
1310.799999999996
 21
71.78822509939182
 31
0.0
  0
LINE
  5
60D
330
1F
100
AcDbEntity
  8
調整材穴有475_492_502_
  6
CONTINUOUS
 62
    54
100
AcDbLine
 10
1308.800000000001
 20
73.78822509938705
 30
0.0
 11
1305.588225099389
 21
76.99999999999893
 31
0.0
  0
LINE
  5
60E
330
1F
100
AcDbEntity
  8
調整材穴有475_492_502_
  6
CONTINUOUS
 62
    54
100
AcDbLine
 10
1314.799999999995
 20
68.91959594929172
 30
0.0
 11
1310.799999999994
 21
72.9195959492924
 31
0.0
  0
LINE
  5
60F
330
1F
100
AcDbEntity
  8
調整材穴有475_492_502_
  6
CONTINUOUS
 62
    54
100
AcDbLine
 10
1308.799999999999
 20
74.91959594928763
 30
0.0
 11
1306.719595949284
 21
77.000000000002
 31
0.0
  0
LINE
  5
610
330
1F
100
AcDbEntity
  8
調整材穴有475_492_502_
  6
CONTINUOUS
 62
    54
100
AcDbLine
 10
1314.800000000003
 20
70.05096679918184
 30
0.0
 11
1310.799999999997
 21
74.05096679918775
 31
0.0
  0
LINE
  5
611
330
1F
100
AcDbEntity
  8
調整材穴有475_492_502_
  6
CONTINUOUS
 62
    54
100
AcDbLine
 10
1308.800000000002
 20
76.05096679918286
 30
0.0
 11
1307.850966799185
 21
76.99999999999984
 31
0.0
  0
LINE
  5
612
330
1F
100
AcDbEntity
  8
調整材穴有475_492_502_
  6
CONTINUOUS
 62
    54
100
AcDbLine
 10
1314.800000000001
 20
71.18233764908241
 30
0.0
 11
1310.799999999995
 21
75.18233764908821
 31
0.0
  0
LINE
  5
613
330
1F
100
AcDbEntity
  8
調整材穴有475_492_502_
  6
CONTINUOUS
 62
    54
100
AcDbLine
 10
1314.799999999999
 20
72.31370849898288
 30
0.0
 11
1310.799999999993
 21
76.31370849898867
 31
0.0
  0
LINE
  5
614
330
1F
100
AcDbEntity
  8
調整材穴有475_492_502_
  6
CONTINUOUS
 62
    54
100
AcDbLine
 10
1314.800000000002
 20
73.44507934887822
 30
0.0
 11
1311.245079348876
 21
77.00000000000382
 31
0.0
  0
LINE
  5
615
330
1F
100
AcDbEntity
  8
調整材穴有475_492_502_
  6
CONTINUOUS
 62
    54
100
AcDbLine
 10
1314.8
 20
74.5764501987788
 30
0.0
 11
1312.376450198777
 21
77.00000000000178
 31
0.0
  0
LINE
  5
616
330
1F
100
AcDbEntity
  8
調整材穴有475_492_502_
  6
CONTINUOUS
 62
    54
100
AcDbLine
 10
1314.799999999997
 20
75.70782104867915
 30
0.0
 11
1313.507821048677
 21
76.99999999999962
 31
0.0
  0
LINE
  5
617
330
1F
100
AcDbEntity
  8
調整材穴有475_492_502_
  6
CONTINUOUS
 62
    54
100
AcDbLine
 10
1314.799999999996
 20
76.83919189857973
 30
0.0
 11
1314.639191898573
 21
77.0000000000028
 31
0.0
  0
LINE
  5
618
330
1F
100
AcDbEntity
  8
調整材穴有475_492_502_
  6
CONTINUOUS
 62
    54
100
AcDbLine
 10
1316.843885932677
 20
73.59089887993692
 30
0.0
 11
1320.209101120065
 21
76.95611406732515
 31
0.0
  0
LINE
  5
619
330
1F
100
AcDbEntity
  8
調整材穴有475_492_502_
  6
CONTINUOUS
 62
    54
100
AcDbLine
 10
1316.800000000002
 20
72.41564209736369
 30
0.0
 11
1321.384357902639
 21
76.99999999999984
 31
0.0
  0
LINE
  5
61A
330
1F
100
AcDbEntity
  8
調整材穴有475_492_502_
  6
CONTINUOUS
 62
    54
100
AcDbLine
 10
1316.8
 20
71.28427124746322
 30
0.0
 11
1322.515728752544
 21
77.00000000000712
 31
0.0
  0
LINE
  5
61B
330
1F
100
AcDbEntity
  8
調整材穴有475_492_502_
  6
CONTINUOUS
 62
    54
100
AcDbLine
 10
1316.800000000004
 20
70.15290039756788
 30
0.0
 11
1323.57191194764
 21
76.92481234520433
 31
0.0
  0
LINE
  5
61C
330
1F
100
AcDbEntity
  8
調整材穴有475_492_502_
  6
CONTINUOUS
 62
    54
100
AcDbLine
 10
1316.800000000007
 20
69.02152954767253
 30
0.0
 11
1324.430892768688
 21
76.65242231635428
 31
0.0
  0
LINE
  5
61D
330
1F
100
AcDbEntity
  8
調整材穴有475_492_502_
  6
CONTINUOUS
 62
    54
100
AcDbLine
 10
1316.799999999999
 20
67.89015869776684
 30
0.0
 11
1320.799999999999
 21
71.89015869776698
 31
0.0
  0
LINE
  5
61E
330
1F
100
AcDbEntity
  8
調整材穴有475_492_502_
  6
CONTINUOUS
 62
    54
100
AcDbLine
 10
1316.800000000002
 20
66.7587878478716
 30
0.0
 11
1320.799999999999
 21
70.75878784786862
 31
0.0
  0
LINE
  5
61F
330
1F
100
AcDbEntity
  8
調整材穴有475_492_502_
  6
CONTINUOUS
 62
    54
100
AcDbLine
 10
1316.8
 20
65.62741699797103
 30
0.0
 11
1320.799999999999
 21
69.62741699797023
 31
0.0
  0
LINE
  5
620
330
1F
100
AcDbEntity
  8
調整材穴有475_492_502_
  6
CONTINUOUS
 62
    54
100
AcDbLine
 10
1316.800000000003
 20
64.49604614807568
 30
0.0
 11
1320.799999999999
 21
68.49604614807178
 31
0.0
  0
LINE
  5
621
330
1F
100
AcDbEntity
  8
調整材穴有475_492_502_
  6
CONTINUOUS
 62
    54
100
AcDbLine
 10
1316.800000000001
 20
63.3646752981751
 30
0.0
 11
1320.799999999999
 21
67.36467529817328
 31
0.0
  0
LINE
  5
622
330
1F
100
AcDbEntity
  8
調整材穴有475_492_502_
  6
CONTINUOUS
 62
    54
100
AcDbLine
 10
1316.800000000004
 20
62.23330444827987
 30
0.0
 11
1320.799999999999
 21
66.23330444827504
 31
0.0
  0
LINE
  5
623
330
1F
100
AcDbEntity
  8
調整材穴有475_492_502_
  6
CONTINUOUS
 62
    54
100
AcDbLine
 10
1316.800000000002
 20
61.1019335983794
 30
0.0
 11
1320.799999999999
 21
65.1019335983765
 31
0.0
  0
LINE
  5
624
330
1F
100
AcDbEntity
  8
調整材穴有475_492_502_
  6
CONTINUOUS
 62
    54
100
AcDbLine
 10
1316.8
 20
59.97056274847883
 30
0.0
 11
1320.799999999999
 21
63.9705627484782
 31
0.0
  0
LINE
  5
625
330
1F
100
AcDbEntity
  8
調整材穴有475_492_502_
  6
CONTINUOUS
 62
    54
100
AcDbLine
 10
1316.800000000003
 20
58.83919189858348
 30
0.0
 11
1320.799999999999
 21
62.8391918985797
 31
0.0
  0
LINE
  5
626
330
1F
100
AcDbEntity
  8
調整材穴有475_492_502_
  6
CONTINUOUS
 62
    54
100
AcDbLine
 10
1316.800000000001
 20
57.7078210486829
 30
0.0
 11
1320.799999999999
 21
61.70782104868131
 31
0.0
  0
LINE
  5
627
330
1F
100
AcDbEntity
  8
調整材穴有475_492_502_
  6
CONTINUOUS
 62
    54
100
AcDbLine
 10
1316.800000000004
 20
56.57645019878767
 30
0.0
 11
1320.799999999999
 21
60.57645019878295
 31
0.0
  0
LINE
  5
628
330
1F
100
AcDbEntity
  8
調整材穴有475_492_502_
  6
CONTINUOUS
 62
    54
100
AcDbLine
 10
1316.800000000002
 20
55.44507934888709
 30
0.0
 11
1320.799999999999
 21
59.44507934888459
 31
0.0
  0
LINE
  5
629
330
1F
100
AcDbEntity
  8
調整材穴有475_492_502_
  6
CONTINUOUS
 62
    54
100
AcDbLine
 10
1316.8
 20
54.31370849898663
 30
0.0
 11
1320.799999999999
 21
58.31370849898603
 31
0.0
  0
LINE
  5
62A
330
1F
100
AcDbEntity
  8
調整材穴有475_492_502_
  6
CONTINUOUS
 62
    54
100
AcDbLine
 10
1316.800000000003
 20
53.18233764909117
 30
0.0
 11
1320.799999999999
 21
57.18233764908767
 31
0.0
  0
LINE
  5
62B
330
1F
100
AcDbEntity
  8
調整材穴有475_492_502_
  6
CONTINUOUS
 62
    54
100
AcDbLine
 10
1316.800000000001
 20
52.05096679919082
 30
0.0
 11
1320.799999999999
 21
56.05096679918928
 31
0.0
  0
LINE
  5
62C
330
1F
100
AcDbEntity
  8
調整材穴有475_492_502_
  6
CONTINUOUS
 62
    54
100
AcDbLine
 10
1316.800000000004
 20
50.91959594929536
 30
0.0
 11
1320.799999999999
 21
54.91959594929081
 31
0.0
  0
LINE
  5
62D
330
1F
100
AcDbEntity
  8
調整材穴有475_492_502_
  6
CONTINUOUS
 62
    54
100
AcDbLine
 10
1316.799999999997
 20
49.78822509938978
 30
0.0
 11
1320.799999999999
 21
53.78822509939233
 31
0.0
  0
LINE
  5
62E
330
1F
100
AcDbEntity
  8
調整材穴有475_492_502_
  6
CONTINUOUS
 62
    54
100
AcDbLine
 10
1316.8
 20
48.65685424949432
 30
0.0
 11
1321.14314575051
 21
53.00000000000456
 31
0.0
  0
LINE
  5
62F
330
1F
100
AcDbEntity
  8
調整材穴有475_492_502_
  6
CONTINUOUS
 62
    54
100
AcDbLine
 10
1316.800000000003
 20
47.52548339959908
 30
0.0
 11
1322.274516600408
 21
53.00000000000456
 31
0.0
  0
LINE
  5
630
330
1F
100
AcDbEntity
  8
調整材穴有475_492_502_
  6
CONTINUOUS
 62
    54
100
AcDbLine
 10
1316.800000000006
 20
46.39411254970362
 30
0.0
 11
1326.799999999997
 21
56.39411254969498
 31
0.0
  0
LINE
  5
631
330
1F
100
AcDbEntity
  8
調整材穴有475_492_502_
  6
CONTINUOUS
 62
    54
100
AcDbLine
 10
1316.800000000004
 20
45.26274169980316
 30
0.0
 11
1326.8
 21
55.26274169979975
 31
0.0
  0
LINE
  5
632
330
1F
100
AcDbEntity
  8
調整材穴有475_492_502_
  6
CONTINUOUS
 62
    54
100
AcDbLine
 10
1316.800000000007
 20
44.13137084990781
 30
0.0
 11
1320.800000000002
 21
48.13137084990326
 31
0.0
  0
LINE
  5
633
330
1F
100
AcDbEntity
  8
調整材穴有475_492_502_
  6
CONTINUOUS
 62
    54
100
AcDbLine
 10
1321.6686291501
 20
49.00000000000109
 30
0.0
 11
1326.799999999998
 21
54.13137084989917
 31
0.0
  0
LINE
  5
634
330
1F
100
AcDbEntity
  8
調整材穴有475_492_502_
  6
CONTINUOUS
 62
    54
100
AcDbLine
 10
1316.8
 20
43.00000000000212
 30
0.0
 11
1320.800000000006
 21
47.00000000000803
 31
0.0
  0
LINE
  5
635
330
1F
100
AcDbEntity
  8
調整材穴有475_492_502_
  6
CONTINUOUS
 62
    54
100
AcDbLine
 10
1322.799999999996
 20
48.99999999999802
 30
0.0
 11
1326.799999999996
 21
52.99999999999871
 31
0.0
  0
LINE
  5
636
330
1F
100
AcDbEntity
  8
調整材穴有475_492_502_
  6
CONTINUOUS
 62
    54
100
AcDbLine
 10
1317.931370849895
 20
42.99999999999905
 30
0.0
 11
1320.799999999998
 21
45.86862915010234
 31
0.0
  0
LINE
  5
637
330
1F
100
AcDbEntity
  8
調整材穴有475_492_502_
  6
CONTINUOUS
 62
    54
100
AcDbLine
 10
1322.799999999999
 20
47.86862915010268
 30
0.0
 11
1326.799999999994
 21
51.86862915009813
 31
0.0
  0
LINE
  5
638
330
1F
100
AcDbEntity
  8
調整材穴有475_492_502_
  6
CONTINUOUS
 62
    54
100
AcDbLine
 10
1319.062741699801
 20
43.00000000000632
 30
0.0
 11
1320.800000000001
 21
44.73725830020699
 31
0.0
  0
LINE
  5
639
330
1F
100
AcDbEntity
  8
調整材穴有475_492_502_
  6
CONTINUOUS
 62
    54
100
AcDbLine
 10
1322.799999999997
 20
46.73725830020221
 30
0.0
 11
1326.799999999997
 21
50.7372583002029
 31
0.0
  0
LINE
  5
63A
330
1F
100
AcDbEntity
  8
調整材穴有475_492_502_
  6
CONTINUOUS
 62
    54
100
AcDbLine
 10
1320.194112549696
 20
43.00000000000325
 30
0.0
 11
1320.800000000004
 21
43.60588745031153
 31
0.0
  0
LINE
  5
63B
330
1F
100
AcDbEntity
  8
調整材穴有475_492_502_
  6
CONTINUOUS
 62
    54
100
AcDbLine
 10
1322.799999999994
 20
45.60588745030164
 30
0.0
 11
1326.8
 21
49.60588745030743
 31
0.0
  0
LINE
  5
63C
330
1F
100
AcDbEntity
  8
調整材穴有475_492_502_
  6
CONTINUOUS
 62
    54
100
AcDbLine
 10
1322.799999999997
 20
44.47451660040629
 30
0.0
 11
1326.799999999998
 21
48.47451660040697
 31
0.0
  0
LINE
  5
63D
330
1F
100
AcDbEntity
  8
調整材穴有475_492_502_
  6
CONTINUOUS
 62
    54
100
AcDbLine
 10
1322.799999999995
 20
43.34314575050571
 30
0.0
 11
1326.799999999996
 21
47.34314575050639
 31
0.0
  0
LINE
  5
63E
330
1F
100
AcDbEntity
  8
調整材穴有475_492_502_
  6
CONTINUOUS
 62
    54
100
AcDbLine
 10
1323.588225099382
 20
42.99999999999416
 30
0.0
 11
1326.799999999994
 21
46.21177490060593
 31
0.0
  0
LINE
  5
63F
330
1F
100
AcDbEntity
  8
調整材穴有475_492_502_
  6
CONTINUOUS
 62
    54
100
AcDbLine
 10
1324.719595949283
 20
42.99999999999621
 30
0.0
 11
1326.799999999997
 21
45.0804040507107
 31
0.0
  0
LINE
  5
640
330
1F
100
AcDbEntity
  8
調整材穴有475_492_502_
  6
CONTINUOUS
 62
    54
100
AcDbLine
 10
1325.850966799183
 20
42.99999999999825
 30
0.0
 11
1326.799999999995
 21
43.94903320081012
 31
0.0
  0
LINE
  5
641
330
1F
100
AcDbEntity
  8
調整材穴有475_492_502_
  6
CONTINUOUS
 62
    54
100
AcDbLine
 10
1317.931370849892
 20
43.00000000000587
 30
0.0
 11
1316.8
 21
44.13137084989815
 31
0.0
  0
LINE
  5
642
330
1F
100
AcDbEntity
  8
調整材穴有475_492_502_
  6
CONTINUOUS
 62
    54
100
AcDbLine
 10
1319.062741699792
 20
43.00000000000382
 30
0.0
 11
1316.800000000003
 21
45.26274169979361
 31
0.0
  0
LINE
  5
643
330
1F
100
AcDbEntity
  8
調整材穴有475_492_502_
  6
CONTINUOUS
 62
    54
100
AcDbLine
 10
1320.194112549688
 20
43.00000000000689
 30
0.0
 11
1316.800000000001
 21
46.39411254969407
 31
0.0
  0
LINE
  5
644
330
1F
100
AcDbEntity
  8
調整材穴有475_492_502_
  6
CONTINUOUS
 62
    54
100
AcDbLine
 10
1320.799999999999
 20
43.52548339959397
 30
0.0
 11
1316.800000000004
 21
47.52548339958953
 31
0.0
  0
LINE
  5
645
330
1F
100
AcDbEntity
  8
調整材穴有475_492_502_
  6
CONTINUOUS
 62
    54
100
AcDbLine
 10
1320.800000000002
 20
44.6568542494892
 30
0.0
 11
1316.800000000002
 21
48.65685424948988
 31
0.0
  0
LINE
  5
646
330
1F
100
AcDbEntity
  8
調整材穴有475_492_502_
  6
CONTINUOUS
 62
    54
100
AcDbLine
 10
1323.588225099389
 20
43.00000000000064
 30
0.0
 11
1322.800000000001
 21
43.78822509938944
 31
0.0
  0
LINE
  5
647
330
1F
100
AcDbEntity
  8
調整材穴有475_492_502_
  6
CONTINUOUS
 62
    54
100
AcDbLine
 10
1320.8
 20
45.78822509938978
 30
0.0
 11
1316.799999999999
 21
49.78822509939046
 31
0.0
  0
LINE
  5
648
330
1F
100
AcDbEntity
  8
調整材穴有475_492_502_
  6
CONTINUOUS
 62
    54
100
AcDbLine
 10
1324.719595949285
 20
43.00000000000371
 30
0.0
 11
1322.799999999993
 21
44.91959594929502
 31
0.0
  0
LINE
  5
649
330
1F
100
AcDbEntity
  8
調整材穴有475_492_502_
  6
CONTINUOUS
 62
    54
100
AcDbLine
 10
1320.799999999998
 20
46.91959594929024
 30
0.0
 11
1316.800000000002
 21
50.91959594928581
 31
0.0
  0
LINE
  5
64A
330
1F
100
AcDbEntity
  8
調整材穴有475_492_502_
  6
CONTINUOUS
 62
    54
100
AcDbLine
 10
1325.850966799185
 20
43.00000000000166
 30
0.0
 11
1322.799999999996
 21
46.05096679919048
 31
0.0
  0
LINE
  5
64B
330
1F
100
AcDbEntity
  8
調整材穴有475_492_502_
  6
CONTINUOUS
 62
    54
100
AcDbLine
 10
1320.799999999996
 20
48.05096679919082
 30
0.0
 11
1316.800000000001
 21
52.05096679918638
 31
0.0
  0
LINE
  5
64C
330
1F
100
AcDbEntity
  8
調整材穴有475_492_502_
  6
CONTINUOUS
 62
    54
100
AcDbLine
 10
1326.799999999995
 20
43.18233764909026
 30
0.0
 11
1322.799999999999
 21
47.18233764908582
 31
0.0
  0
LINE
  5
64D
330
1F
100
AcDbEntity
  8
調整材穴有475_492_502_
  6
CONTINUOUS
 62
    54
100
AcDbLine
 10
1320.98233764909
 20
48.99999999999541
 30
0.0
 11
1316.799999999998
 21
53.18233764908685
 31
0.0
  0
LINE
  5
64E
330
1F
100
AcDbEntity
  8
調整材穴有475_492_502_
  6
CONTINUOUS
 62
    54
100
AcDbLine
 10
1326.799999999998
 20
44.31370849898572
 30
0.0
 11
1322.799999999997
 21
48.3137084989864
 31
0.0
  0
LINE
  5
64F
330
1F
100
AcDbEntity
  8
調整材穴有475_492_502_
  6
CONTINUOUS
 62
    54
100
AcDbLine
 10
1322.113708498985
 20
48.99999999999848
 30
0.0
 11
1316.800000000007
 21
54.31370849897708
 31
0.0
  0
LINE
  5
650
330
1F
100
AcDbEntity
  8
調整材穴有475_492_502_
  6
CONTINUOUS
 62
    54
100
AcDbLine
 10
1326.799999999996
 20
45.44507934888607
 30
0.0
 11
1316.800000000004
 21
55.44507934887754
 31
0.0
  0
LINE
  5
651
330
1F
100
AcDbEntity
  8
調整材穴有475_492_502_
  6
CONTINUOUS
 62
    54
100
AcDbLine
 10
1326.799999999999
 20
46.57645019878153
 30
0.0
 11
1316.800000000002
 21
56.57645019877812
 31
0.0
  0
LINE
  5
652
330
1F
100
AcDbEntity
  8
調整材穴有475_492_502_
  6
CONTINUOUS
 62
    54
100
AcDbLine
 10
1326.799999999997
 20
47.70782104868199
 30
0.0
 11
1321.507821048674
 21
53.00000000000456
 31
0.0
  0
LINE
  5
653
330
1F
100
AcDbEntity
  8
調整材穴有475_492_502_
  6
CONTINUOUS
 62
    54
100
AcDbLine
 10
1326.799999999995
 20
48.83919189858257
 30
0.0
 11
1322.639191898573
 21
53.00000000000456
 31
0.0
  0
LINE
  5
654
330
1F
100
AcDbEntity
  8
調整材穴有475_492_502_
  6
CONTINUOUS
 62
    54
100
AcDbLine
 10
1326.799999999998
 20
49.9705627484778
 30
0.0
 11
1322.799999999999
 21
53.97056274847604
 31
0.0
  0
LINE
  5
655
330
1F
100
AcDbEntity
  8
調整材穴有475_492_502_
  6
CONTINUOUS
 62
    54
100
AcDbLine
 10
1326.800000000001
 20
51.10193359837315
 30
0.0
 11
1322.799999999999
 21
55.10193359837434
 31
0.0
  0
LINE
  5
656
330
1F
100
AcDbEntity
  8
調整材穴有475_492_502_
  6
CONTINUOUS
 62
    54
100
AcDbLine
 10
1326.799999999999
 20
52.23330444827384
 30
0.0
 11
1322.799999999999
 21
56.23330444827319
 31
0.0
  0
LINE
  5
657
330
1F
100
AcDbEntity
  8
調整材穴有475_492_502_
  6
CONTINUOUS
 62
    54
100
AcDbLine
 10
1326.799999999997
 20
53.3646752981743
 30
0.0
 11
1322.799999999999
 21
57.36467529817155
 31
0.0
  0
LINE
  5
658
330
1F
100
AcDbEntity
  8
調整材穴有475_492_502_
  6
CONTINUOUS
 62
    54
100
AcDbLine
 10
1326.799999999995
 20
54.49604614807488
 30
0.0
 11
1322.799999999999
 21
58.49604614807011
 31
0.0
  0
LINE
  5
659
330
1F
100
AcDbEntity
  8
調整材穴有475_492_502_
  6
CONTINUOUS
 62
    54
100
AcDbLine
 10
1326.799999999998
 20
55.62741699797012
 30
0.0
 11
1322.799999999999
 21
59.62741699796835
 31
0.0
  0
LINE
  5
65A
330
1F
100
AcDbEntity
  8
調整材穴有475_492_502_
  6
CONTINUOUS
 62
    54
100
AcDbLine
 10
1326.799999999996
 20
56.75878784787069
 30
0.0
 11
1322.799999999999
 21
60.75878784786686
 31
0.0
  0
LINE
  5
65B
330
1F
100
AcDbEntity
  8
調整材穴有475_492_502_
  6
CONTINUOUS
 62
    54
100
AcDbLine
 10
1326.799999999993
 20
57.89015869777116
 30
0.0
 11
1322.799999999999
 21
61.8901586977651
 31
0.0
  0
LINE
  5
65C
330
1F
100
AcDbEntity
  8
調整材穴有475_492_502_
  6
CONTINUOUS
 62
    54
100
AcDbLine
 10
1326.800000000002
 20
59.02152954766139
 30
0.0
 11
1322.799999999999
 21
63.02152954766369
 31
0.0
  0
LINE
  5
65D
330
1F
100
AcDbEntity
  8
調整材穴有475_492_502_
  6
CONTINUOUS
 62
    54
100
AcDbLine
 10
1326.8
 20
60.15290039756185
 30
0.0
 11
1322.799999999999
 21
64.15290039756205
 31
0.0
  0
LINE
  5
65E
330
1F
100
AcDbEntity
  8
調整材穴有475_492_502_
  6
CONTINUOUS
 62
    54
100
AcDbLine
 10
1326.799999999997
 20
61.28427124746231
 30
0.0
 11
1322.799999999999
 21
65.28427124746041
 31
0.0
  0
LINE
  5
65F
330
1F
100
AcDbEntity
  8
調整材穴有475_492_502_
  6
CONTINUOUS
 62
    54
100
AcDbLine
 10
1326.800000000001
 20
62.41564209735778
 30
0.0
 11
1322.799999999999
 21
66.41564209735886
 31
0.0
  0
LINE
  5
660
330
1F
100
AcDbEntity
  8
調整材穴有475_492_502_
  6
CONTINUOUS
 62
    54
100
AcDbLine
 10
1326.799999999998
 20
63.54701294725812
 30
0.0
 11
1322.799999999999
 21
67.54701294725716
 31
0.0
  0
LINE
  5
661
330
1F
100
AcDbEntity
  8
調整材穴有475_492_502_
  6
CONTINUOUS
 62
    54
100
AcDbLine
 10
1326.799999999997
 20
64.6783837971587
 30
0.0
 11
1322.799999999999
 21
68.67838379715572
 31
0.0
  0
LINE
  5
662
330
1F
100
AcDbEntity
  8
調整材穴有475_492_502_
  6
CONTINUOUS
 62
    54
100
AcDbLine
 10
1326.799999999999
 20
65.80975464705405
 30
0.0
 11
1322.799999999999
 21
69.80975464705388
 31
0.0
  0
LINE
  5
663
330
1F
100
AcDbEntity
  8
調整材穴有475_492_502_
  6
CONTINUOUS
 62
    54
100
AcDbLine
 10
1326.799999999997
 20
66.94112549695463
 30
0.0
 11
1322.799999999999
 21
70.94112549695252
 31
0.0
  0
LINE
  5
664
330
1F
100
AcDbEntity
  8
調整材穴有475_492_502_
  6
CONTINUOUS
 62
    54
100
AcDbLine
 10
1326.8
 20
68.07249634684986
 30
0.0
 11
1322.797158030662
 21
72.07533831618845
 31
0.0
  0
LINE
  5
665
330
1F
100
AcDbEntity
  8
調整材穴有475_492_502_
  6
CONTINUOUS
 62
    54
100
AcDbLine
 10
1326.799999999998
 20
69.20386719675044
 30
0.0
 11
1319.296987851383
 21
76.70687934536609
 31
0.0
  0
LINE
  5
666
330
1F
100
AcDbEntity
  8
調整材穴有475_492_502_
  6
CONTINUOUS
 62
    54
100
AcDbLine
 10
1326.799999999996
 20
70.3352380466509
 30
0.0
 11
1320.183095704766
 21
76.95214234188059
 31
0.0
  0
LINE
  5
667
330
1F
100
AcDbEntity
  8
調整材穴有475_492_502_
  6
CONTINUOUS
 62
    54
100
AcDbLine
 10
1326.799999999999
 20
71.46660889654636
 30
0.0
 11
1321.266608896541
 21
77.0000000000045
 31
0.0
  0
LINE
  5
668
330
1F
100
AcDbEntity
  8
調整材穴有475_492_502_
  6
CONTINUOUS
 62
    54
100
AcDbLine
 10
1326.799999999997
 20
72.59797974644682
 30
0.0
 11
1322.397979746442
 21
77.00000000000234
 31
0.0
  0
LINE
  5
669
330
1F
100
AcDbEntity
  8
調整材穴有475_492_502_
  6
CONTINUOUS
 62
    54
100
AcDbLine
 10
1326.716548596551
 20
73.81280199979172
 30
0.0
 11
1323.612801999792
 21
76.91654859655087
 31
0.0
  0
LINE
  5
66A
330
1F
100
AcDbEntity
  8
調整材穴有475_492_502_
  6
CONTINUOUS
 62
    54
100
AcDbLine
 10
1321.891168824541
 20
72.98132752230886
 30
0.0
 11
1325.148109576552
 21
76.23826827431897
 31
0.0
  0
LINE
  5
66B
330
1F
100
AcDbEntity
  8
調整材穴有475_492_502_
  6
CONTINUOUS
 62
    54
100
AcDbLine
 10
1321.891168824541
 20
72.98132752230886
 30
0.0
 11
1318.559120539248
 21
76.3133758076021
 31
0.0
  0
LINE
  5
66C
330
1F
100
AcDbEntity
  8
調整材穴有475_492_502_
  6
CONTINUOUS
 62
    54
100
AcDbLine
 10
1322.617351491849
 20
72.5761393397183
 30
0.0
 11
1325.746460667936
 21
75.70524851580542
 31
0.0
  0
LINE
  5
66D
330
1F
100
AcDbEntity
  8
調整材穴有475_492_502_
  6
CONTINUOUS
 62
    54
100
AcDbLine
 10
1322.799999999999
 20
71.6274169979702
 30
0.0
 11
1326.230194556086
 21
75.05761155405646
 31
0.0
  0
LINE
  5
66E
330
1F
100
AcDbEntity
  8
調整材穴有475_492_502_
  6
CONTINUOUS
 62
    54
100
AcDbLine
 10
1322.799999999999
 20
70.49604614807181
 30
0.0
 11
1326.588224898237
 21
74.28427104630892
 31
0.0
  0
LINE
  5
66F
330
1F
100
AcDbEntity
  8
調整材穴有475_492_502_
  6
CONTINUOUS
 62
    54
100
AcDbLine
 10
1321.064068977645
 20
72.67705651930724
 30
0.0
 11
1317.942288814037
 21
75.79883668291536
 31
0.0
  0
LINE
  5
670
330
1F
100
AcDbEntity
  8
調整材穴有475_492_502_
  6
CONTINUOUS
 62
    54
100
AcDbLine
 10
1320.799999999999
 20
71.80975464705391
 30
0.0
 11
1317.439768103268
 21
75.16998654378558
 31
0.0
  0
LINE
  5
671
330
1F
100
AcDbEntity
  8
調整材穴有475_492_502_
  6
CONTINUOUS
 62
    54
100
AcDbLine
 10
1320.799999999999
 20
70.67838379715569
 30
0.0
 11
1317.059943063803
 21
74.41844073335251
 31
0.0
  0
LINE
  5
672
330
1F
100
AcDbEntity
  8
調整材穴有475_492_502_
  6
CONTINUOUS
 62
    54
100
AcDbLine
 10
1320.799999999999
 20
69.54701294725713
 30
0.0
 11
1316.833144872591
 21
73.5138680746655
 31
0.0
  0
LINE
  5
673
330
1F
100
AcDbEntity
  8
調整材穴有475_492_502_
  6
CONTINUOUS
 62
    54
100
AcDbLine
 10
1320.799999999999
 20
68.41564209735886
 30
0.0
 11
1316.800000000004
 21
72.41564209735425
 31
0.0
  0
LINE
  5
674
330
1F
100
AcDbEntity
  8
調整材穴有475_492_502_
  6
CONTINUOUS
 62
    54
100
AcDbLine
 10
1320.799999999999
 20
67.28427124746041
 30
0.0
 11
1316.800000000001
 21
71.2842712474589
 31
0.0
  0
LINE
  5
675
330
1F
100
AcDbEntity
  8
調整材穴有475_492_502_
  6
CONTINUOUS
 62
    54
100
AcDbLine
 10
1320.799999999999
 20
66.15290039756208
 30
0.0
 11
1316.800000000003
 21
70.15290039755844
 31
0.0
  0
LINE
  5
676
330
1F
100
AcDbEntity
  8
調整材穴有475_492_502_
  6
CONTINUOUS
 62
    54
100
AcDbLine
 10
1320.799999999999
 20
65.02152954766366
 30
0.0
 11
1316.800000000005
 21
69.02152954765798
 31
0.0
  0
LINE
  5
677
330
1F
100
AcDbEntity
  8
調整材穴有475_492_502_
  6
CONTINUOUS
 62
    54
100
AcDbLine
 10
1320.799999999999
 20
63.89015869776502
 30
0.0
 11
1316.800000000002
 21
67.89015869776252
 31
0.0
  0
LINE
  5
678
330
1F
100
AcDbEntity
  8
調整材穴有475_492_502_
  6
CONTINUOUS
 62
    54
100
AcDbLine
 10
1320.799999999999
 20
62.75878784786697
 30
0.0
 11
1316.799999999999
 21
66.75878784786728
 31
0.0
  0
LINE
  5
679
330
1F
100
AcDbEntity
  8
調整材穴有475_492_502_
  6
CONTINUOUS
 62
    54
100
AcDbLine
 10
1320.799999999999
 20
61.6274169979683
 30
0.0
 11
1316.800000000001
 21
65.6274169979667
 31
0.0
  0
LINE
  5
67A
330
1F
100
AcDbEntity
  8
調整材穴有475_492_502_
  6
CONTINUOUS
 62
    54
100
AcDbLine
 10
1320.799999999999
 20
60.49604614807011
 30
0.0
 11
1316.800000000003
 21
64.49604614806624
 31
0.0
  0
LINE
  5
67B
330
1F
100
AcDbEntity
  8
調整材穴有475_492_502_
  6
CONTINUOUS
 62
    54
100
AcDbLine
 10
1320.799999999999
 20
59.36467529817143
 30
0.0
 11
1316.800000000005
 21
63.36467529816566
 31
0.0
  0
LINE
  5
67C
330
1F
100
AcDbEntity
  8
調整材穴有475_492_502_
  6
CONTINUOUS
 62
    54
100
AcDbLine
 10
1320.799999999999
 20
58.23330444827322
 30
0.0
 11
1316.800000000002
 21
62.23330444827032
 31
0.0
  0
LINE
  5
67D
330
1F
100
AcDbEntity
  8
調整材穴有475_492_502_
  6
CONTINUOUS
 62
    54
100
AcDbLine
 10
1320.799999999999
 20
57.10193359837443
 30
0.0
 11
1316.800000000004
 21
61.10193359836974
 31
0.0
  0
LINE
  5
67E
330
1F
100
AcDbEntity
  8
調整材穴有475_492_502_
  6
CONTINUOUS
 62
    54
100
AcDbLine
 10
1320.799999999999
 20
55.97056274847607
 30
0.0
 11
1316.800000000001
 21
59.97056274847439
 31
0.0
  0
LINE
  5
67F
330
1F
100
AcDbEntity
  8
調整材穴有475_492_502_
  6
CONTINUOUS
 62
    54
100
AcDbLine
 10
1320.799999999999
 20
54.83919189857779
 30
0.0
 11
1316.800000000003
 21
58.83919189857393
 31
0.0
  0
LINE
  5
680
330
1F
100
AcDbEntity
  8
調整材穴有475_492_502_
  6
CONTINUOUS
 62
    54
100
AcDbLine
 10
1320.799999999999
 20
53.70782104867926
 30
0.0
 11
1316.800000000005
 21
57.70782104867335
 31
0.0
  0
LINE
  5
681
330
1F
100
AcDbEntity
  8
調整材穴有475_492_502_
  6
CONTINUOUS
 62
    54
100
AcDbLine
 10
1322.799999999999
 20
53.52548339959573
 30
0.0
 11
1326.799999999999
 21
57.52548339959556
 31
0.0
  0
LINE
  5
682
330
1F
100
AcDbEntity
  8
調整材穴有475_492_502_
  6
CONTINUOUS
 62
    54
100
AcDbLine
 10
1322.799999999999
 20
54.65685424949397
 30
0.0
 11
1326.799999999997
 21
58.65685424949091
 31
0.0
  0
LINE
  5
683
330
1F
100
AcDbEntity
  8
調整材穴有475_492_502_
  6
CONTINUOUS
 62
    54
100
AcDbLine
 10
1322.799999999999
 20
55.78822509939233
 30
0.0
 11
1326.799999999993
 21
59.78822509938625
 31
0.0
  0
LINE
  5
684
330
1F
100
AcDbEntity
  8
調整材穴有475_492_502_
  6
CONTINUOUS
 62
    54
100
AcDbLine
 10
1322.799999999999
 20
56.91959594929084
 30
0.0
 11
1326.800000000001
 21
60.91959594929195
 31
0.0
  0
LINE
  5
685
330
1F
100
AcDbEntity
  8
調整材穴有475_492_502_
  6
CONTINUOUS
 62
    54
100
AcDbLine
 10
1322.799999999999
 20
58.05096679918931
 30
0.0
 11
1326.799999999997
 21
62.05096679918729
 31
0.0
  0
LINE
  5
686
330
1F
100
AcDbEntity
  8
調整材穴有475_492_502_
  6
CONTINUOUS
 62
    54
100
AcDbLine
 10
1322.799999999999
 20
59.18233764908764
 30
0.0
 11
1326.8
 21
63.18233764908776
 31
0.0
  0
LINE
  5
687
330
1F
100
AcDbEntity
  8
調整材穴有475_492_502_
  6
CONTINUOUS
 62
    54
100
AcDbLine
 10
1322.799999999999
 20
60.31370849898606
 30
0.0
 11
1326.799999999997
 21
64.31370849898322
 31
0.0
  0
LINE
  5
688
330
1F
100
AcDbEntity
  8
調整材穴有475_492_502_
  6
CONTINUOUS
 62
    54
100
AcDbLine
 10
1322.799999999999
 20
61.44507934888459
 30
0.0
 11
1326.799999999993
 21
65.44507934887845
 31
0.0
  0
LINE
  5
689
330
1F
100
AcDbEntity
  8
調整材穴有475_492_502_
  6
CONTINUOUS
 62
    54
100
AcDbLine
 10
1322.799999999999
 20
62.57645019878292
 30
0.0
 11
1326.800000000001
 21
66.57645019878414
 31
0.0
  0
LINE
  5
68A
330
1F
100
AcDbEntity
  8
調整材穴有475_492_502_
  6
CONTINUOUS
 62
    54
100
AcDbLine
 10
1322.799999999999
 20
63.70782104868134
 30
0.0
 11
1326.799999999998
 21
67.70782104867949
 31
0.0
  0
LINE
  5
68B
330
1F
100
AcDbEntity
  8
調整材穴有475_492_502_
  6
CONTINUOUS
 62
    54
100
AcDbLine
 10
1322.799999999999
 20
64.83919189857973
 30
0.0
 11
1326.8
 21
68.83919189858007
 31
0.0
  0
LINE
  5
68C
330
1F
100
AcDbEntity
  8
調整材穴有475_492_502_
  6
CONTINUOUS
 62
    54
100
AcDbLine
 10
1322.799999999999
 20
65.9705627484782
 30
0.0
 11
1326.799999999997
 21
69.9705627484753
 31
0.0
  0
LINE
  5
68D
330
1F
100
AcDbEntity
  8
調整材穴有475_492_502_
  6
CONTINUOUS
 62
    54
100
AcDbLine
 10
1322.799999999999
 20
67.10193359837653
 30
0.0
 11
1326.800000000004
 21
71.10193359838111
 31
0.0
  0
LINE
  5
68E
330
1F
100
AcDbEntity
  8
調整材穴有475_492_502_
  6
CONTINUOUS
 62
    54
100
AcDbLine
 10
1322.799999999999
 20
68.233304448275
 30
0.0
 11
1326.800000000001
 21
72.23330444827634
 31
0.0
  0
LINE
  5
68F
330
1F
100
AcDbEntity
  8
調整材穴有475_492_502_
  6
CONTINUOUS
 62
    54
100
AcDbLine
 10
1322.799999999999
 20
69.36467529817328
 30
0.0
 11
1326.784711860742
 21
73.34938715891617
 31
0.0
  0
ENDSEC
  0
SECTION
  2
OBJECTS
  0
DICTIONARY
  5
C
330
0
100
AcDbDictionary
  3
ACAD_GROUP
350
D
  3
ACAD_LAYOUT
350
1A
  3
ACAD_MATERIAL
350
43
  3
ACAD_MLEADERSTYLE
350
6B
  3
ACAD_MLINESTYLE
350
17
  3
ACAD_PLOTSETTINGS
350
19
  3
ACAD_SCALELIST
350
47
  3
ACAD_VISUALSTYLE
350
2A
  3
ACDBHEADERROUNDTRIPXREC
350
690
  3
ACDBVARIABLEDICTIONARY
350
6B1
  0
DICTIONARY
  5
6BA
330
8
100
AcDbDictionary
280
     1
  3
ACAD_XREC_ROUNDTRIP
360
6BB
  0
DICTIONARY
  5
D
102
{ACAD_REACTORS
330
C
102
}
330
C
100
AcDbDictionary
  0
DICTIONARY
  5
1A
102
{ACAD_REACTORS
330
C
102
}
330
C
100
AcDbDictionary
  0
DICTIONARY
  5
43
102
{ACAD_REACTORS
330
C
102
}
330
C
100
AcDbDictionary
  3
BYBLOCK
350
45
  3
BYLAYER
350
44
  3
GLOBAL
350
46
  0
DICTIONARY
  5
6B
102
{ACAD_REACTORS
330
C
102
}
330
C
100
AcDbDictionary
  3
STANDARD
350
6C
  0
DICTIONARY
  5
17
102
{ACAD_REACTORS
330
C
102
}
330
C
100
AcDbDictionary
  3
STANDARD
350
18
  0
DICTIONARY
  5
19
102
{ACAD_REACTORS
330
C
102
}
330
C
100
AcDbDictionary
  0
DICTIONARY
  5
47
102
{ACAD_REACTORS
330
C
102
}
330
C
100
AcDbDictionary
  3
A0
350
48
  3
A1
350
49
  3
A2
350
4A
  3
A3
350
4B
  3
A4
350
4C
  3
A5
350
4D
  3
A6
350
4E
  3
A7
350
4F
  3
A8
350
50
  3
A9
350
51
  3
B0
350
52
  3
B1
350
53
  3
B2
350
54
  3
B3
350
55
  3
B4
350
56
  3
B5
350
57
  3
B6
350
58
  3
B7
350
59
  3
B8
350
5A
  3
B9
350
5B
  3
C0
350
5C
  3
C1
350
5D
  3
C2
350
5E
  3
C3
350
5F
  3
C4
350
60
  3
C5
350
61
  3
C6
350
62
  3
C7
350
63
  3
C8
350
64
  3
C9
350
65
  3
D0
350
66
  3
D1
350
67
  3
D2
350
68
  0
DICTIONARY
  5
2A
102
{ACAD_REACTORS
330
C
102
}
330
C
100
AcDbDictionary
  3
2DWIREFRAME
350
2F
  3
BASIC
350
32
  3
BRIGHTEN
350
36
  3
COLORCHANGE
350
3A
  3
CONCEPTUAL
350
34
  3
DIM
350
35
  3
EDGECOLOROFF
350
3D
  3
FACEPATTERN
350
39
  3
FLAT
350
2B
  3
FLATWITHEDGES
350
2C
  3
GOURAUD
350
2D
  3
GOURAUDWITHEDGES
350
2E
  3
HIDDEN
350
31
  3
JITTEROFF
350
3B
  3
LINEPATTERN
350
38
  3
OVERHANGOFF
350
3C
  3
REALISTIC
350
33
  3
SHADED
350
42
  3
SHADED_WITH_EDGES
350
41
  3
SHADES_OF_GRAY
350
3E
  3
SKETCHY
350
3F
  3
THICKEN
350
37
  3
WIREFRAME
350
30
  3
X-RAY
350
40
  0
DICTIONARY
  5
690
102
{ACAD_REACTORS
330
C
102
}
330
C
100
AcDbDictionary
  3
CEPSNID
350
69A
  3
CEPSNTYPE
350
699
  3
DIMSTYLEDATA
350
6B0
  3
FINGERPRINTGUID
350
69B
  3
HYPERLINKBASE
350
693
  3
INSUNITS
350
698
  3
LAYOUTDICT
350
695
  3
LWETCUNION
350
697
  3
PLOTSETDICT
350
696
  3
PSVPSCALE
350
69D
  3
PUCSBASE
350
6A0
  3
PUCSORGBACK
350
6A6
  3
PUCSORGBOTTOM
350
6A2
  3
PUCSORGFRONT
350
6A5
  3
PUCSORGLEFT
350
6A3
  3
PUCSORGRIGHT
350
6A4
  3
PUCSORGTOP
350
6A1
  3
PUCSORTHOREF
350
69E
  3
PUCSORTHOVIEW
350
69F
  3
STYLESHEET
350
694
  3
TSTACKALIGN
350
691
  3
TSTACKSIZE
350
692
  3
UCSBASE
350
6A9
  3
UCSORGBACK
350
6AF
  3
UCSORGBOTTOM
350
6AB
  3
UCSORGFRONT
350
6AE
  3
UCSORGLEFT
350
6AC
  3
UCSORGRIGHT
350
6AD
  3
UCSORGTOP
350
6AA
  3
UCSORTHOREF
350
6A7
  3
UCSORTHOVIEW
350
6A8
  3
VERSIONGUID
350
69C
  0
DICTIONARY
  5
6B1
102
{ACAD_REACTORS
330
C
102
}
330
C
100
AcDbDictionary
  3
CANNOSCALE
350
6BC
  3
CMLEADERSTYLE
350
6B3
  3
CTABLESTYLE
350
6B2
  3
DIMASSOC
350
6B8
  3
HIDETEXT
350
6B9
  3
MSLTSCALE
350
6BD
  3
PSOLHEIGHT
350
6B5
  3
PSOLWIDTH
350
6B4
  0
XRECORD
  5
6BB
102
{ACAD_REACTORS
330
6BA
102
}
330
6BA
100
AcDbXrecord
102
VTR_0.000_0.000_1.000_1.000_VISUALSTYLE
340
2F
102
VTR_0.000_0.000_1.000_1.000_GRIDDISPLAY
 70
     3
102
VTR_0.000_0.000_1.000_1.000_GRIDMAJOR
 70
     5
102
VTR_0.000_0.000_1.000_1.000_DEFAULTLIGHTING
280
     1
102
VTR_0.000_0.000_1.000_1.000_DEFAULTLIGHTINGTYPE
 70
     1
102
VTR_0.000_0.000_1.000_1.000_BRIGHTNESS
141
0.0
102
VTR_0.000_0.000_1.000_1.000_CONTRAST
142
0.0
  0
MATERIAL
  5
45
102
{ACAD_REACTORS
330
43
102
}
102
{ACAD_XDICTIONARY
360
6C0
102
}
330
43
100
AcDbMaterial
  1
BYBLOCK
  0
MATERIAL
  5
44
102
{ACAD_REACTORS
330
43
102
}
102
{ACAD_XDICTIONARY
360
6BE
102
}
330
43
100
AcDbMaterial
  1
BYLAYER
  0
MATERIAL
  5
46
102
{ACAD_REACTORS
330
43
102
}
102
{ACAD_XDICTIONARY
360
6C2
102
}
330
43
100
AcDbMaterial
  1
GLOBAL
  0
ACAD_PROXY_OBJECT
  5
6C
102
{ACAD_REACTORS
330
6B
102
}
330
6B
100
AcDbProxyObject
 90
      499
 91
      505
 93
      610
310
40901902A4063FBFFFFFE0000000000000020400000000000020404214DD185B99185C990000000000000104090141901A00000000000004100000000000000041025764000000000000039000
340
14
340
0
340
11
340
0
 94
        0
1001
ACAD_MLEADERVER
1070
     2
  0
MLINESTYLE
  5
18
102
{ACAD_REACTORS
330
17
102
}
330
17
100
AcDbMlineStyle
  2
Standard
 70
     0
  3

 62
   256
 51
90.0
 52
90.0
 71
     2
 49
0.5
 62
   256
  6
BYLAYER
 49
-0.5
 62
   256
  6
BYLAYER
  0
ACAD_PROXY_OBJECT
  5
48
102
{ACAD_REACTORS
330
47
102
}
330
47
100
AcDbProxyObject
 90
      499
 91
      503
 93
       41
310
903313A31580
  0
ACAD_PROXY_OBJECT
  5
49
102
{ACAD_REACTORS
330
47
102
}
330
47
100
AcDbProxyObject
 90
      499
 91
      503
 93
      105
310
903313A324000000000000004000
  0
ACAD_PROXY_OBJECT
  5
4A
102
{ACAD_REACTORS
330
47
102
}
330
47
100
AcDbProxyObject
 90
      499
 91
      503
 93
      105
310
903313A344000000000000104000
  0
ACAD_PROXY_OBJECT
  5
4B
102
{ACAD_REACTORS
330
47
102
}
330
47
100
AcDbProxyObject
 90
      499
 91
      503
 93
      105
310
903313A354000000000000144000
  0
ACAD_PROXY_OBJECT
  5
4C
102
{ACAD_REACTORS
330
47
102
}
330
47
100
AcDbProxyObject
 90
      499
 91
      503
 93
      105
310
903313A384000000000000204000
  0
ACAD_PROXY_OBJECT
  5
4D
102
{ACAD_REACTORS
330
47
102
}
330
47
100
AcDbProxyObject
 90
      499
 91
      503
 93
      113
310
904313A31304000000000000244000
  0
ACAD_PROXY_OBJECT
  5
4E
102
{ACAD_REACTORS
330
47
102
}
330
47
100
AcDbProxyObject
 90
      499
 91
      503
 93
      113
310
904313A31364000000000000304000
  0
ACAD_PROXY_OBJECT
  5
4F
102
{ACAD_REACTORS
330
47
102
}
330
47
100
AcDbProxyObject
 90
      499
 91
      503
 93
      113
310
904313A32304000000000000344000
  0
ACAD_PROXY_OBJECT
  5
50
102
{ACAD_REACTORS
330
47
102
}
330
47
100
AcDbProxyObject
 90
      499
 91
      503
 93
      113
310
904313A333040000000000003E4000
  0
ACAD_PROXY_OBJECT
  5
51
102
{ACAD_REACTORS
330
47
102
}
330
47
100
AcDbProxyObject
 90
      499
 91
      503
 93
      113
310
904313A34304000000000000444000
  0
ACAD_PROXY_OBJECT
  5
52
102
{ACAD_REACTORS
330
47
102
}
330
47
100
AcDbProxyObject
 90
      499
 91
      503
 93
      113
310
904313A35304000000000000494000
  0
ACAD_PROXY_OBJECT
  5
53
102
{ACAD_REACTORS
330
47
102
}
330
47
100
AcDbProxyObject
 90
      499
 91
      503
 93
      121
310
905313A3130304000000000000594000
  0
ACAD_PROXY_OBJECT
  5
54
102
{ACAD_REACTORS
330
47
102
}
330
47
100
AcDbProxyObject
 90
      499
 91
      503
 93
      105
310
903323A310000000000000010100
  0
ACAD_PROXY_OBJECT
  5
55
102
{ACAD_REACTORS
330
47
102
}
330
47
100
AcDbProxyObject
 90
      499
 91
      503
 93
      105
310
903343A310000000000000410100
  0
ACAD_PROXY_OBJECT
  5
56
102
{ACAD_REACTORS
330
47
102
}
330
47
100
AcDbProxyObject
 90
      499
 91
      503
 93
      105
310
903383A310000000000000810100
  0
ACAD_PROXY_OBJECT
  5
57
102
{ACAD_REACTORS
330
47
102
}
330
47
100
AcDbProxyObject
 90
      499
 91
      503
 93
      113
310
90431303A310000000000000910100
  0
ACAD_PROXY_OBJECT
  5
58
102
{ACAD_REACTORS
330
47
102
}
330
47
100
AcDbProxyObject
 90
      499
 91
      503
 93
      121
310
9053130303A310000000000001650100
  0
ACAD_PROXY_OBJECT
  5
59
102
{ACAD_REACTORS
330
47
102
}
330
47
100
AcDbProxyObject
 90
      499
 91
      503
 93
      257
310
90E312F31323822203D2031272D3022000000000000200FC000000000000284000
  0
ACAD_PROXY_OBJECT
  5
5A
102
{ACAD_REACTORS
330
47
102
}
330
47
100
AcDbProxyObject
 90
      499
 91
      503
 93
      249
310
90D312F363422203D2031272D3022000000000000240FC000000000000284000
  0
ACAD_PROXY_OBJECT
  5
5B
102
{ACAD_REACTORS
330
47
102
}
330
47
100
AcDbProxyObject
 90
      499
 91
      503
 93
      249
310
90D312F333222203D2031272D3022000000000000280FC000000000000284000
  0
ACAD_PROXY_OBJECT
  5
5C
102
{ACAD_REACTORS
330
47
102
}
330
47
100
AcDbProxyObject
 90
      499
 91
      503
 93
      249
310
90D312F313622203D2031272D30220000000000002C0FC000000000000284000
  0
ACAD_PROXY_OBJECT
  5
5D
102
{ACAD_REACTORS
330
47
102
}
330
47
100
AcDbProxyObject
 90
      499
 91
      503
 93
      249
310
90D332F333222203D2031272D30220000000000002E0FC000000000000284000
  0
ACAD_PROXY_OBJECT
  5
5E
102
{ACAD_REACTORS
330
47
102
}
330
47
100
AcDbProxyObject
 90
      499
 91
      503
 93
      241
310
90C312F3822203D2031272D3022000000000000300FC000000000000284000
  0
ACAD_PROXY_OBJECT
  5
5F
102
{ACAD_REACTORS
330
47
102
}
330
47
100
AcDbProxyObject
 90
      499
 91
      503
 93
      249
310
90D332F313622203D2031272D3022000000000000320FC000000000000284000
  0
ACAD_PROXY_OBJECT
  5
60
102
{ACAD_REACTORS
330
47
102
}
330
47
100
AcDbProxyObject
 90
      499
 91
      503
 93
      241
310
90C312F3422203D2031272D3022000000000000340FC000000000000284000
  0
ACAD_PROXY_OBJECT
  5
61
102
{ACAD_REACTORS
330
47
102
}
330
47
100
AcDbProxyObject
 90
      499
 91
      503
 93
      241
310
90C332F3822203D2031272D3022000000000000360FC000000000000284000
  0
ACAD_PROXY_OBJECT
  5
62
102
{ACAD_REACTORS
330
47
102
}
330
47
100
AcDbProxyObject
 90
      499
 91
      503
 93
      241
310
90C312F3222203D2031272D3022000000000000380FC000000000000284000
  0
ACAD_PROXY_OBJECT
  5
63
102
{ACAD_REACTORS
330
47
102
}
330
47
100
AcDbProxyObject
 90
      499
 91
      503
 93
      241
310
90C332F3422203D2031272D30220000000000003A0FC000000000000284000
  0
ACAD_PROXY_OBJECT
  5
64
102
{ACAD_REACTORS
330
47
102
}
330
47
100
AcDbProxyObject
 90
      499
 91
      503
 93
      161
310
90A3122203D2031272D30224000000000000284000
  0
ACAD_PROXY_OBJECT
  5
65
102
{ACAD_REACTORS
330
47
102
}
330
47
100
AcDbProxyObject
 90
      499
 91
      503
 93
      257
310
90E312D312F3222203D2031272D30220000000000003E0FC000000000000284000
  0
ACAD_PROXY_OBJECT
  5
66
102
{ACAD_REACTORS
330
47
102
}
330
47
100
AcDbProxyObject
 90
      499
 91
      503
 93
      225
310
90A3322203D2031272D302200000000000002100000000000000284000
  0
ACAD_PROXY_OBJECT
  5
67
102
{ACAD_REACTORS
330
47
102
}
330
47
100
AcDbProxyObject
 90
      499
 91
      503
 93
      225
310
90A3622203D2031272D302200000000000006100000000000000284000
  0
ACAD_PROXY_OBJECT
  5
68
102
{ACAD_REACTORS
330
47
102
}
330
47
100
AcDbProxyObject
 90
      499
 91
      503
 93
      249
310
90D31272D3022203D2031272D30220000000000000A100000000000000284000
  0
ACAD_PROXY_OBJECT
  5
2F
102
{ACAD_REACTORS
330
2A
102
}
330
2A
100
AcDbProxyObject
 90
      499
 91
      501
 93
      436
310
42CC9915DA5C99599C985B595049028333333333333E33F0000000000000F90107901411070040501600405405064090741402480A0340
1001
ACAD
1000
AcDbSavedByObjectVersion
1070
     0
  0
ACAD_PROXY_OBJECT
  5
32
102
{ACAD_REACTORS
330
2A
102
}
330
2A
100
AcDbProxyObject
 90
      499
 91
      501
 93
      388
310
4150985CDA58D07406404333333333333E33F0000000000000F90107A41107004050150841D405064090741402480A0350
1001
ACAD
1000
AcDbSavedByObjectVersion
1070
     0
  0
ACAD_PROXY_OBJECT
  5
36
102
{ACAD_REACTORS
330
2A
102
}
330
2A
100
AcDbProxyObject
 90
      499
 91
      501
 93
      428
310
42109C9A59DA1D195B90C409028333333333333E33F0000000000000F9010790141107004050150841D405064090741402480A029950
1001
ACAD
1000
AcDbSavedByObjectVersion
1070
     0
  0
ACAD_PROXY_OBJECT
  5
3A
102
{ACAD_REACTORS
330
2A
102
}
330
2A
100
AcDbProxyObject
 90
      499
 91
      501
 93
      452
310
42D0DBDB1BDC90DA185B99D95104090240C333333333333E33F0000000000000F90108901411070040501508421405064090741402480A0350
1001
ACAD
1000
AcDbSavedByObjectVersion
1070
     0
  0
ACAD_PROXY_OBJECT
  5
34
102
{ACAD_REACTORS
330
2A
102
}
330
2A
100
AcDbProxyObject
 90
      499
 91
      501
 93
      500
310
4290DBDB98D95C1D1D585B10940D028333333333333E33F0000000000000F90107902409070040501000000000018199010841D405064090740C02480A0340
1001
ACAD
1000
AcDbSavedByObjectVersion
1070
     0
  0
ACAD_PROXY_OBJECT
  5
35
102
{ACAD_REACTORS
330
2A
102
}
330
2A
100
AcDbProxyObject
 90
      499
 91
      501
 93
      412
310
40D11A5B50B409028333333333333E33F0000000000000F9010790141107004050150841D405064090741402480A02677FFFFFD0
1001
ACAD
1000
AcDbSavedByObjectVersion
1070
     0
  0
ACAD_PROXY_OBJECT
  5
3D
102
{ACAD_REACTORS
330
2A
102
}
330
2A
100
AcDbProxyObject
 90
      499
 91
      501
 93
      452
310
43115919D950DBDB1BDC93D999916409028333333333333E33F0000000000000F9010790141107004050150841D405064090741402480A0350
1001
ACAD
1000
AcDbSavedByObjectVersion
1070
     0
  0
ACAD_PROXY_OBJECT
  5
39
102
{ACAD_REACTORS
330
2A
102
}
330
2A
100
AcDbProxyObject
 90
      499
 91
      501
 93
      444
310
42D19858D95C185D1D195C9B90F409028333333333333E33F0000000000000F9010790141107004050150841D405064090741402480A0350
1001
ACAD
1000
AcDbSavedByObjectVersion
1070
     0
  0
ACAD_PROXY_OBJECT
  5
2B
102
{ACAD_REACTORS
330
2A
102
}
330
2A
100
AcDbProxyObject
 90
      499
 91
      501
 93
      380
310
41119B185D240901404333333333333E33F0000000000000F9010740A907004050150841D405064090741402480A1B50
1001
ACAD
1000
AcDbSavedByObjectVersion
1070
     0
  0
ACAD_PROXY_OBJECT
  5
2C
102
{ACAD_REACTORS
330
2A
102
}
330
2A
100
AcDbProxyObject
 90
      499
 91
      501
 93
      468
310
43519B185D15DA5D1A115919D95CD0140901404333333333333E33F0000000000000F90107409019070040501600405405064090741402480A1B50
1001
ACAD
1000
AcDbSavedByObjectVersion
1070
     0
  0
ACAD_PROXY_OBJECT
  5
2D
102
{ACAD_REACTORS
330
2A
102
}
330
2A
100
AcDbProxyObject
 90
      499
 91
      501
 93
      404
310
41D1DBDD5C985D5910240902404333333333333E33F0000000000000F9010740A9070040501641D405064090741402480A1B50
1001
ACAD
1000
AcDbSavedByObjectVersion
1070
     0
  0
ACAD_PROXY_OBJECT
  5
2E
102
{ACAD_REACTORS
330
2A
102
}
330
2A
100
AcDbProxyObject
 90
      499
 91
      501
 93
      492
310
4411DBDD5C985D5915DA5D1A115919D95CD0340902404333333333333E33F0000000000000F90107409019070040501600405405064090741402480A1B50
1001
ACAD
1000
AcDbSavedByObjectVersion
1070
     0
  0
ACAD_PROXY_OBJECT
  5
31
102
{ACAD_REACTORS
330
2A
102
}
330
2A
100
AcDbProxyObject
 90
      499
 91
      501
 93
      476
310
41921A5919195B90640502408333333333333E33F0000000000000F901079024090700405020000000000001110200405405064090740C02480A0340
1001
ACAD
1000
AcDbSavedByObjectVersion
1070
     0
  0
ACAD_PROXY_OBJECT
  5
3B
102
{ACAD_REACTORS
330
2A
102
}
330
2A
100
AcDbProxyObject
 90
      499
 91
      501
 93
      428
310
42529A5D1D195C93D999914409028333333333333E33F0000000000000F9010790141107004050150A41D405064090741402480A0350
1001
ACAD
1000
AcDbSavedByObjectVersion
1070
     0
  0
ACAD_PROXY_OBJECT
  5
38
102
{ACAD_REACTORS
330
2A
102
}
330
2A
100
AcDbProxyObject
 90
      499
 91
      501
 93
      444
310
42D31A5B995C185D1D195C9B90E409028333333333333E33F0000000000000F9010790141107004050750841D405064090741402483A0350
1001
ACAD
1000
AcDbSavedByObjectVersion
1070
     0
  0
ACAD_PROXY_OBJECT
  5
3C
102
{ACAD_REACTORS
330
2A
102
}
330
2A
100
AcDbProxyObject
 90
      499
 91
      501
 93
      444
310
42D3DD995C9A185B99D3D999915409028333333333333E33F0000000000000F9010790141107004050150941D405064090741402480A0350
1001
ACAD
1000
AcDbSavedByObjectVersion
1070
     0
  0
ACAD_PROXY_OBJECT
  5
33
102
{ACAD_REACTORS
330
2A
102
}
330
2A
100
AcDbProxyObject
 90
      499
 91
      501
 93
      428
310
425499585B1A5CDD1A58D08409038333333333333E33F0000000000000F9010740A907004050150800405405064090740C02480A1B40
1001
ACAD
1000
AcDbSavedByObjectVersion
1070
     0
  0
ACAD_PROXY_OBJECT
  5
42
102
{ACAD_REACTORS
330
2A
102
}
330
2A
100
AcDbProxyObject
 90
      499
 91
      501
 93
      420
310
4194DA1859195911B40902404333333333333E33F0000000000000F9010740A41107004050150800405405064090840C02480A0B40
1001
ACAD
1000
AcDbSavedByObjectVersion
1070
     0
  0
ACAD_PROXY_OBJECT
  5
41
102
{ACAD_REACTORS
330
2A
102
}
330
2A
100
AcDbProxyObject
 90
      499
 91
      501
 93
      516
310
4454DA18591959081DDA5D1A08195919D95CD1A40902404333333333333E33F0000000000000F901074090142907004050250800405405064090740C02480A0B40
1001
ACAD
1000
AcDbSavedByObjectVersion
1070
     0
  0
ACAD_PROXY_OBJECT
  5
3E
102
{ACAD_REACTORS
330
2A
102
}
330
2A
100
AcDbProxyObject
 90
      499
 91
      501
 93
      532
310
4394DA1859195CC81BD98811DC985E5174090240C333333333333E33F0000000000000F901079024090741D01000000000000111010841D405064090740C02480A0340
1001
ACAD
1000
AcDbSavedByObjectVersion
1070
     0
  0
ACAD_PROXY_OBJECT
  5
3F
102
{ACAD_REACTORS
330
2A
102
}
330
2A
100
AcDbProxyObject
 90
      499
 91
      501
 93
      476
310
41D4DAD95D18DA1E51840502408333333333333E33F0000000000000F901079024090741D01000000000000111010B41D405064090741802480A0340
1001
ACAD
1000
AcDbSavedByObjectVersion
1070
     0
  0
ACAD_PROXY_OBJECT
  5
37
102
{ACAD_REACTORS
330
2A
102
}
330
2A
100
AcDbProxyObject
 90
      499
 91
      501
 93
      412
310
41D51A1A58DAD95B90D409028333333333333E33F0000000000000F9010790141107004050150C41D405064090741402480A0350
1001
ACAD
1000
AcDbSavedByObjectVersion
1070
     0
  0
ACAD_PROXY_OBJECT
  5
30
102
{ACAD_REACTORS
330
2A
102
}
330
2A
100
AcDbProxyObject
 90
      499
 91
      501
 93
      420
310
4255DA5C99599C985B595059028333333333333E33F0000000000000F90107901411070040501600405405064090740C02480A0340
1001
ACAD
1000
AcDbSavedByObjectVersion
1070
     0
  0
ACAD_PROXY_OBJECT
  5
40
102
{ACAD_REACTORS
330
2A
102
}
330
2A
100
AcDbProxyObject
 90
      499
 91
      501
 93
      404
310
41560B54985E51940902404000000000000E03F0000000000000F9010740501907004050150841D405064090740C02480A1B40
1001
ACAD
1000
AcDbSavedByObjectVersion
1070
     0
  0
XRECORD
  5
69A
102
{ACAD_REACTORS
330
690
102
}
330
690
100
AcDbXrecord
340
0
  0
XRECORD
  5
699
102
{ACAD_REACTORS
330
690
102
}
330
690
100
AcDbXrecord
 90
        0
  0
XRECORD
  5
6B0
102
{ACAD_REACTORS
330
690
102
}
330
690
100
AcDbXrecord
1000
DSTYLE
1002
{
1070
   340
340
11
1002
}
  0
XRECORD
  5
69B
102
{ACAD_REACTORS
330
690
102
}
330
690
100
AcDbXrecord
  1
{EF759F42-DE3E-4C38-A079-2EBA701C77EB}
  0
XRECORD
  5
693
102
{ACAD_REACTORS
330
690
102
}
330
690
100
AcDbXrecord
  1

  0
XRECORD
  5
698
102
{ACAD_REACTORS
330
690
102
}
330
690
100
AcDbXrecord
 90
        4
  0
XRECORD
  5
695
102
{ACAD_REACTORS
330
690
102
}
330
690
100
AcDbXrecord
340
1A
  0
XRECORD
  5
697
102
{ACAD_REACTORS
330
690
102
}
330
690
100
AcDbXrecord
 90
    10781
  0
XRECORD
  5
696
102
{ACAD_REACTORS
330
690
102
}
330
690
100
AcDbXrecord
340
19
  0
XRECORD
  5
69D
102
{ACAD_REACTORS
330
690
102
}
330
690
100
AcDbXrecord
 40
0.0
  0
XRECORD
  5
6A0
102
{ACAD_REACTORS
330
690
102
}
330
690
100
AcDbXrecord
340
0
  0
XRECORD
  5
6A6
102
{ACAD_REACTORS
330
690
102
}
330
690
100
AcDbXrecord
 10
0.0
 20
0.0
 30
0.0
  0
XRECORD
  5
6A2
102
{ACAD_REACTORS
330
690
102
}
330
690
100
AcDbXrecord
 10
0.0
 20
0.0
 30
0.0
  0
XRECORD
  5
6A5
102
{ACAD_REACTORS
330
690
102
}
330
690
100
AcDbXrecord
 10
0.0
 20
0.0
 30
0.0
  0
XRECORD
  5
6A3
102
{ACAD_REACTORS
330
690
102
}
330
690
100
AcDbXrecord
 10
0.0
 20
0.0
 30
0.0
  0
XRECORD
  5
6A4
102
{ACAD_REACTORS
330
690
102
}
330
690
100
AcDbXrecord
 10
0.0
 20
0.0
 30
0.0
  0
XRECORD
  5
6A1
102
{ACAD_REACTORS
330
690
102
}
330
690
100
AcDbXrecord
 10
0.0
 20
0.0
 30
0.0
  0
XRECORD
  5
69E
102
{ACAD_REACTORS
330
690
102
}
330
690
100
AcDbXrecord
340
0
  0
XRECORD
  5
69F
102
{ACAD_REACTORS
330
690
102
}
330
690
100
AcDbXrecord
 70
     0
  0
XRECORD
  5
694
102
{ACAD_REACTORS
330
690
102
}
330
690
100
AcDbXrecord
  1

  0
XRECORD
  5
691
102
{ACAD_REACTORS
330
690
102
}
330
690
100
AcDbXrecord
 90
        1
  0
XRECORD
  5
692
102
{ACAD_REACTORS
330
690
102
}
330
690
100
AcDbXrecord
 90
       70
  0
XRECORD
  5
6A9
102
{ACAD_REACTORS
330
690
102
}
330
690
100
AcDbXrecord
340
0
  0
XRECORD
  5
6AF
102
{ACAD_REACTORS
330
690
102
}
330
690
100
AcDbXrecord
 10
0.0
 20
0.0
 30
0.0
  0
XRECORD
  5
6AB
102
{ACAD_REACTORS
330
690
102
}
330
690
100
AcDbXrecord
 10
0.0
 20
0.0
 30
0.0
  0
XRECORD
  5
6AE
102
{ACAD_REACTORS
330
690
102
}
330
690
100
AcDbXrecord
 10
0.0
 20
0.0
 30
0.0
  0
XRECORD
  5
6AC
102
{ACAD_REACTORS
330
690
102
}
330
690
100
AcDbXrecord
 10
0.0
 20
0.0
 30
0.0
  0
XRECORD
  5
6AD
102
{ACAD_REACTORS
330
690
102
}
330
690
100
AcDbXrecord
 10
0.0
 20
0.0
 30
0.0
  0
XRECORD
  5
6AA
102
{ACAD_REACTORS
330
690
102
}
330
690
100
AcDbXrecord
 10
0.0
 20
0.0
 30
0.0
  0
XRECORD
  5
6A7
102
{ACAD_REACTORS
330
690
102
}
330
690
100
AcDbXrecord
340
0
  0
XRECORD
  5
6A8
102
{ACAD_REACTORS
330
690
102
}
330
690
100
AcDbXrecord
 70
     0
  0
XRECORD
  5
69C
102
{ACAD_REACTORS
330
690
102
}
330
690
100
AcDbXrecord
  1
{FAEB1C32-E019-11D5-929B-00C0DF256EC4}
  0
DICTIONARYVAR
  5
6BC
102
{ACAD_REACTORS
330
6B1
102
}
330
6B1
100
DictionaryVariables
280
     0
  1
1:1
  0
DICTIONARYVAR
  5
6B3
102
{ACAD_REACTORS
330
6B1
102
}
330
6B1
100
DictionaryVariables
280
     0
  1
Standard
  0
DICTIONARYVAR
  5
6B2
102
{ACAD_REACTORS
330
6B1
102
}
330
6B1
100
DictionaryVariables
280
     0
  1
Standard
  0
DICTIONARYVAR
  5
6B8
102
{ACAD_REACTORS
330
6B1
102
}
330
6B1
100
DictionaryVariables
280
     0
  1
2
  0
DICTIONARYVAR
  5
6B9
102
{ACAD_REACTORS
330
6B1
102
}
330
6B1
100
DictionaryVariables
280
     0
  1
1
  0
DICTIONARYVAR
  5
6BD
102
{ACAD_REACTORS
330
6B1
102
}
330
6B1
100
DictionaryVariables
280
     0
  1
1
  0
DICTIONARYVAR
  5
6B5
102
{ACAD_REACTORS
330
6B1
102
}
330
6B1
100
DictionaryVariables
280
     0
  1
80.000000
  0
DICTIONARYVAR
  5
6B4
102
{ACAD_REACTORS
330
6B1
102
}
330
6B1
100
DictionaryVariables
280
     0
  1
5.000000
  0
DICTIONARY
  5
6C0
330
45
100
AcDbDictionary
280
     1
  3
ACAD_XREC_ROUNDTRIP
360
6C1
  0
DICTIONARY
  5
6BE
330
44
100
AcDbDictionary
280
     1
  3
ACAD_XREC_ROUNDTRIP
360
6BF
  0
DICTIONARY
  5
6C2
330
46
100
AcDbDictionary
280
     1
  3
ACAD_XREC_ROUNDTRIP
360
6C3
  0
XRECORD
  5
6C1
102
{ACAD_REACTORS
330
6C0
102
}
330
6C0
100
AcDbXrecord
102
MATERIAL
148
0.0
149
0.0
149
0.0
 93
        0
 94
      127
282
     0
 72
     1
 77
     1
171
     1
175
     1
179
     1
273
     0
  0
XRECORD
  5
6BF
102
{ACAD_REACTORS
330
6BE
102
}
330
6BE
100
AcDbXrecord
102
MATERIAL
148
0.0
149
0.0
149
0.0
 93
        0
 94
      127
282
     0
 72
     1
 77
     1
171
     1
175
     1
179
     1
273
     0
  0
XRECORD
  5
6C3
102
{ACAD_REACTORS
330
6C2
102
}
330
6C2
100
AcDbXrecord
102
MATERIAL
148
0.0
149
0.0
149
0.0
 93
        0
 94
      127
282
     0
 72
     1
 77
     1
171
     1
175
     1
179
     1
273
     0
  0
ENDSEC
  0
EOF
