  0
SECTION
  2
HEADER
  9
$ACADVER
  1
AC1027
  9
$ACADMAINTVER
 70
   125
  9
$DWGCODEPAGE
  3
ANSI_932
  9
$LASTSAVEDBY
  1
Y-KAMATA
  9
$REQUIREDVERSIONS
160
                 0
  9
$INSBASE
 10
0.0
 20
0.0
 30
0.0
  9
$EXTMIN
 10
3439.167271077407
 20
1617.171558527976
 30
0.0
  9
$EXTMAX
 10
4451.578777477415
 20
2131.11097346131
 30
0.0
  9
$LIMMIN
 10
0.0
 20
0.0
  9
$LIMMAX
 10
420.0
 20
297.0
  9
$ORTHOMODE
 70
     1
  9
$REGENMODE
 70
     1
  9
$FILLMODE
 70
     1
  9
$QTEXTMODE
 70
     0
  9
$MIRRTEXT
 70
     0
  9
$LTSCALE
 40
0.5
  9
$ATTMODE
 70
     1
  9
$TEXTSIZE
 40
2.5
  9
$TRACEWID
 40
1.0
  9
$TEXTSTYLE
  7
Standard
  9
$CLAYER
  8
SIZE
  9
$CELTYPE
  6
ByLayer
  9
$CECOLOR
 62
   256
  9
$CELTSCALE
 40
0.5
  9
$DISPSILH
 70
     0
  9
$DIMSCALE
 40
1.0
  9
$DIMASZ
 40
2.5
  9
$DIMEXO
 40
0.625
  9
$DIMDLI
 40
3.75
  9
$DIMRND
 40
0.0
  9
$DIMDLE
 40
0.0
  9
$DIMEXE
 40
1.25
  9
$DIMTP
 40
0.0
  9
$DIMTM
 40
0.0
  9
$DIMTXT
 40
2.5
  9
$DIMCEN
 40
2.5
  9
$DIMTSZ
 40
0.0
  9
$DIMTOL
 70
     0
  9
$DIMLIM
 70
     0
  9
$DIMTIH
 70
     0
  9
$DIMTOH
 70
     0
  9
$DIMSE1
 70
     0
  9
$DIMSE2
 70
     0
  9
$DIMTAD
 70
     1
  9
$DIMZIN
 70
     8
  9
$DIMBLK
  1

  9
$DIMASO
 70
     1
  9
$DIMSHO
 70
     1
  9
$DIMPOST
  1

  9
$DIMAPOST
  1

  9
$DIMALT
 70
     0
  9
$DIMALTD
 70
     3
  9
$DIMALTF
 40
0.03937007874016
  9
$DIMLFAC
 40
1.0
  9
$DIMTOFL
 70
     1
  9
$DIMTVP
 40
0.0
  9
$DIMTIX
 70
     0
  9
$DIMSOXD
 70
     0
  9
$DIMSAH
 70
     0
  9
$DIMBLK1
  1

  9
$DIMBLK2
  1

  9
$DIMSTYLE
  2
ISO-25
  9
$DIMCLRD
 70
     0
  9
$DIMCLRE
 70
     0
  9
$DIMCLRT
 70
     0
  9
$DIMTFAC
 40
1.0
  9
$DIMGAP
 40
0.625
  9
$DIMJUST
 70
     0
  9
$DIMSD1
 70
     0
  9
$DIMSD2
 70
     0
  9
$DIMTOLJ
 70
     0
  9
$DIMTZIN
 70
     8
  9
$DIMALTZ
 70
     0
  9
$DIMALTTZ
 70
     0
  9
$DIMUPT
 70
     0
  9
$DIMDEC
 70
     2
  9
$DIMTDEC
 70
     2
  9
$DIMALTU
 70
     2
  9
$DIMALTTD
 70
     3
  9
$DIMTXSTY
  7
Standard
  9
$DIMAUNIT
 70
     0
  9
$DIMADEC
 70
     0
  9
$DIMALTRND
 40
0.0
  9
$DIMAZIN
 70
     0
  9
$DIMDSEP
 70
    44
  9
$DIMATFIT
 70
     3
  9
$DIMFRAC
 70
     0
  9
$DIMLDRBLK
  1

  9
$DIMLUNIT
 70
     2
  9
$DIMLWD
 70
    -2
  9
$DIMLWE
 70
    -2
  9
$DIMTMOVE
 70
     0
  9
$DIMFXL
 40
1.0
  9
$DIMFXLON
 70
     0
  9
$DIMJOGANG
 40
0.7853981633974483
  9
$DIMTFILL
 70
     0
  9
$DIMTFILLCLR
 70
     0
  9
$DIMARCSYM
 70
     0
  9
$DIMLTYPE
  6

  9
$DIMLTEX1
  6

  9
$DIMLTEX2
  6

  9
$DIMTXTDIRECTION
 70
     0
  9
$LUNITS
 70
     2
  9
$LUPREC
 70
     4
  9
$SKETCHINC
 40
1.0
  9
$FILLETRAD
 40
0.0
  9
$AUNITS
 70
     0
  9
$AUPREC
 70
     0
  9
$MENU
  1
.
  9
$ELEVATION
 40
0.0
  9
$PELEVATION
 40
0.0
  9
$THICKNESS
 40
0.0
  9
$LIMCHECK
 70
     0
  9
$CHAMFERA
 40
0.0
  9
$CHAMFERB
 40
0.0
  9
$CHAMFERC
 40
0.0
  9
$CHAMFERD
 40
0.0
  9
$SKPOLY
 70
     0
  9
$TDCREATE
 40
2459388.724456018
  9
$TDUCREATE
 40
2459388.349456018
  9
$TDUPDATE
 40
2459388.736168982
  9
$TDUUPDATE
 40
2459388.361168981
  9
$TDINDWG
 40
0.0117129630
  9
$TDUSRTIMER
 40
0.0117129630
  9
$USRTIMER
 70
     1
  9
$ANGBASE
 50
0.0
  9
$ANGDIR
 70
     0
  9
$PDMODE
 70
     0
  9
$PDSIZE
 40
0.0
  9
$PLINEWID
 40
0.0
  9
$SPLFRAME
 70
     0
  9
$SPLINETYPE
 70
     6
  9
$SPLINESEGS
 70
     8
  9
$HANDSEED
  5
880
  9
$SURFTAB1
 70
     6
  9
$SURFTAB2
 70
     6
  9
$SURFTYPE
 70
     6
  9
$SURFU
 70
     6
  9
$SURFV
 70
     6
  9
$UCSBASE
  2

  9
$UCSNAME
  2

  9
$UCSORG
 10
0.0
 20
0.0
 30
0.0
  9
$UCSXDIR
 10
1.0
 20
0.0
 30
0.0
  9
$UCSYDIR
 10
0.0
 20
1.0
 30
0.0
  9
$UCSORTHOREF
  2

  9
$UCSORTHOVIEW
 70
     0
  9
$UCSORGTOP
 10
0.0
 20
0.0
 30
0.0
  9
$UCSORGBOTTOM
 10
0.0
 20
0.0
 30
0.0
  9
$UCSORGLEFT
 10
0.0
 20
0.0
 30
0.0
  9
$UCSORGRIGHT
 10
0.0
 20
0.0
 30
0.0
  9
$UCSORGFRONT
 10
0.0
 20
0.0
 30
0.0
  9
$UCSORGBACK
 10
0.0
 20
0.0
 30
0.0
  9
$PUCSBASE
  2

  9
$PUCSNAME
  2

  9
$PUCSORG
 10
0.0
 20
0.0
 30
0.0
  9
$PUCSXDIR
 10
1.0
 20
0.0
 30
0.0
  9
$PUCSYDIR
 10
0.0
 20
1.0
 30
0.0
  9
$PUCSORTHOREF
  2

  9
$PUCSORTHOVIEW
 70
     0
  9
$PUCSORGTOP
 10
0.0
 20
0.0
 30
0.0
  9
$PUCSORGBOTTOM
 10
0.0
 20
0.0
 30
0.0
  9
$PUCSORGLEFT
 10
0.0
 20
0.0
 30
0.0
  9
$PUCSORGRIGHT
 10
0.0
 20
0.0
 30
0.0
  9
$PUCSORGFRONT
 10
0.0
 20
0.0
 30
0.0
  9
$PUCSORGBACK
 10
0.0
 20
0.0
 30
0.0
  9
$USERI1
 70
     0
  9
$USERI2
 70
     0
  9
$USERI3
 70
     0
  9
$USERI4
 70
     0
  9
$USERI5
 70
     0
  9
$USERR1
 40
0.0
  9
$USERR2
 40
0.0
  9
$USERR3
 40
0.0
  9
$USERR4
 40
0.0
  9
$USERR5
 40
0.0
  9
$WORLDVIEW
 70
     1
  9
$SHADEDGE
 70
     3
  9
$SHADEDIF
 70
    70
  9
$TILEMODE
 70
     0
  9
$MAXACTVP
 70
    64
  9
$PINSBASE
 10
0.0
 20
0.0
 30
0.0
  9
$PLIMCHECK
 70
     0
  9
$PEXTMIN
 10
4.428975861203525
 20
22.54447374801998
 30
0.0
  9
$PEXTMAX
 10
407.4592788911035
 20
305.37275657602
 30
0.0
  9
$PLIMMIN
 10
-1.145959888849227
 20
17.53422927650841
  9
$PLIMMAX
 10
413.0868569690868
 20
310.4560069117632
  9
$UNITMODE
 70
     0
  9
$VISRETAIN
 70
     1
  9
$PLINEGEN
 70
     0
  9
$PSLTSCALE
 70
     1
  9
$TREEDEPTH
 70
  3020
  9
$CMLSTYLE
  2
Standard
  9
$CMLJUST
 70
     0
  9
$CMLSCALE
 40
20.0
  9
$PROXYGRAPHICS
 70
     1
  9
$MEASUREMENT
 70
     1
  9
$CELWEIGHT
370
    -1
  9
$ENDCAPS
280
     0
  9
$JOINSTYLE
280
     0
  9
$LWDISPLAY
290
     0
  9
$INSUNITS
 70
     4
  9
$HYPERLINKBASE
  1

  9
$STYLESHEET
  1

  9
$XEDIT
290
     1
  9
$CEPSNTYPE
380
     0
  9
$PSTYLEMODE
290
     1
  9
$FINGERPRINTGUID
  2
{CE4E238F-C35D-BF4F-BE74-17DEDD062B0A}
  9
$VERSIONGUID
  2
{19F805F5-F851-124F-8752-E652D2B1D4CD}
  9
$EXTNAMES
290
     1
  9
$PSVPSCALE
 40
0.0
  9
$OLESTARTUP
290
     0
  9
$SORTENTS
280
   127
  9
$INDEXCTL
280
     0
  9
$HIDETEXT
280
     1
  9
$XCLIPFRAME
280
     2
  9
$HALOGAP
280
     0
  9
$OBSCOLOR
 70
   257
  9
$OBSLTYPE
280
     0
  9
$INTERSECTIONDISPLAY
280
     0
  9
$INTERSECTIONCOLOR
 70
   257
  9
$DIMASSOC
280
     2
  9
$PROJECTNAME
  1

  9
$CAMERADISPLAY
290
     0
  9
$LENSLENGTH
 40
50.0
  9
$CAMERAHEIGHT
 40
0.0
  9
$STEPSPERSEC
 40
2.0
  9
$STEPSIZE
 40
6.0
  9
$3DDWFPREC
 40
2.0
  9
$PSOLWIDTH
 40
5.0
  9
$PSOLHEIGHT
 40
80.0
  9
$LOFTANG1
 40
1.570796326794896
  9
$LOFTANG2
 40
1.570796326794896
  9
$LOFTMAG1
 40
0.0
  9
$LOFTMAG2
 40
0.0
  9
$LOFTPARAM
 70
     7
  9
$LOFTNORMALS
280
     1
  9
$LATITUDE
 40
37.795
  9
$LONGITUDE
 40
-122.394
  9
$NORTHDIRECTION
 40
0.0
  9
$TIMEZONE
 70
 -8000
  9
$LIGHTGLYPHDISPLAY
280
     1
  9
$TILEMODELIGHTSYNCH
280
     1
  9
$CMATERIAL
347
EC
  9
$SOLIDHIST
280
     0
  9
$SHOWHIST
280
     1
  9
$DWFFRAME
280
     2
  9
$DGNFRAME
280
     0
  9
$REALWORLDSCALE
290
     1
  9
$INTERFERECOLOR
 62
     1
  9
$INTERFEREOBJVS
345
F9
  9
$INTERFEREVPVS
346
F6
  9
$CSHADOW
280
     0
  9
$SHADOWPLANELOCATION
 40
0.0
  0
ENDSEC
  0
SECTION
  2
CLASSES
  0
CLASS
  1
ACDBDICTIONARYWDFLT
  2
AcDbDictionaryWithDefault
  3
ObjectDBX Classes
 90
        0
 91
        1
280
     0
281
     0
  0
CLASS
  1
DICTIONARYVAR
  2
AcDbDictionaryVar
  3
ObjectDBX Classes
 90
        0
 91
       11
280
     0
281
     0
  0
CLASS
  1
TABLESTYLE
  2
AcDbTableStyle
  3
ObjectDBX Classes
 90
     4095
 91
        1
280
     0
281
     0
  0
CLASS
  1
MATERIAL
  2
AcDbMaterial
  3
ObjectDBX Classes
 90
     1153
 91
        3
280
     0
281
     0
  0
CLASS
  1
VISUALSTYLE
  2
AcDbVisualStyle
  3
ObjectDBX Classes
 90
     4095
 91
       24
280
     0
281
     0
  0
CLASS
  1
SCALE
  2
AcDbScale
  3
ObjectDBX Classes
 90
     1153
 91
       49
280
     0
281
     0
  0
CLASS
  1
MLEADERSTYLE
  2
AcDbMLeaderStyle
  3
ACDB_MLEADERSTYLE_CLASS
 90
     4095
 91
        2
280
     0
281
     0
  0
CLASS
  1
CELLSTYLEMAP
  2
AcDbCellStyleMap
  3
ObjectDBX Classes
 90
     1152
 91
        2
280
     0
281
     0
  0
CLASS
  1
EXACXREFPANELOBJECT
  2
ExAcXREFPanelObject
  3
EXAC_ESW
 90
     1025
 91
        0
280
     0
281
     0
  0
CLASS
  1
NPOCOLLECTION
  2
AcDbImpNonPersistentObjectsCollection
  3
ObjectDBX Classes
 90
     1153
 91
        0
280
     0
281
     0
  0
CLASS
  1
LAYER_INDEX
  2
AcDbLayerIndex
  3
ObjectDBX Classes
 90
        0
 91
        0
280
     0
281
     0
  0
CLASS
  1
SPATIAL_INDEX
  2
AcDbSpatialIndex
  3
ObjectDBX Classes
 90
        0
 91
        0
280
     0
281
     0
  0
CLASS
  1
IDBUFFER
  2
AcDbIdBuffer
  3
ObjectDBX Classes
 90
        0
 91
        0
280
     0
281
     0
  0
CLASS
  1
ACDBSECTIONVIEWSTYLE
  2
AcDbSectionViewStyle
  3
ObjectDBX Classes
 90
     1025
 91
        1
280
     0
281
     0
  0
CLASS
  1
ACDBDETAILVIEWSTYLE
  2
AcDbDetailViewStyle
  3
ObjectDBX Classes
 90
     1025
 91
        1
280
     0
281
     0
  0
ENDSEC
  0
SECTION
  2
TABLES
  0
TABLE
  2
VPORT
  5
8
330
0
100
AcDbSymbolTable
 70
     1
1001
ACAD
1000
DbSaveVer
1071
      225
  0
VPORT
  5
EA
330
8
100
AcDbSymbolTableRecord
100
AcDbViewportTableRecord
  2
*Active
 70
     0
 10
0.0
 20
0.0
 11
1.0
 21
1.0
 12
3771.717084341523
 22
1795.224021589665
 13
0.0
 23
0.0
 14
10.0
 24
10.0
 15
10.0
 25
10.0
 16
0.0
 26
0.0
 36
1.0
 17
0.0
 27
0.0
 37
0.0
 40
805.7328288987072
 41
2.323244552058111
 42
50.0
 43
0.0
 44
0.0
 50
0.0
 51
0.0
 71
     0
 72
  1000
 73
     1
 74
     3
 75
     0
 76
     0
 77
     0
 78
     0
281
     0
 65
     1
110
0.0
120
0.0
130
0.0
111
1.0
121
0.0
131
0.0
112
0.0
122
1.0
132
0.0
 79
     0
146
0.0
348
F5
 60
     3
 61
     5
292
     1
282
     1
141
0.0
142
0.0
 63
   250
421
  3355443
1001
ACAD_NAV_VCDISPLAY
1070
     3
  0
ENDTAB
  0
TABLE
  2
LTYPE
  5
5
330
0
100
AcDbSymbolTable
 70
     6
  0
LTYPE
  5
14
330
5
100
AcDbSymbolTableRecord
100
AcDbLinetypeTableRecord
  2
ByBlock
 70
     0
  3

 72
    65
 73
     0
 40
0.0
  0
LTYPE
  5
15
330
5
100
AcDbSymbolTableRecord
100
AcDbLinetypeTableRecord
  2
ByLayer
 70
     0
  3

 72
    65
 73
     0
 40
0.0
  0
LTYPE
  5
16
330
5
100
AcDbSymbolTableRecord
100
AcDbLinetypeTableRecord
  2
Continuous
 70
     0
  3
Solid line
 72
    65
 73
     0
 40
0.0
  0
LTYPE
  5
2A2
330
5
100
AcDbSymbolTableRecord
100
AcDbLinetypeTableRecord
  2
CENTER
 70
     0
  3
Center ____ _ ____ _ ____ _ ____ _ ____ _ ____
 72
    65
 73
     4
 40
50.8
 49
31.75
 74
     0
 49
-6.349999999999999
 74
     0
 49
6.349999999999999
 74
     0
 49
-6.349999999999999
 74
     0
  0
LTYPE
  5
2A3
330
5
100
AcDbSymbolTableRecord
100
AcDbLinetypeTableRecord
  2
DASHED
 70
     0
  3
Dashed __ __ __ __ __ __ __ __ __ __ __ __ __ _
 72
    65
 73
     2
 40
19.05
 49
12.7
 74
     0
 49
-6.349999999999999
 74
     0
  0
LTYPE
  5
359
330
5
100
AcDbSymbolTableRecord
100
AcDbLinetypeTableRecord
  2
EXLTYPE0
 70
     0
  3
破線
 72
    65
 73
     2
 40
2.5
 49
1.5
 74
     0
 49
-1.0
 74
     0
  0
LTYPE
  5
35A
330
5
100
AcDbSymbolTableRecord
100
AcDbLinetypeTableRecord
  2
EXLTYPE2
 70
     0
  3
一点鎖線
 72
    65
 73
     4
 40
13.0
 49
10.0
 74
     0
 49
-1.0
 74
     0
 49
1.0
 74
     0
 49
-1.0
 74
     0
  0
ENDTAB
  0
TABLE
  2
LAYER
  5
2
102
{ACAD_XDICTIONARY
360
1FF
102
}
330
0
100
AcDbSymbolTable
 70
    12
  0
LAYER
  5
10
102
{ACAD_XDICTIONARY
360
13C
102
}
330
2
100
AcDbSymbolTableRecord
100
AcDbLayerTableRecord
  2
0
 70
     0
 62
     7
  6
Continuous
370
    -3
390
F
347
EE
348
0
  0
LAYER
  5
298
330
2
100
AcDbSymbolTableRecord
100
AcDbLayerTableRecord
  2
VIEW
 70
     0
 62
     3
  6
Continuous
290
     0
370
    -3
390
F
347
EE
348
0
1001
AcCmTransparency
1071
        0
  0
LAYER
  5
29A
330
2
100
AcDbSymbolTableRecord
100
AcDbLayerTableRecord
  2
FREAME
 70
     0
 62
     4
  6
Continuous
370
    -3
390
F
347
EE
348
0
1001
AcCmTransparency
1071
        0
  0
LAYER
  5
29B
330
2
100
AcDbSymbolTableRecord
100
AcDbLayerTableRecord
  2
DASHE
 70
     0
 62
     2
  6
DASHED
370
    -3
390
F
347
EE
348
0
1001
AcCmTransparency
1071
        0
  0
LAYER
  5
29C
330
2
100
AcDbSymbolTableRecord
100
AcDbLayerTableRecord
  2
CENTER
 70
     0
 62
     1
  6
CENTER
370
    -3
390
F
347
EE
348
0
1001
AcCmTransparency
1071
        0
  0
LAYER
  5
29D
330
2
100
AcDbSymbolTableRecord
100
AcDbLayerTableRecord
  2
BODY
 70
     0
 62
     7
  6
Continuous
370
    -3
390
F
347
EE
348
0
1001
AcCmTransparency
1071
        0
  0
LAYER
  5
29E
330
2
100
AcDbSymbolTableRecord
100
AcDbLayerTableRecord
  2
SIZE
 70
     0
 62
     1
  6
Continuous
370
    -3
390
F
347
EE
348
0
1001
AcCmTransparency
1071
        0
  0
LAYER
  5
35B
102
{ACAD_XDICTIONARY
360
35C
102
}
330
2
100
AcDbSymbolTableRecord
100
AcDbLayerTableRecord
  2
DP250×0.1変更
 70
     0
 62
     7
  6
Continuous
370
    -3
390
360
347
EE
348
0
  0
LAYER
  5
35D
330
2
100
AcDbSymbolTableRecord
100
AcDbLayerTableRecord
  2
Defpoints
 70
     0
 62
     7
  6
Continuous
290
     0
370
    -3
390
360
347
EE
348
0
  0
LAYER
  5
802
102
{ACAD_XDICTIONARY
360
803
102
}
330
2
100
AcDbSymbolTableRecord
100
AcDbLayerTableRecord
  2
A3|Ａ２枠_大和建工用
 70
    48
 62
     7
  6
Continuous
370
    -3
390
F
347
EE
348
0
1001
AcXRefLayerPropertyOverride
1071
        0
  0
LAYER
  5
804
102
{ACAD_XDICTIONARY
360
805
102
}
330
2
100
AcDbSymbolTableRecord
100
AcDbLayerTableRecord
  2
A3|FREAM
 70
    48
 62
     6
  6
Continuous
370
    20
390
F
347
EE
348
0
1001
AcAecLayerStandard
1000

1000

1001
AcXRefLayerPropertyOverride
1071
        0
  0
LAYER
  5
806
330
2
100
AcDbSymbolTableRecord
100
AcDbLayerTableRecord
  2
A3|ロッド
 70
    48
 62
     7
  6
Continuous
370
    50
390
F
347
EE
348
0
1001
AcAecLayerStandard
1000

1000

1001
AcCmTransparency
1071
        0
1001
AcXRefLayerPropertyOverride
1071
        0
  0
ENDTAB
  0
TABLE
  2
STYLE
  5
3
330
0
100
AcDbSymbolTable
 70
     9
  0
STYLE
  5
11
330
3
100
AcDbSymbolTableRecord
100
AcDbTextStyleTableRecord
  2
Standard
 70
     0
 40
0.0
 41
1.0
 50
0.0
 71
     0
 42
2.5
  3
arial.ttf
  4

1001
ACAD
1000
Arial
1071
       34
  0
STYLE
  5
132
330
3
100
AcDbSymbolTableRecord
100
AcDbTextStyleTableRecord
  2
Annotative
 70
     0
 40
0.0
 41
1.0
 50
0.0
 71
     0
 42
2.5
  3
arial.ttf
  4

1001
AcadAnnotative
1000
AnnotativeData
1002
{
1070
     1
1070
     1
1002
}
1001
ACAD
1000
Arial
1071
       34
  0
STYLE
  5
2A1
330
3
100
AcDbSymbolTableRecord
100
AcDbTextStyleTableRecord
  2

 70
     1
 40
0.0
 41
1.0
 50
0.0
 71
     0
 42
2.5
  3
ltypeshp.shx
  4

  0
STYLE
  5
35E
330
3
100
AcDbSymbolTableRecord
100
AcDbTextStyleTableRecord
  2
EXCADSTD
 70
     0
 40
0.0
 41
1.0
 50
0.0
 71
     0
 42
2.5
  3
monotxt
  4
extfont
  0
STYLE
  5
35F
330
3
100
AcDbSymbolTableRecord
100
AcDbTextStyleTableRecord
  2
EXCADDIM1
 70
     0
 40
0.0
 41
0.84
 50
0.0
 71
     0
 42
2.5
  3
monotxt
  4
extfont
  0
ENDTAB
  0
TABLE
  2
VIEW
  5
6
330
0
100
AcDbSymbolTable
 70
     5
  0
ENDTAB
  0
TABLE
  2
UCS
  5
7
330
0
100
AcDbSymbolTable
 70
     0
  0
ENDTAB
  0
TABLE
  2
APPID
  5
9
330
0
100
AcDbSymbolTable
 70
    12
  0
APPID
  5
12
330
9
100
AcDbSymbolTableRecord
100
AcDbRegAppTableRecord
  2
ACAD
 70
     0
  0
APPID
  5
9E
330
9
100
AcDbSymbolTableRecord
100
AcDbRegAppTableRecord
  2
ACAD_PSEXT
 70
     0
  0
APPID
  5
133
330
9
100
AcDbSymbolTableRecord
100
AcDbRegAppTableRecord
  2
AcadAnnoPO
 70
     0
  0
APPID
  5
134
330
9
100
AcDbSymbolTableRecord
100
AcDbRegAppTableRecord
  2
AcadAnnotative
 70
     0
  0
APPID
  5
135
330
9
100
AcDbSymbolTableRecord
100
AcDbRegAppTableRecord
  2
ACAD_DSTYLE_DIMJAG
 70
     0
  0
APPID
  5
136
330
9
100
AcDbSymbolTableRecord
100
AcDbRegAppTableRecord
  2
ACAD_DSTYLE_DIMTALN
 70
     0
  0
APPID
  5
165
330
9
100
AcDbSymbolTableRecord
100
AcDbRegAppTableRecord
  2
ACAD_MLEADERVER
 70
     0
  0
APPID
  5
217
330
9
100
AcDbSymbolTableRecord
100
AcDbRegAppTableRecord
  2
ACAD_NAV_VCDISPLAY
 70
     0
  0
APPID
  5
299
330
9
100
AcDbSymbolTableRecord
100
AcDbRegAppTableRecord
  2
AcCmTransparency
 70
     0
  0
APPID
  5
817
330
9
100
AcDbSymbolTableRecord
100
AcDbRegAppTableRecord
  2
AcAecLayerStandard
 70
     0
  0
APPID
  5
81A
330
9
100
AcDbSymbolTableRecord
100
AcDbRegAppTableRecord
  2
AcXRefLayerPropertyOverride
 70
     0
  0
APPID
  5
84A
330
9
100
AcDbSymbolTableRecord
100
AcDbRegAppTableRecord
  2
ACAD_EXEMPT_FROM_CAD_STANDARDS
 70
     0
  0
ENDTAB
  0
TABLE
  2
DIMSTYLE
  5
A
330
0
100
AcDbSymbolTable
 70
     6
100
AcDbDimStyleTable
 71
     2
340
27
340
137
  0
DIMSTYLE
105
1B0
330
A
100
AcDbSymbolTableRecord
100
AcDbDimStyleTableRecord
  2
Standard
 70
     0
340
11
  0
DIMSTYLE
105
137
330
A
100
AcDbSymbolTableRecord
100
AcDbDimStyleTableRecord
  2
Annotative
 70
     0
 40
0.0
 41
2.5
 42
0.625
 43
3.75
 44
1.25
 73
     0
 74
     0
 77
     1
 78
     8
140
2.5
141
2.5
143
0.03937007874016
147
0.625
171
     3
172
     1
271
     2
272
     2
274
     3
278
    44
283
     0
284
     8
340
11
1001
AcadAnnotative
1000
AnnotativeData
1002
{
1070
     1
1070
     1
1002
}
1001
ACAD_DSTYLE_DIMJAG
1070
   388
1040
1.5
1001
ACAD_DSTYLE_DIMTALN
1070
   392
1070
     0
  0
DIMSTYLE
105
27
102
{ACAD_REACTORS
330
437
330
3EC
330
3ED
330
3EE
330
3EF
330
3F0
330
3F1
330
400
330
401
330
402
330
403
330
416
330
417
330
418
102
}
330
A
100
AcDbSymbolTableRecord
100
AcDbDimStyleTableRecord
  2
ISO-25
 70
     0
 41
2.5
 42
0.625
 43
3.75
 44
1.25
 73
     0
 74
     0
 77
     1
 78
     8
140
2.5
141
2.5
143
0.03937007874016
147
0.625
171
     3
172
     1
271
     2
272
     2
274
     3
278
    44
283
     0
284
     8
340
11
  0
ENDTAB
  0
TABLE
  2
BLOCK_RECORD
  5
1
330
0
100
AcDbSymbolTable
 70
    34
  0
BLOCK_RECORD
  5
1F
102
{ACAD_XDICTIONARY
360
1CE
102
}
330
1
100
AcDbSymbolTableRecord
100
AcDbBlockTableRecord
  2
*Model_Space
340
22
 70
     0
280
     1
281
     0
  0
BLOCK_RECORD
  5
D2
330
1
100
AcDbSymbolTableRecord
100
AcDbBlockTableRecord
  2
*Paper_Space
340
D3
 70
     0
280
     1
281
     0
  0
BLOCK_RECORD
  5
2A4
330
1
100
AcDbSymbolTableRecord
100
AcDbBlockTableRecord
  2
EX_BNORM
340
0
102
{BLKREFS
331
77B
331
77C
331
783
331
784
331
78B
331
78C
331
794
331
795
331
79F
331
7A0
331
7AA
331
7AB
331
7B3
331
7B4
331
7BC
331
7BD
331
7C5
331
7C6
331
7CE
331
7CF
331
7D7
331
7D8
331
7E0
331
7E1
331
7E9
331
7EA
331
772
331
773
331
346
331
347
331
352
331
353
331
2CA
331
2CB
331
2D6
331
2D7
331
2E2
331
2E3
331
2EE
331
2EF
331
2FA
331
2FB
331
306
331
307
331
314
331
315
331
322
331
323
331
32E
331
32F
331
33A
331
33B
331
2B2
331
2B3
331
2BE
331
2BF
102
}
 70
     0
280
     1
281
     0
  0
BLOCK_RECORD
  5
2AD
330
1
100
AcDbSymbolTableRecord
100
AcDbBlockTableRecord
  2
*D2
340
0
 70
     0
280
     1
281
     0
  0
BLOCK_RECORD
  5
2B9
330
1
100
AcDbSymbolTableRecord
100
AcDbBlockTableRecord
  2
*D3
340
0
 70
     0
280
     1
281
     0
  0
BLOCK_RECORD
  5
2C5
330
1
100
AcDbSymbolTableRecord
100
AcDbBlockTableRecord
  2
*D4
340
0
 70
     0
280
     1
281
     0
  0
BLOCK_RECORD
  5
2D1
330
1
100
AcDbSymbolTableRecord
100
AcDbBlockTableRecord
  2
*D5
340
0
 70
     0
280
     1
281
     0
  0
BLOCK_RECORD
  5
2DD
330
1
100
AcDbSymbolTableRecord
100
AcDbBlockTableRecord
  2
*D6
340
0
 70
     0
280
     1
281
     0
  0
BLOCK_RECORD
  5
2E9
330
1
100
AcDbSymbolTableRecord
100
AcDbBlockTableRecord
  2
*D7
340
0
 70
     0
280
     1
281
     0
  0
BLOCK_RECORD
  5
2F5
330
1
100
AcDbSymbolTableRecord
100
AcDbBlockTableRecord
  2
*D8
340
0
 70
     0
280
     1
281
     0
  0
BLOCK_RECORD
  5
301
330
1
100
AcDbSymbolTableRecord
100
AcDbBlockTableRecord
  2
*D9
340
0
 70
     0
280
     1
281
     0
  0
BLOCK_RECORD
  5
30D
330
1
100
AcDbSymbolTableRecord
100
AcDbBlockTableRecord
  2
*D10
340
0
 70
     0
280
     1
281
     0
  0
BLOCK_RECORD
  5
31B
330
1
100
AcDbSymbolTableRecord
100
AcDbBlockTableRecord
  2
*D11
340
0
 70
     0
280
     1
281
     0
  0
BLOCK_RECORD
  5
329
330
1
100
AcDbSymbolTableRecord
100
AcDbBlockTableRecord
  2
*D12
340
0
 70
     0
280
     1
281
     0
  0
BLOCK_RECORD
  5
335
330
1
100
AcDbSymbolTableRecord
100
AcDbBlockTableRecord
  2
*D13
340
0
 70
     0
280
     1
281
     0
  0
BLOCK_RECORD
  5
341
330
1
100
AcDbSymbolTableRecord
100
AcDbBlockTableRecord
  2
*D14
340
0
 70
     0
280
     1
281
     0
  0
BLOCK_RECORD
  5
34D
330
1
100
AcDbSymbolTableRecord
100
AcDbBlockTableRecord
  2
*D15
340
0
 70
     0
280
     1
281
     0
  0
BLOCK_RECORD
  5
444
330
1
100
AcDbSymbolTableRecord
100
AcDbBlockTableRecord
  2
*D17
340
0
 70
     0
280
     1
281
     0
  0
BLOCK_RECORD
  5
450
330
1
100
AcDbSymbolTableRecord
100
AcDbBlockTableRecord
  2
*D18
340
0
 70
     0
280
     1
281
     0
  0
BLOCK_RECORD
  5
45C
330
1
100
AcDbSymbolTableRecord
100
AcDbBlockTableRecord
  2
*D19
340
0
 70
     0
280
     1
281
     0
  0
BLOCK_RECORD
  5
468
330
1
100
AcDbSymbolTableRecord
100
AcDbBlockTableRecord
  2
*D20
340
0
 70
     0
280
     1
281
     0
  0
BLOCK_RECORD
  5
474
330
1
100
AcDbSymbolTableRecord
100
AcDbBlockTableRecord
  2
*D21
340
0
 70
     0
280
     1
281
     0
  0
BLOCK_RECORD
  5
480
330
1
100
AcDbSymbolTableRecord
100
AcDbBlockTableRecord
  2
*D22
340
0
 70
     0
280
     1
281
     0
  0
BLOCK_RECORD
  5
48C
330
1
100
AcDbSymbolTableRecord
100
AcDbBlockTableRecord
  2
*D23
340
0
 70
     0
280
     1
281
     0
  0
BLOCK_RECORD
  5
498
330
1
100
AcDbSymbolTableRecord
100
AcDbBlockTableRecord
  2
*D24
340
0
 70
     0
280
     1
281
     0
  0
BLOCK_RECORD
  5
4A4
330
1
100
AcDbSymbolTableRecord
100
AcDbBlockTableRecord
  2
*D25
340
0
 70
     0
280
     1
281
     0
  0
BLOCK_RECORD
  5
4B0
330
1
100
AcDbSymbolTableRecord
100
AcDbBlockTableRecord
  2
*D26
340
0
 70
     0
280
     1
281
     0
  0
BLOCK_RECORD
  5
4BE
330
1
100
AcDbSymbolTableRecord
100
AcDbBlockTableRecord
  2
*D27
340
0
 70
     0
280
     1
281
     0
  0
BLOCK_RECORD
  5
4CC
330
1
100
AcDbSymbolTableRecord
100
AcDbBlockTableRecord
  2
*D28
340
0
 70
     0
280
     1
281
     0
  0
BLOCK_RECORD
  5
4D8
330
1
100
AcDbSymbolTableRecord
100
AcDbBlockTableRecord
  2
*D29
340
0
 70
     0
280
     1
281
     0
  0
BLOCK_RECORD
  5
4E3
330
1
100
AcDbSymbolTableRecord
100
AcDbBlockTableRecord
  2
*D30
340
0
 70
     0
280
     1
281
     0
  0
BLOCK_RECORD
  5
7FF
330
1
100
AcDbSymbolTableRecord
100
AcDbBlockTableRecord
  2
A3
340
0
102
{BLKREFS
331
81B
102
}
 70
     4
280
     1
281
     0
  0
ENDTAB
  0
ENDSEC
  0
SECTION
  2
BLOCKS
  0
BLOCK
  5
20
330
1F
100
AcDbEntity
  8
0
100
AcDbBlockBegin
  2
*Model_Space
 70
     0
 10
0.0
 20
0.0
 30
0.0
  3
*Model_Space
  1

  0
ENDBLK
  5
21
330
1F
100
AcDbEntity
  8
0
100
AcDbBlockEnd
  0
BLOCK
  5
D4
330
D2
100
AcDbEntity
 67
     1
  8
0
100
AcDbBlockBegin
  2
*Paper_Space
 70
     0
 10
0.0
 20
0.0
 30
0.0
  3
*Paper_Space
  1

  0
ENDBLK
  5
D5
330
D2
100
AcDbEntity
 67
     1
  8
0
100
AcDbBlockEnd
  0
BLOCK
  5
2A5
330
2A4
100
AcDbEntity
  8
0
100
AcDbBlockBegin
  2
EX_BNORM
 70
     0
 10
0.0
 20
0.0
 30
0.0
  3
EX_BNORM
  1

  0
LINE
  5
2A6
330
2A4
100
AcDbEntity
  8
0
  6
Continuous
 62
     0
100
AcDbLine
 10
0.0
 20
0.0
 30
0.0
 11
-1.0
 21
0.0
 31
0.0
  0
LINE
  5
2A7
330
2A4
100
AcDbEntity
  8
0
  6
Continuous
 62
     0
100
AcDbLine
 10
0.0
 20
0.0
 30
0.0
 11
-1.0
 21
0.166666667
 31
0.0
  0
LINE
  5
2A8
330
2A4
100
AcDbEntity
  8
0
  6
Continuous
 62
     0
100
AcDbLine
 10
0.0
 20
0.0
 30
0.0
 11
-1.0
 21
-0.166666667
 31
0.0
  0
LINE
  5
2A9
330
2A4
100
AcDbEntity
  8
0
  6
Continuous
 62
     0
100
AcDbLine
 10
0.0
 20
0.0
 30
0.0
 11
-1.0
 21
0.083333333
 31
0.0
  0
LINE
  5
2AA
330
2A4
100
AcDbEntity
  8
0
  6
Continuous
 62
     0
100
AcDbLine
 10
0.0
 20
0.0
 30
0.0
 11
-1.0
 21
-0.083333333
 31
0.0
  0
LINE
  5
2AB
330
2A4
100
AcDbEntity
  8
0
  6
Continuous
 62
     0
100
AcDbLine
 10
-1.0
 20
0.166666667
 30
0.0
 11
-1.0
 21
-0.166666667
 31
0.0
  0
ENDBLK
  5
2AC
330
2A4
100
AcDbEntity
  8
0
100
AcDbBlockEnd
  0
BLOCK
  5
2AE
330
2AD
100
AcDbEntity
  8
0
100
AcDbBlockBegin
  2
*D2
 70
     1
 10
0.0
 20
0.0
 30
0.0
  3
*D2
  1

  0
LINE
  5
2AF
330
2AD
100
AcDbEntity
  8
DP250×0.1変更
  6
Continuous
 62
     1
440
 16777216
370
    -2
100
AcDbLine
 10
203.919617
 20
480.3222349999999
 30
0.0
 11
81.304443
 21
480.3222349999999
 31
0.0
  0
LINE
  5
2B0
330
2AD
100
AcDbEntity
  8
DP250×0.1変更
  6
Continuous
 62
     1
440
 16777216
370
    -2
100
AcDbLine
 10
203.9196470000001
 20
340.322235
 30
0.0
 11
81.30444299999998
 21
340.322235
 31
0.0
  0
LINE
  5
2B1
330
2AD
100
AcDbEntity
  8
DP250×0.1変更
  6
Continuous
 62
     1
440
 16777216
370
    -2
100
AcDbLine
 10
84.30444300000001
 20
474.3222349999999
 30
0.0
 11
84.30444299999999
 21
346.322235
 31
0.0
  0
INSERT
  5
2B2
330
2AD
100
AcDbEntity
  8
DP250×0.1変更
 62
     1
440
 16777216
370
    -2
100
AcDbBlockReference
  2
EX_BNORM
 10
84.30444300000001
 20
480.3222349999999
 30
0.0
 41
6.0
 42
6.0
 43
6.0
 50
90.0
  0
INSERT
  5
2B3
330
2AD
100
AcDbEntity
  8
DP250×0.1変更
 62
     1
440
 16777216
370
    -2
100
AcDbBlockReference
  2
EX_BNORM
 10
84.30444299999999
 20
340.322235
 30
0.0
 41
6.0
 42
6.0
 43
6.0
 50
270.0
  0
MTEXT
  5
2B4
330
2AD
100
AcDbEntity
  8
DP250×0.1変更
 62
     1
440
 16777216
100
AcDbMText
 10
79.30444300000002
 20
410.322235
 30
0.0
 40
6.236220799999999
 41
0.0
 46
0.0
 71
     5
 72
     1
  1
140
  7
EXCADDIM1
 11
-0.0000000000000004
 21
1.0
 31
0.0
 73
     1
 44
1.0
  0
POINT
  5
2B5
330
2AD
100
AcDbEntity
  8
Defpoints
 62
     0
440
 16777216
100
AcDbPoint
 10
206.919617
 20
480.3222349999999
 30
0.0
  0
POINT
  5
2B6
330
2AD
100
AcDbEntity
  8
Defpoints
 62
     0
440
 16777216
100
AcDbPoint
 10
206.919647
 20
340.322235
 30
0.0
  0
POINT
  5
2B7
330
2AD
100
AcDbEntity
  8
Defpoints
 62
     0
440
 16777216
100
AcDbPoint
 10
84.30444299999999
 20
340.322235
 30
0.0
  0
ENDBLK
  5
2B8
330
2AD
100
AcDbEntity
  8
0
100
AcDbBlockEnd
  0
BLOCK
  5
2BA
330
2B9
100
AcDbEntity
  8
0
100
AcDbBlockBegin
  2
*D3
 70
     1
 10
0.0
 20
0.0
 30
0.0
  3
*D3
  1

  0
LINE
  5
2BB
330
2B9
100
AcDbEntity
  8
DP250×0.1変更
  6
Continuous
 62
     1
440
 16777216
370
    -2
100
AcDbLine
 10
968.0
 20
535.3439329999999
 30
0.0
 11
1088.597839
 21
535.3439330000001
 31
0.0
  0
LINE
  5
2BC
330
2B9
100
AcDbEntity
  8
DP250×0.1変更
  6
Continuous
 62
     1
440
 16777216
370
    -2
100
AcDbLine
 10
968.0
 20
285.343933
 30
0.0
 11
1088.597839
 21
285.343933
 31
0.0
  0
LINE
  5
2BD
330
2B9
100
AcDbEntity
  8
DP250×0.1変更
  6
Continuous
 62
     1
440
 16777216
370
    -2
100
AcDbLine
 10
1085.597839
 20
529.343933
 30
0.0
 11
1085.597839
 21
291.343933
 31
0.0
  0
INSERT
  5
2BE
330
2B9
100
AcDbEntity
  8
DP250×0.1変更
 62
     1
440
 16777216
370
    -2
100
AcDbBlockReference
  2
EX_BNORM
 10
1085.597839
 20
535.3439330000001
 30
0.0
 41
6.0
 42
6.0
 43
6.0
 50
90.0
  0
INSERT
  5
2BF
330
2B9
100
AcDbEntity
  8
DP250×0.1変更
 62
     1
440
 16777216
370
    -2
100
AcDbBlockReference
  2
EX_BNORM
 10
1085.597839
 20
285.343933
 30
0.0
 41
6.0
 42
6.0
 43
6.0
 50
270.0
  0
MTEXT
  5
2C0
330
2B9
100
AcDbEntity
  8
DP250×0.1変更
 62
     1
440
 16777216
100
AcDbMText
 10
1080.597839
 20
410.3439329999999
 30
0.0
 40
6.236220799999999
 41
0.0
 46
0.0
 71
     5
 72
     1
  1
250
  7
EXCADDIM1
 11
-0.0000000000000004
 21
1.0
 31
0.0
 73
     1
 44
1.0
  0
POINT
  5
2C1
330
2B9
100
AcDbEntity
  8
Defpoints
 62
     0
440
 16777216
100
AcDbPoint
 10
965.0
 20
535.3439329999999
 30
0.0
  0
POINT
  5
2C2
330
2B9
100
AcDbEntity
  8
Defpoints
 62
     0
440
 16777216
100
AcDbPoint
 10
965.0
 20
285.343933
 30
0.0
  0
POINT
  5
2C3
330
2B9
100
AcDbEntity
  8
Defpoints
 62
     0
440
 16777216
100
AcDbPoint
 10
1085.597839
 20
285.343933
 30
0.0
  0
ENDBLK
  5
2C4
330
2B9
100
AcDbEntity
  8
0
100
AcDbBlockEnd
  0
BLOCK
  5
2C6
330
2C5
100
AcDbEntity
  8
0
100
AcDbBlockBegin
  2
*D4
 70
     1
 10
0.0
 20
0.0
 30
0.0
  3
*D4
  1

  0
LINE
  5
2C7
330
2C5
100
AcDbEntity
  8
DP250×0.1変更
  6
Continuous
 62
     1
440
 16777216
370
    -2
100
AcDbLine
 10
219.419647
 20
320.5974579999999
 30
0.0
 11
219.419647
 21
204.786819
 31
0.0
  0
LINE
  5
2C8
330
2C5
100
AcDbEntity
  8
DP250×0.1変更
  6
Continuous
 62
     1
440
 16777216
370
    -2
100
AcDbLine
 10
359.419647
 20
321.457611
 30
0.0
 11
359.419647
 21
204.786819
 31
0.0
  0
LINE
  5
2C9
330
2C5
100
AcDbEntity
  8
DP250×0.1変更
  6
Continuous
 62
     1
440
 16777216
370
    -2
100
AcDbLine
 10
225.4196470000001
 20
207.786819
 30
0.0
 11
353.4196470000001
 21
207.786819
 31
0.0
  0
INSERT
  5
2CA
330
2C5
100
AcDbEntity
  8
DP250×0.1変更
 62
     1
440
 16777216
370
    -2
100
AcDbBlockReference
  2
EX_BNORM
 10
219.419647
 20
207.786819
 30
0.0
 41
6.0
 42
6.0
 43
6.0
 50
180.0
  0
INSERT
  5
2CB
330
2C5
100
AcDbEntity
  8
DP250×0.1変更
 62
     1
440
 16777216
370
    -2
100
AcDbBlockReference
  2
EX_BNORM
 10
359.419647
 20
207.786819
 30
0.0
 41
6.0
 42
6.0
 43
6.0
  0
MTEXT
  5
2CC
330
2C5
100
AcDbEntity
  8
DP250×0.1変更
 62
     1
440
 16777216
100
AcDbMText
 10
289.4196470000001
 20
212.786819
 30
0.0
 40
6.236220799999999
 41
0.0
 46
0.0
 71
     5
 72
     1
  1
140
  7
EXCADDIM1
 73
     1
 44
1.0
  0
POINT
  5
2CD
330
2C5
100
AcDbEntity
  8
Defpoints
 62
     0
440
 16777216
100
AcDbPoint
 10
219.419647
 20
323.597458
 30
0.0
  0
POINT
  5
2CE
330
2C5
100
AcDbEntity
  8
Defpoints
 62
     0
440
 16777216
100
AcDbPoint
 10
359.419647
 20
324.4576110000001
 30
0.0
  0
POINT
  5
2CF
330
2C5
100
AcDbEntity
  8
Defpoints
 62
     0
440
 16777216
100
AcDbPoint
 10
359.419647
 20
207.786819
 30
0.0
  0
ENDBLK
  5
2D0
330
2C5
100
AcDbEntity
  8
0
100
AcDbBlockEnd
  0
BLOCK
  5
2D2
330
2D1
100
AcDbEntity
  8
0
100
AcDbBlockBegin
  2
*D5
 70
     1
 10
0.0
 20
0.0
 30
0.0
  3
*D5
  1

  0
LINE
  5
2D3
330
2D1
100
AcDbEntity
  8
DP250×0.1変更
  6
Continuous
 62
     1
440
 16777216
370
    -2
100
AcDbLine
 10
935.8962400000001
 20
360.343933
 30
0.0
 11
1019.295242
 21
360.343933
 31
0.0
  0
LINE
  5
2D4
330
2D1
100
AcDbEntity
  8
DP250×0.1変更
  6
Continuous
 62
     1
440
 16777216
370
    -2
100
AcDbLine
 10
935.8962400000001
 20
460.3439329999999
 30
0.0
 11
1019.295242
 21
460.3439329999999
 31
0.0
  0
LINE
  5
2D5
330
2D1
100
AcDbEntity
  8
DP250×0.1変更
  6
Continuous
 62
     1
440
 16777216
370
    -2
100
AcDbLine
 10
1016.295242
 20
366.343933
 30
0.0
 11
1016.295242
 21
454.3439329999999
 31
0.0
  0
INSERT
  5
2D6
330
2D1
100
AcDbEntity
  8
DP250×0.1変更
 62
     1
440
 16777216
370
    -2
100
AcDbBlockReference
  2
EX_BNORM
 10
1016.295242
 20
360.343933
 30
0.0
 41
6.0
 42
6.0
 43
6.0
 50
270.0
  0
INSERT
  5
2D7
330
2D1
100
AcDbEntity
  8
DP250×0.1変更
 62
     1
440
 16777216
370
    -2
100
AcDbBlockReference
  2
EX_BNORM
 10
1016.295242
 20
460.3439329999999
 30
0.0
 41
6.0
 42
6.0
 43
6.0
 50
90.0
  0
MTEXT
  5
2D8
330
2D1
100
AcDbEntity
  8
DP250×0.1変更
 62
     1
440
 16777216
100
AcDbMText
 10
1011.295242
 20
410.343933
 30
0.0
 40
6.236220799999999
 41
0.0
 46
0.0
 71
     5
 72
     1
  1
100
  7
EXCADDIM1
 11
-0.0000000000000004
 21
1.0
 31
0.0
 73
     1
 44
1.0
  0
POINT
  5
2D9
330
2D1
100
AcDbEntity
  8
Defpoints
 62
     0
440
 16777216
100
AcDbPoint
 10
932.8962399999999
 20
360.343933
 30
0.0
  0
POINT
  5
2DA
330
2D1
100
AcDbEntity
  8
Defpoints
 62
     0
440
 16777216
100
AcDbPoint
 10
932.8962399999999
 20
460.3439329999999
 30
0.0
  0
POINT
  5
2DB
330
2D1
100
AcDbEntity
  8
Defpoints
 62
     0
440
 16777216
100
AcDbPoint
 10
1016.295242
 20
460.3439329999999
 30
0.0
  0
ENDBLK
  5
2DC
330
2D1
100
AcDbEntity
  8
0
100
AcDbBlockEnd
  0
BLOCK
  5
2DE
330
2DD
100
AcDbEntity
  8
0
100
AcDbBlockBegin
  2
*D6
 70
     1
 10
0.0
 20
0.0
 30
0.0
  3
*D6
  1

  0
LINE
  5
2DF
330
2DD
100
AcDbEntity
  8
DP250×0.1変更
  6
Continuous
 62
     1
440
 16777216
370
    -2
100
AcDbLine
 10
936.1902459999999
 20
335.343933
 30
0.0
 11
1052.241943
 21
335.343933
 31
0.0
  0
LINE
  5
2E0
330
2DD
100
AcDbEntity
  8
DP250×0.1変更
  6
Continuous
 62
     1
440
 16777216
370
    -2
100
AcDbLine
 10
936.1902459999999
 20
485.3439329999999
 30
0.0
 11
1052.241943
 21
485.3439329999999
 31
0.0
  0
LINE
  5
2E1
330
2DD
100
AcDbEntity
  8
DP250×0.1変更
  6
Continuous
 62
     1
440
 16777216
370
    -2
100
AcDbLine
 10
1049.241943
 20
341.343933
 30
0.0
 11
1049.241943
 21
479.3439329999999
 31
0.0
  0
INSERT
  5
2E2
330
2DD
100
AcDbEntity
  8
DP250×0.1変更
 62
     1
440
 16777216
370
    -2
100
AcDbBlockReference
  2
EX_BNORM
 10
1049.241943
 20
335.343933
 30
0.0
 41
6.0
 42
6.0
 43
6.0
 50
270.0
  0
INSERT
  5
2E3
330
2DD
100
AcDbEntity
  8
DP250×0.1変更
 62
     1
440
 16777216
370
    -2
100
AcDbBlockReference
  2
EX_BNORM
 10
1049.241943
 20
485.3439329999999
 30
0.0
 41
6.0
 42
6.0
 43
6.0
 50
90.0
  0
MTEXT
  5
2E4
330
2DD
100
AcDbEntity
  8
DP250×0.1変更
 62
     1
440
 16777216
100
AcDbMText
 10
1044.241943
 20
410.3439329999999
 30
0.0
 40
6.236220799999999
 41
0.0
 46
0.0
 71
     5
 72
     1
  1
150
  7
EXCADDIM1
 11
-0.0000000000000004
 21
1.0
 31
0.0
 73
     1
 44
1.0
  0
POINT
  5
2E5
330
2DD
100
AcDbEntity
  8
Defpoints
 62
     0
440
 16777216
100
AcDbPoint
 10
933.190246
 20
335.343933
 30
0.0
  0
POINT
  5
2E6
330
2DD
100
AcDbEntity
  8
Defpoints
 62
     0
440
 16777216
100
AcDbPoint
 10
933.190246
 20
485.3439329999999
 30
0.0
  0
POINT
  5
2E7
330
2DD
100
AcDbEntity
  8
Defpoints
 62
     0
440
 16777216
100
AcDbPoint
 10
1049.241943
 20
485.3439329999999
 30
0.0
  0
ENDBLK
  5
2E8
330
2DD
100
AcDbEntity
  8
0
100
AcDbBlockEnd
  0
BLOCK
  5
2EA
330
2E9
100
AcDbEntity
  8
0
100
AcDbBlockBegin
  2
*D7
 70
     1
 10
0.0
 20
0.0
 30
0.0
  3
*D7
  1

  0
LINE
  5
2EB
330
2E9
100
AcDbEntity
  8
DP250×0.1変更
  6
Continuous
 62
     1
440
 16777216
370
    -2
100
AcDbLine
 10
515.0
 20
282.343933
 30
0.0
 11
515.0
 21
184.172699
 31
0.0
  0
LINE
  5
2EC
330
2E9
100
AcDbEntity
  8
DP250×0.1変更
  6
Continuous
 62
     1
440
 16777216
370
    -2
100
AcDbLine
 10
615.0
 20
282.343933
 30
0.0
 11
615.0
 21
184.172699
 31
0.0
  0
LINE
  5
2ED
330
2E9
100
AcDbEntity
  8
DP250×0.1変更
  6
Continuous
 62
     1
440
 16777216
370
    -2
100
AcDbLine
 10
521.0
 20
187.172699
 30
0.0
 11
609.0
 21
187.172699
 31
0.0
  0
INSERT
  5
2EE
330
2E9
100
AcDbEntity
  8
DP250×0.1変更
 62
     1
440
 16777216
370
    -2
100
AcDbBlockReference
  2
EX_BNORM
 10
515.0
 20
187.172699
 30
0.0
 41
6.0
 42
6.0
 43
6.0
 50
180.0
  0
INSERT
  5
2EF
330
2E9
100
AcDbEntity
  8
DP250×0.1変更
 62
     1
440
 16777216
370
    -2
100
AcDbBlockReference
  2
EX_BNORM
 10
615.0
 20
187.172699
 30
0.0
 41
6.0
 42
6.0
 43
6.0
  0
MTEXT
  5
2F0
330
2E9
100
AcDbEntity
  8
DP250×0.1変更
 62
     1
440
 16777216
100
AcDbMText
 10
565.0
 20
192.172699
 30
0.0
 40
6.236220799999999
 41
0.0
 46
0.0
 71
     5
 72
     1
  1
100
  7
EXCADDIM1
 73
     1
 44
1.0
  0
POINT
  5
2F1
330
2E9
100
AcDbEntity
  8
Defpoints
 62
     0
440
 16777216
100
AcDbPoint
 10
515.0
 20
285.343933
 30
0.0
  0
POINT
  5
2F2
330
2E9
100
AcDbEntity
  8
Defpoints
 62
     0
440
 16777216
100
AcDbPoint
 10
615.0
 20
285.343933
 30
0.0
  0
POINT
  5
2F3
330
2E9
100
AcDbEntity
  8
Defpoints
 62
     0
440
 16777216
100
AcDbPoint
 10
615.0
 20
187.172699
 30
0.0
  0
ENDBLK
  5
2F4
330
2E9
100
AcDbEntity
  8
0
100
AcDbBlockEnd
  0
BLOCK
  5
2F6
330
2F5
100
AcDbEntity
  8
0
100
AcDbBlockBegin
  2
*D8
 70
     1
 10
0.0
 20
0.0
 30
0.0
  3
*D8
  1

  0
LINE
  5
2F7
330
2F5
100
AcDbEntity
  8
DP250×0.1変更
  6
Continuous
 62
     1
440
 16777216
370
    -2
100
AcDbLine
 10
720.0
 20
282.343933
 30
0.0
 11
720.0
 21
178.662666
 31
0.0
  0
LINE
  5
2F8
330
2F5
100
AcDbEntity
  8
DP250×0.1変更
  6
Continuous
 62
     1
440
 16777216
370
    -2
100
AcDbLine
 10
960.0
 20
282.343933
 30
0.0
 11
960.0
 21
178.662666
 31
0.0
  0
LINE
  5
2F9
330
2F5
100
AcDbEntity
  8
DP250×0.1変更
  6
Continuous
 62
     1
440
 16777216
370
    -2
100
AcDbLine
 10
726.0
 20
181.662666
 30
0.0
 11
954.0
 21
181.662666
 31
0.0
  0
INSERT
  5
2FA
330
2F5
100
AcDbEntity
  8
DP250×0.1変更
 62
     1
440
 16777216
370
    -2
100
AcDbBlockReference
  2
EX_BNORM
 10
720.0
 20
181.662666
 30
0.0
 41
6.0
 42
6.0
 43
6.0
 50
180.0
  0
INSERT
  5
2FB
330
2F5
100
AcDbEntity
  8
DP250×0.1変更
 62
     1
440
 16777216
370
    -2
100
AcDbBlockReference
  2
EX_BNORM
 10
960.0
 20
181.662666
 30
0.0
 41
6.0
 42
6.0
 43
6.0
  0
MTEXT
  5
2FC
330
2F5
100
AcDbEntity
  8
DP250×0.1変更
 62
     1
440
 16777216
100
AcDbMText
 10
840.0
 20
186.662666
 30
0.0
 40
6.236220799999999
 41
0.0
 46
0.0
 71
     5
 72
     1
  1
240
  7
EXCADDIM1
 73
     1
 44
1.0
  0
POINT
  5
2FD
330
2F5
100
AcDbEntity
  8
Defpoints
 62
     0
440
 16777216
100
AcDbPoint
 10
720.0
 20
285.343933
 30
0.0
  0
POINT
  5
2FE
330
2F5
100
AcDbEntity
  8
Defpoints
 62
     0
440
 16777216
100
AcDbPoint
 10
960.0
 20
285.343933
 30
0.0
  0
POINT
  5
2FF
330
2F5
100
AcDbEntity
  8
Defpoints
 62
     0
440
 16777216
100
AcDbPoint
 10
960.0
 20
181.662666
 30
0.0
  0
ENDBLK
  5
300
330
2F5
100
AcDbEntity
  8
0
100
AcDbBlockEnd
  0
BLOCK
  5
302
330
301
100
AcDbEntity
  8
0
100
AcDbBlockBegin
  2
*D9
 70
     1
 10
0.0
 20
0.0
 30
0.0
  3
*D9
  1

  0
LINE
  5
303
330
301
100
AcDbEntity
  8
DP250×0.1変更
  6
Continuous
 62
     1
440
 16777216
370
    -2
100
AcDbLine
 10
715.0
 20
282.343933
 30
0.0
 11
715.0
 21
156.553116
 31
0.0
  0
LINE
  5
304
330
301
100
AcDbEntity
  8
DP250×0.1変更
  6
Continuous
 62
     1
440
 16777216
370
    -2
100
AcDbLine
 10
965.0
 20
282.343933
 30
0.0
 11
965.0
 21
156.553116
 31
0.0
  0
LINE
  5
305
330
301
100
AcDbEntity
  8
DP250×0.1変更
  6
Continuous
 62
     1
440
 16777216
370
    -2
100
AcDbLine
 10
721.0
 20
159.553116
 30
0.0
 11
959.0
 21
159.553116
 31
0.0
  0
INSERT
  5
306
330
301
100
AcDbEntity
  8
DP250×0.1変更
 62
     1
440
 16777216
370
    -2
100
AcDbBlockReference
  2
EX_BNORM
 10
715.0
 20
159.553116
 30
0.0
 41
6.0
 42
6.0
 43
6.0
 50
180.0
  0
INSERT
  5
307
330
301
100
AcDbEntity
  8
DP250×0.1変更
 62
     1
440
 16777216
370
    -2
100
AcDbBlockReference
  2
EX_BNORM
 10
965.0
 20
159.553116
 30
0.0
 41
6.0
 42
6.0
 43
6.0
  0
MTEXT
  5
308
330
301
100
AcDbEntity
  8
DP250×0.1変更
 62
     1
440
 16777216
100
AcDbMText
 10
840.0
 20
164.553116
 30
0.0
 40
6.236220799999999
 41
0.0
 46
0.0
 71
     5
 72
     1
  1
250
  7
EXCADDIM1
 73
     1
 44
1.0
  0
POINT
  5
309
330
301
100
AcDbEntity
  8
Defpoints
 62
     0
440
 16777216
100
AcDbPoint
 10
715.0
 20
285.343933
 30
0.0
  0
POINT
  5
30A
330
301
100
AcDbEntity
  8
Defpoints
 62
     0
440
 16777216
100
AcDbPoint
 10
965.0
 20
285.343933
 30
0.0
  0
POINT
  5
30B
330
301
100
AcDbEntity
  8
Defpoints
 62
     0
440
 16777216
100
AcDbPoint
 10
965.0
 20
159.553116
 30
0.0
  0
ENDBLK
  5
30C
330
301
100
AcDbEntity
  8
0
100
AcDbBlockEnd
  0
BLOCK
  5
30E
330
30D
100
AcDbEntity
  8
0
100
AcDbBlockBegin
  2
*D10
 70
     1
 10
0.0
 20
0.0
 30
0.0
  3
*D10
  1

  0
LINE
  5
30F
330
30D
100
AcDbEntity
  8
DP250×0.1変更
  6
Continuous
 62
     1
440
 16777216
370
    -2
100
AcDbLine
 10
715.0
 20
282.343933
 30
0.0
 11
715.0
 21
178.662666
 31
0.0
  0
LINE
  5
310
330
30D
100
AcDbEntity
  8
DP250×0.1変更
  6
Continuous
 62
     1
440
 16777216
370
    -2
100
AcDbLine
 10
720.0
 20
282.343933
 30
0.0
 11
720.0
 21
178.662666
 31
0.0
  0
LINE
  5
311
330
30D
100
AcDbEntity
  8
DP250×0.1変更
  6
Continuous
 62
     1
440
 16777216
370
    -2
100
AcDbLine
 10
715.0
 20
181.662666
 30
0.0
 11
720.0
 21
181.662666
 31
0.0
  0
LINE
  5
312
330
30D
100
AcDbEntity
  8
DP250×0.1変更
  6
Continuous
 62
     1
440
 16777216
370
    -2
100
AcDbLine
 10
709.0
 20
181.662666
 30
0.0
 11
703.0
 21
181.662666
 31
0.0
  0
LINE
  5
313
330
30D
100
AcDbEntity
  8
DP250×0.1変更
  6
Continuous
 62
     1
440
 16777216
370
    -2
100
AcDbLine
 10
726.0
 20
181.662666
 30
0.0
 11
732.0
 21
181.662666
 31
0.0
  0
INSERT
  5
314
330
30D
100
AcDbEntity
  8
DP250×0.1変更
 62
     1
440
 16777216
370
    -2
100
AcDbBlockReference
  2
EX_BNORM
 10
715.0
 20
181.662666
 30
0.0
 41
6.0
 42
6.0
 43
6.0
  0
INSERT
  5
315
330
30D
100
AcDbEntity
  8
DP250×0.1変更
 62
     1
440
 16777216
370
    -2
100
AcDbBlockReference
  2
EX_BNORM
 10
720.0
 20
181.662666
 30
0.0
 41
6.0
 42
6.0
 43
6.0
 50
180.0
  0
MTEXT
  5
316
330
30D
100
AcDbEntity
  8
DP250×0.1変更
 62
     1
440
 16777216
100
AcDbMText
 10
699.0
 20
186.662666
 30
0.0
 40
6.236220799999999
 41
0.0
 46
0.0
 71
     5
 72
     1
  1
5.0
  7
EXCADDIM1
 73
     1
 44
1.0
  0
POINT
  5
317
330
30D
100
AcDbEntity
  8
Defpoints
 62
     0
440
 16777216
100
AcDbPoint
 10
715.0
 20
285.343933
 30
0.0
  0
POINT
  5
318
330
30D
100
AcDbEntity
  8
Defpoints
 62
     0
440
 16777216
100
AcDbPoint
 10
720.0
 20
285.343933
 30
0.0
  0
POINT
  5
319
330
30D
100
AcDbEntity
  8
Defpoints
 62
     0
440
 16777216
100
AcDbPoint
 10
720.0
 20
181.662666
 30
0.0
  0
ENDBLK
  5
31A
330
30D
100
AcDbEntity
  8
0
100
AcDbBlockEnd
  0
BLOCK
  5
31C
330
31B
100
AcDbEntity
  8
0
100
AcDbBlockBegin
  2
*D11
 70
     1
 10
0.0
 20
0.0
 30
0.0
  3
*D11
  1

  0
LINE
  5
31D
330
31B
100
AcDbEntity
  8
DP250×0.1変更
  6
Continuous
 62
     1
440
 16777216
370
    -2
100
AcDbLine
 10
960.0
 20
282.343933
 30
0.0
 11
960.0
 21
178.662666
 31
0.0
  0
LINE
  5
31E
330
31B
100
AcDbEntity
  8
DP250×0.1変更
  6
Continuous
 62
     1
440
 16777216
370
    -2
100
AcDbLine
 10
965.0
 20
282.343933
 30
0.0
 11
965.0
 21
178.662666
 31
0.0
  0
LINE
  5
31F
330
31B
100
AcDbEntity
  8
DP250×0.1変更
  6
Continuous
 62
     1
440
 16777216
370
    -2
100
AcDbLine
 10
960.0
 20
181.662666
 30
0.0
 11
965.0
 21
181.662666
 31
0.0
  0
LINE
  5
320
330
31B
100
AcDbEntity
  8
DP250×0.1変更
  6
Continuous
 62
     1
440
 16777216
370
    -2
100
AcDbLine
 10
954.0
 20
181.662666
 30
0.0
 11
948.0
 21
181.662666
 31
0.0
  0
LINE
  5
321
330
31B
100
AcDbEntity
  8
DP250×0.1変更
  6
Continuous
 62
     1
440
 16777216
370
    -2
100
AcDbLine
 10
971.0
 20
181.662666
 30
0.0
 11
977.0
 21
181.662666
 31
0.0
  0
INSERT
  5
322
330
31B
100
AcDbEntity
  8
DP250×0.1変更
 62
     1
440
 16777216
370
    -2
100
AcDbBlockReference
  2
EX_BNORM
 10
960.0
 20
181.662666
 30
0.0
 41
6.0
 42
6.0
 43
6.0
  0
INSERT
  5
323
330
31B
100
AcDbEntity
  8
DP250×0.1変更
 62
     1
440
 16777216
370
    -2
100
AcDbBlockReference
  2
EX_BNORM
 10
965.0
 20
181.662666
 30
0.0
 41
6.0
 42
6.0
 43
6.0
 50
180.0
  0
MTEXT
  5
324
330
31B
100
AcDbEntity
  8
DP250×0.1変更
 62
     1
440
 16777216
100
AcDbMText
 10
981.0
 20
186.662666
 30
0.0
 40
6.236220799999999
 41
0.0
 46
0.0
 71
     5
 72
     1
  1
5.0
  7
EXCADDIM1
 73
     1
 44
1.0
  0
POINT
  5
325
330
31B
100
AcDbEntity
  8
Defpoints
 62
     0
440
 16777216
100
AcDbPoint
 10
960.0
 20
285.343933
 30
0.0
  0
POINT
  5
326
330
31B
100
AcDbEntity
  8
Defpoints
 62
     0
440
 16777216
100
AcDbPoint
 10
965.0
 20
285.343933
 30
0.0
  0
POINT
  5
327
330
31B
100
AcDbEntity
  8
Defpoints
 62
     0
440
 16777216
100
AcDbPoint
 10
965.0
 20
181.662666
 30
0.0
  0
ENDBLK
  5
328
330
31B
100
AcDbEntity
  8
0
100
AcDbBlockEnd
  0
BLOCK
  5
32A
330
329
100
AcDbEntity
  8
0
100
AcDbBlockBegin
  2
*D12
 70
     1
 10
0.0
 20
0.0
 30
0.0
  3
*D12
  1

  0
LINE
  5
32B
330
329
100
AcDbEntity
  8
DP250×0.1変更
  6
Continuous
 62
     1
440
 16777216
370
    -2
100
AcDbLine
 10
527.0
 20
285.343933
 30
0.0
 11
527.0
 21
212.931854
 31
0.0
  0
LINE
  5
32C
330
329
100
AcDbEntity
  8
DP250×0.1変更
  6
Continuous
 62
     1
440
 16777216
370
    -2
100
AcDbLine
 10
603.0
 20
285.343933
 30
0.0
 11
603.0
 21
212.931854
 31
0.0
  0
LINE
  5
32D
330
329
100
AcDbEntity
  8
DP250×0.1変更
  6
Continuous
 62
     1
440
 16777216
370
    -2
100
AcDbLine
 10
533.0
 20
215.931854
 30
0.0
 11
597.0
 21
215.931854
 31
0.0
  0
INSERT
  5
32E
330
329
100
AcDbEntity
  8
DP250×0.1変更
 62
     1
440
 16777216
370
    -2
100
AcDbBlockReference
  2
EX_BNORM
 10
527.0
 20
215.931854
 30
0.0
 41
6.0
 42
6.0
 43
6.0
 50
180.0
  0
INSERT
  5
32F
330
329
100
AcDbEntity
  8
DP250×0.1変更
 62
     1
440
 16777216
370
    -2
100
AcDbBlockReference
  2
EX_BNORM
 10
603.0
 20
215.931854
 30
0.0
 41
6.0
 42
6.0
 43
6.0
  0
MTEXT
  5
330
330
329
100
AcDbEntity
  8
DP250×0.1変更
 62
     1
440
 16777216
100
AcDbMText
 10
565.0
 20
220.931854
 30
0.0
 40
6.236220799999999
 41
0.0
 46
0.0
 71
     5
 72
     1
  1
76
  7
EXCADDIM1
 73
     1
 44
1.0
  0
POINT
  5
331
330
329
100
AcDbEntity
  8
Defpoints
 62
     0
440
 16777216
100
AcDbPoint
 10
527.0
 20
285.343933
 30
0.0
  0
POINT
  5
332
330
329
100
AcDbEntity
  8
Defpoints
 62
     0
440
 16777216
100
AcDbPoint
 10
603.0
 20
285.343933
 30
0.0
  0
POINT
  5
333
330
329
100
AcDbEntity
  8
Defpoints
 62
     0
440
 16777216
100
AcDbPoint
 10
603.0
 20
215.931854
 30
0.0
  0
ENDBLK
  5
334
330
329
100
AcDbEntity
  8
0
100
AcDbBlockEnd
  0
BLOCK
  5
336
330
335
100
AcDbEntity
  8
0
100
AcDbBlockBegin
  2
*D13
 70
     1
 10
0.0
 20
0.0
 30
0.0
  3
*D13
  1

  0
LINE
  5
337
330
335
100
AcDbEntity
  8
DP250×0.1変更
  6
Continuous
 62
     1
440
 16777216
370
    -2
100
AcDbLine
 10
515.0
 20
285.343933
 30
0.0
 11
515.0
 21
212.931854
 31
0.0
  0
LINE
  5
338
330
335
100
AcDbEntity
  8
DP250×0.1変更
  6
Continuous
 62
     1
440
 16777216
370
    -2
100
AcDbLine
 10
527.0
 20
285.343933
 30
0.0
 11
527.0
 21
212.931854
 31
0.0
  0
LINE
  5
339
330
335
100
AcDbEntity
  8
DP250×0.1変更
  6
Continuous
 62
     1
440
 16777216
370
    -2
100
AcDbLine
 10
521.0
 20
215.931854
 30
0.0
 11
521.0
 21
215.931854
 31
0.0
  0
INSERT
  5
33A
330
335
100
AcDbEntity
  8
DP250×0.1変更
 62
     1
440
 16777216
370
    -2
100
AcDbBlockReference
  2
EX_BNORM
 10
515.0
 20
215.931854
 30
0.0
 41
6.0
 42
6.0
 43
6.0
 50
180.0
  0
INSERT
  5
33B
330
335
100
AcDbEntity
  8
DP250×0.1変更
 62
     1
440
 16777216
370
    -2
100
AcDbBlockReference
  2
EX_BNORM
 10
527.0
 20
215.931854
 30
0.0
 41
6.0
 42
6.0
 43
6.0
  0
MTEXT
  5
33C
330
335
100
AcDbEntity
  8
DP250×0.1変更
 62
     1
440
 16777216
100
AcDbMText
 10
501.0
 20
220.931854
 30
0.0
 40
6.236220799999999
 41
0.0
 46
0.0
 71
     5
 72
     1
  1
12
  7
EXCADDIM1
 73
     1
 44
1.0
  0
POINT
  5
33D
330
335
100
AcDbEntity
  8
Defpoints
 62
     0
440
 16777216
100
AcDbPoint
 10
515.0
 20
285.343933
 30
0.0
  0
POINT
  5
33E
330
335
100
AcDbEntity
  8
Defpoints
 62
     0
440
 16777216
100
AcDbPoint
 10
527.0
 20
285.343933
 30
0.0
  0
POINT
  5
33F
330
335
100
AcDbEntity
  8
Defpoints
 62
     0
440
 16777216
100
AcDbPoint
 10
527.0
 20
215.931854
 30
0.0
  0
ENDBLK
  5
340
330
335
100
AcDbEntity
  8
0
100
AcDbBlockEnd
  0
BLOCK
  5
342
330
341
100
AcDbEntity
  8
0
100
AcDbBlockBegin
  2
*D14
 70
     1
 10
0.0
 20
0.0
 30
0.0
  3
*D14
  1

  0
LINE
  5
343
330
341
100
AcDbEntity
  8
DP250×0.1変更
  6
Continuous
 62
     1
440
 16777216
370
    -2
100
AcDbLine
 10
603.0
 20
285.343933
 30
0.0
 11
603.0
 21
212.931854
 31
0.0
  0
LINE
  5
344
330
341
100
AcDbEntity
  8
DP250×0.1変更
  6
Continuous
 62
     1
440
 16777216
370
    -2
100
AcDbLine
 10
615.0
 20
285.343933
 30
0.0
 11
615.0
 21
212.931854
 31
0.0
  0
LINE
  5
345
330
341
100
AcDbEntity
  8
DP250×0.1変更
  6
Continuous
 62
     1
440
 16777216
370
    -2
100
AcDbLine
 10
609.0
 20
215.931854
 30
0.0
 11
609.0
 21
215.931854
 31
0.0
  0
INSERT
  5
346
330
341
100
AcDbEntity
  8
DP250×0.1変更
 62
     1
440
 16777216
370
    -2
100
AcDbBlockReference
  2
EX_BNORM
 10
603.0
 20
215.931854
 30
0.0
 41
6.0
 42
6.0
 43
6.0
 50
180.0
  0
INSERT
  5
347
330
341
100
AcDbEntity
  8
DP250×0.1変更
 62
     1
440
 16777216
370
    -2
100
AcDbBlockReference
  2
EX_BNORM
 10
615.0
 20
215.931854
 30
0.0
 41
6.0
 42
6.0
 43
6.0
  0
MTEXT
  5
348
330
341
100
AcDbEntity
  8
DP250×0.1変更
 62
     1
440
 16777216
100
AcDbMText
 10
629.0
 20
220.931854
 30
0.0
 40
6.236220799999999
 41
0.0
 46
0.0
 71
     5
 72
     1
  1
12
  7
EXCADDIM1
 73
     1
 44
1.0
  0
POINT
  5
349
330
341
100
AcDbEntity
  8
Defpoints
 62
     0
440
 16777216
100
AcDbPoint
 10
603.0
 20
285.343933
 30
0.0
  0
POINT
  5
34A
330
341
100
AcDbEntity
  8
Defpoints
 62
     0
440
 16777216
100
AcDbPoint
 10
615.0
 20
285.343933
 30
0.0
  0
POINT
  5
34B
330
341
100
AcDbEntity
  8
Defpoints
 62
     0
440
 16777216
100
AcDbPoint
 10
615.0
 20
215.931854
 30
0.0
  0
ENDBLK
  5
34C
330
341
100
AcDbEntity
  8
0
100
AcDbBlockEnd
  0
BLOCK
  5
34E
330
34D
100
AcDbEntity
  8
0
100
AcDbBlockBegin
  2
*D15
 70
     1
 10
0.0
 20
0.0
 30
0.0
  3
*D15
  1

  0
LINE
  5
34F
330
34D
100
AcDbEntity
  8
DP250×0.1変更
  6
Continuous
 62
     1
440
 16777216
370
    -2
100
AcDbLine
 10
765.0
 20
314.659729
 30
0.0
 11
765.0
 21
213.2
 31
0.0
  0
LINE
  5
350
330
34D
100
AcDbEntity
  8
DP250×0.1変更
  6
Continuous
 62
     1
440
 16777216
370
    -2
100
AcDbLine
 10
915.0
 20
314.659729
 30
0.0
 11
915.0
 21
213.2
 31
0.0
  0
LINE
  5
351
330
34D
100
AcDbEntity
  8
DP250×0.1変更
  6
Continuous
 62
     1
440
 16777216
370
    -2
100
AcDbLine
 10
771.0
 20
216.2
 30
0.0
 11
909.0
 21
216.2
 31
0.0
  0
INSERT
  5
352
330
34D
100
AcDbEntity
  8
DP250×0.1変更
 62
     1
440
 16777216
370
    -2
100
AcDbBlockReference
  2
EX_BNORM
 10
765.0
 20
216.2
 30
0.0
 41
6.0
 42
6.0
 43
6.0
 50
180.0
  0
INSERT
  5
353
330
34D
100
AcDbEntity
  8
DP250×0.1変更
 62
     1
440
 16777216
370
    -2
100
AcDbBlockReference
  2
EX_BNORM
 10
915.0
 20
216.2
 30
0.0
 41
6.0
 42
6.0
 43
6.0
  0
MTEXT
  5
354
330
34D
100
AcDbEntity
  8
DP250×0.1変更
 62
     1
440
 16777216
100
AcDbMText
 10
840.0
 20
221.2
 30
0.0
 40
6.236220799999999
 41
0.0
 46
0.0
 71
     5
 72
     1
  1
150
  7
EXCADDIM1
 73
     1
 44
1.0
  0
POINT
  5
355
330
34D
100
AcDbEntity
  8
Defpoints
 62
     0
440
 16777216
100
AcDbPoint
 10
765.0
 20
317.659729
 30
0.0
  0
POINT
  5
356
330
34D
100
AcDbEntity
  8
Defpoints
 62
     0
440
 16777216
100
AcDbPoint
 10
915.0
 20
317.659729
 30
0.0
  0
POINT
  5
357
330
34D
100
AcDbEntity
  8
Defpoints
 62
     0
440
 16777216
100
AcDbPoint
 10
915.0
 20
216.2
 30
0.0
  0
ENDBLK
  5
358
330
34D
100
AcDbEntity
  8
0
100
AcDbBlockEnd
  0
BLOCK
  5
445
330
444
100
AcDbEntity
  8
0
100
AcDbBlockBegin
  2
*D17
 70
     1
 10
0.0
 20
0.0
 30
0.0
  3
*D17
  1

  0
LINE
  5
777
330
444
100
AcDbEntity
  8
SIZE
 62
     1
440
 16777216
370
    -2
100
AcDbLine
 10
4127.980938477406
 20
1775.278171527976
 30
0.0
 11
4127.980938477406
 21
1673.818442527976
 31
0.0
  0
LINE
  5
778
330
444
100
AcDbEntity
  8
SIZE
 62
     1
440
 16777216
370
    -2
100
AcDbLine
 10
4277.980938477407
 20
1775.278171527976
 30
0.0
 11
4277.980938477407
 21
1673.818442527976
 31
0.0
  0
LINE
  5
779
330
444
100
AcDbEntity
  8
SIZE
 62
     1
440
 16777216
370
    -2
100
AcDbLine
 10
4133.980938477407
 20
1676.818442527976
 30
0.0
 11
4271.980938477407
 21
1676.818442527976
 31
0.0
  0
MTEXT
  5
77A
330
444
100
AcDbEntity
  8
SIZE
 62
     1
440
 16777216
100
AcDbMText
 10
4202.980938477407
 20
1681.818442527976
 30
0.0
 40
6.236220799999999
 41
0.0
 46
0.0
 71
     5
 72
     1
  1
150
  7
EXCADDIM1
 73
     1
 44
1.0
  0
INSERT
  5
77B
330
444
100
AcDbEntity
  8
SIZE
 62
     1
440
 16777216
370
    -2
100
AcDbBlockReference
  2
EX_BNORM
 10
4127.980938477406
 20
1676.818442527976
 30
0.0
 41
6.0
 42
6.0
 43
6.0
 50
180.0
  0
INSERT
  5
77C
330
444
100
AcDbEntity
  8
SIZE
 62
     1
440
 16777216
370
    -2
100
AcDbBlockReference
  2
EX_BNORM
 10
4277.980938477407
 20
1676.818442527976
 30
0.0
 41
6.0
 42
6.0
 43
6.0
  0
POINT
  5
77D
330
444
100
AcDbEntity
  8
Defpoints
 62
     0
440
 16777216
100
AcDbPoint
 10
4127.980938477406
 20
1778.278171527976
 30
0.0
  0
POINT
  5
77E
330
444
100
AcDbEntity
  8
Defpoints
 62
     0
440
 16777216
100
AcDbPoint
 10
4277.980938477407
 20
1778.278171527976
 30
0.0
  0
POINT
  5
77F
330
444
100
AcDbEntity
  8
Defpoints
 62
     0
440
 16777216
100
AcDbPoint
 10
4277.980938477407
 20
1676.818442527976
 30
0.0
  0
ENDBLK
  5
446
330
444
100
AcDbEntity
  8
0
100
AcDbBlockEnd
  0
BLOCK
  5
451
330
450
100
AcDbEntity
  8
0
100
AcDbBlockBegin
  2
*D18
 70
     1
 10
0.0
 20
0.0
 30
0.0
  3
*D18
  1

  0
LINE
  5
76E
330
450
100
AcDbEntity
  8
SIZE
 62
     1
440
 16777216
370
    -2
100
AcDbLine
 10
3566.90055547741
 20
1940.940677527977
 30
0.0
 11
3444.285381477415
 21
1940.940677527977
 31
0.0
  0
LINE
  5
76F
330
450
100
AcDbEntity
  8
SIZE
 62
     1
440
 16777216
370
    -2
100
AcDbLine
 10
3566.900585477409
 20
1800.940677527977
 30
0.0
 11
3444.285381477415
 21
1800.940677527977
 31
0.0
  0
LINE
  5
770
330
450
100
AcDbEntity
  8
SIZE
 62
     1
440
 16777216
370
    -2
100
AcDbLine
 10
3447.285381477415
 20
1934.940677527977
 30
0.0
 11
3447.285381477415
 21
1806.940677527977
 31
0.0
  0
MTEXT
  5
771
330
450
100
AcDbEntity
  8
SIZE
 62
     1
440
 16777216
100
AcDbMText
 10
3442.285381477408
 20
1870.940677527976
 30
0.0
 40
6.236220799999999
 41
0.0
 46
0.0
 71
     5
 72
     1
  1
140
  7
EXCADDIM1
 11
-0.0000000000000004
 21
1.0
 31
0.0
 73
     1
 44
1.0
  0
INSERT
  5
772
330
450
100
AcDbEntity
  8
SIZE
 62
     1
440
 16777216
370
    -2
100
AcDbBlockReference
  2
EX_BNORM
 10
3447.285381477415
 20
1940.940677527977
 30
0.0
 41
6.0
 42
6.0
 43
6.0
 50
90.0
  0
INSERT
  5
773
330
450
100
AcDbEntity
  8
SIZE
 62
     1
440
 16777216
370
    -2
100
AcDbBlockReference
  2
EX_BNORM
 10
3447.285381477415
 20
1800.940677527977
 30
0.0
 41
6.0
 42
6.0
 43
6.0
 50
270.0
  0
POINT
  5
774
330
450
100
AcDbEntity
  8
Defpoints
 62
     0
440
 16777216
100
AcDbPoint
 10
3569.90055547741
 20
1940.940677527977
 30
0.0
  0
POINT
  5
775
330
450
100
AcDbEntity
  8
Defpoints
 62
     0
440
 16777216
100
AcDbPoint
 10
3569.900585477409
 20
1800.940677527977
 30
0.0
  0
POINT
  5
776
330
450
100
AcDbEntity
  8
Defpoints
 62
     0
440
 16777216
100
AcDbPoint
 10
3447.285381477415
 20
1800.940677527977
 30
0.0
  0
ENDBLK
  5
452
330
450
100
AcDbEntity
  8
0
100
AcDbBlockEnd
  0
BLOCK
  5
45D
330
45C
100
AcDbEntity
  8
0
100
AcDbBlockBegin
  2
*D19
 70
     1
 10
0.0
 20
0.0
 30
0.0
  3
*D19
  1

  0
LINE
  5
7E5
330
45C
100
AcDbEntity
  8
SIZE
 62
     1
440
 16777216
370
    -2
100
AcDbLine
 10
4330.980938477408
 20
1995.962375527977
 30
0.0
 11
4451.578777477415
 21
1995.962375527977
 31
0.0
  0
LINE
  5
7E6
330
45C
100
AcDbEntity
  8
SIZE
 62
     1
440
 16777216
370
    -2
100
AcDbLine
 10
4330.980938477408
 20
1745.962375527977
 30
0.0
 11
4451.578777477415
 21
1745.962375527977
 31
0.0
  0
LINE
  5
7E7
330
45C
100
AcDbEntity
  8
SIZE
 62
     1
440
 16777216
370
    -2
100
AcDbLine
 10
4448.578777477415
 20
1989.962375527977
 30
0.0
 11
4448.578777477415
 21
1751.962375527977
 31
0.0
  0
MTEXT
  5
7E8
330
45C
100
AcDbEntity
  8
SIZE
 62
     1
440
 16777216
100
AcDbMText
 10
4443.578777477407
 20
1870.962375527976
 30
0.0
 40
6.236220799999999
 41
0.0
 46
0.0
 71
     5
 72
     1
  1
250
  7
EXCADDIM1
 11
-0.0000000000000004
 21
1.0
 31
0.0
 73
     1
 44
1.0
  0
INSERT
  5
7E9
330
45C
100
AcDbEntity
  8
SIZE
 62
     1
440
 16777216
370
    -2
100
AcDbBlockReference
  2
EX_BNORM
 10
4448.578777477415
 20
1995.962375527977
 30
0.0
 41
6.0
 42
6.0
 43
6.0
 50
90.0
  0
INSERT
  5
7EA
330
45C
100
AcDbEntity
  8
SIZE
 62
     1
440
 16777216
370
    -2
100
AcDbBlockReference
  2
EX_BNORM
 10
4448.578777477415
 20
1745.962375527977
 30
0.0
 41
6.0
 42
6.0
 43
6.0
 50
270.0
  0
POINT
  5
7EB
330
45C
100
AcDbEntity
  8
Defpoints
 62
     0
440
 16777216
100
AcDbPoint
 10
4327.980938477408
 20
1995.962375527977
 30
0.0
  0
POINT
  5
7EC
330
45C
100
AcDbEntity
  8
Defpoints
 62
     0
440
 16777216
100
AcDbPoint
 10
4327.980938477408
 20
1745.962375527977
 30
0.0
  0
POINT
  5
7ED
330
45C
100
AcDbEntity
  8
Defpoints
 62
     0
440
 16777216
100
AcDbPoint
 10
4448.578777477415
 20
1745.962375527977
 30
0.0
  0
ENDBLK
  5
45E
330
45C
100
AcDbEntity
  8
0
100
AcDbBlockEnd
  0
BLOCK
  5
469
330
468
100
AcDbEntity
  8
0
100
AcDbBlockBegin
  2
*D20
 70
     1
 10
0.0
 20
0.0
 30
0.0
  3
*D20
  1

  0
LINE
  5
7CA
330
468
100
AcDbEntity
  8
SIZE
 62
     1
440
 16777216
370
    -2
100
AcDbLine
 10
3582.400585477407
 20
1781.215900527976
 30
0.0
 11
3582.400585477407
 21
1665.405261527976
 31
0.0
  0
LINE
  5
7CB
330
468
100
AcDbEntity
  8
SIZE
 62
     1
440
 16777216
370
    -2
100
AcDbLine
 10
3722.400585477407
 20
1782.076053527976
 30
0.0
 11
3722.400585477407
 21
1665.405261527976
 31
0.0
  0
LINE
  5
7CC
330
468
100
AcDbEntity
  8
SIZE
 62
     1
440
 16777216
370
    -2
100
AcDbLine
 10
3588.400585477407
 20
1668.405261527976
 30
0.0
 11
3716.400585477408
 21
1668.405261527976
 31
0.0
  0
MTEXT
  5
7CD
330
468
100
AcDbEntity
  8
SIZE
 62
     1
440
 16777216
100
AcDbMText
 10
3652.400585477407
 20
1673.405261527976
 30
0.0
 40
6.236220799999999
 41
0.0
 46
0.0
 71
     5
 72
     1
  1
140
  7
EXCADDIM1
 73
     1
 44
1.0
  0
INSERT
  5
7CE
330
468
100
AcDbEntity
  8
SIZE
 62
     1
440
 16777216
370
    -2
100
AcDbBlockReference
  2
EX_BNORM
 10
3582.400585477407
 20
1668.405261527976
 30
0.0
 41
6.0
 42
6.0
 43
6.0
 50
180.0
  0
INSERT
  5
7CF
330
468
100
AcDbEntity
  8
SIZE
 62
     1
440
 16777216
370
    -2
100
AcDbBlockReference
  2
EX_BNORM
 10
3722.400585477407
 20
1668.405261527976
 30
0.0
 41
6.0
 42
6.0
 43
6.0
  0
POINT
  5
7D0
330
468
100
AcDbEntity
  8
Defpoints
 62
     0
440
 16777216
100
AcDbPoint
 10
3582.400585477407
 20
1784.215900527976
 30
0.0
  0
POINT
  5
7D1
330
468
100
AcDbEntity
  8
Defpoints
 62
     0
440
 16777216
100
AcDbPoint
 10
3722.400585477407
 20
1785.076053527976
 30
0.0
  0
POINT
  5
7D2
330
468
100
AcDbEntity
  8
Defpoints
 62
     0
440
 16777216
100
AcDbPoint
 10
3722.400585477407
 20
1668.405261527976
 30
0.0
  0
ENDBLK
  5
46A
330
468
100
AcDbEntity
  8
0
100
AcDbBlockEnd
  0
BLOCK
  5
475
330
474
100
AcDbEntity
  8
0
100
AcDbBlockBegin
  2
*D21
 70
     1
 10
0.0
 20
0.0
 30
0.0
  3
*D21
  1

  0
LINE
  5
7DC
330
474
100
AcDbEntity
  8
SIZE
 62
     1
440
 16777216
370
    -2
100
AcDbLine
 10
4298.877178477408
 20
1820.962375527977
 30
0.0
 11
4382.276180477415
 21
1820.962375527977
 31
0.0
  0
LINE
  5
7DD
330
474
100
AcDbEntity
  8
SIZE
 62
     1
440
 16777216
370
    -2
100
AcDbLine
 10
4298.877178477408
 20
1920.962375527977
 30
0.0
 11
4382.276180477415
 21
1920.962375527977
 31
0.0
  0
LINE
  5
7DE
330
474
100
AcDbEntity
  8
SIZE
 62
     1
440
 16777216
370
    -2
100
AcDbLine
 10
4379.276180477415
 20
1826.962375527977
 30
0.0
 11
4379.276180477415
 21
1914.962375527977
 31
0.0
  0
MTEXT
  5
7DF
330
474
100
AcDbEntity
  8
SIZE
 62
     1
440
 16777216
100
AcDbMText
 10
4374.276180477408
 20
1870.962375527976
 30
0.0
 40
6.236220799999999
 41
0.0
 46
0.0
 71
     5
 72
     1
  1
100
  7
EXCADDIM1
 11
-0.0000000000000004
 21
1.0
 31
0.0
 73
     1
 44
1.0
  0
INSERT
  5
7E0
330
474
100
AcDbEntity
  8
SIZE
 62
     1
440
 16777216
370
    -2
100
AcDbBlockReference
  2
EX_BNORM
 10
4379.276180477415
 20
1820.962375527977
 30
0.0
 41
6.0
 42
6.0
 43
6.0
 50
270.0
  0
INSERT
  5
7E1
330
474
100
AcDbEntity
  8
SIZE
 62
     1
440
 16777216
370
    -2
100
AcDbBlockReference
  2
EX_BNORM
 10
4379.276180477415
 20
1920.962375527977
 30
0.0
 41
6.0
 42
6.0
 43
6.0
 50
90.0
  0
POINT
  5
7E2
330
474
100
AcDbEntity
  8
Defpoints
 62
     0
440
 16777216
100
AcDbPoint
 10
4295.877178477409
 20
1820.962375527977
 30
0.0
  0
POINT
  5
7E3
330
474
100
AcDbEntity
  8
Defpoints
 62
     0
440
 16777216
100
AcDbPoint
 10
4295.877178477409
 20
1920.962375527977
 30
0.0
  0
POINT
  5
7E4
330
474
100
AcDbEntity
  8
Defpoints
 62
     0
440
 16777216
100
AcDbPoint
 10
4379.276180477415
 20
1920.962375527977
 30
0.0
  0
ENDBLK
  5
476
330
474
100
AcDbEntity
  8
0
100
AcDbBlockEnd
  0
BLOCK
  5
481
330
480
100
AcDbEntity
  8
0
100
AcDbBlockBegin
  2
*D22
 70
     1
 10
0.0
 20
0.0
 30
0.0
  3
*D22
  1

  0
LINE
  5
7D3
330
480
100
AcDbEntity
  8
SIZE
 62
     1
440
 16777216
370
    -2
100
AcDbLine
 10
4299.171184477409
 20
1795.962375527977
 30
0.0
 11
4415.222881477415
 21
1795.962375527977
 31
0.0
  0
LINE
  5
7D4
330
480
100
AcDbEntity
  8
SIZE
 62
     1
440
 16777216
370
    -2
100
AcDbLine
 10
4299.171184477409
 20
1945.962375527977
 30
0.0
 11
4415.222881477415
 21
1945.962375527977
 31
0.0
  0
LINE
  5
7D5
330
480
100
AcDbEntity
  8
SIZE
 62
     1
440
 16777216
370
    -2
100
AcDbLine
 10
4412.222881477415
 20
1801.962375527977
 30
0.0
 11
4412.222881477415
 21
1939.962375527977
 31
0.0
  0
MTEXT
  5
7D6
330
480
100
AcDbEntity
  8
SIZE
 62
     1
440
 16777216
100
AcDbMText
 10
4407.222881477407
 20
1870.962375527976
 30
0.0
 40
6.236220799999999
 41
0.0
 46
0.0
 71
     5
 72
     1
  1
150
  7
EXCADDIM1
 11
-0.0000000000000004
 21
1.0
 31
0.0
 73
     1
 44
1.0
  0
INSERT
  5
7D7
330
480
100
AcDbEntity
  8
SIZE
 62
     1
440
 16777216
370
    -2
100
AcDbBlockReference
  2
EX_BNORM
 10
4412.222881477415
 20
1795.962375527977
 30
0.0
 41
6.0
 42
6.0
 43
6.0
 50
270.0
  0
INSERT
  5
7D8
330
480
100
AcDbEntity
  8
SIZE
 62
     1
440
 16777216
370
    -2
100
AcDbBlockReference
  2
EX_BNORM
 10
4412.222881477415
 20
1945.962375527977
 30
0.0
 41
6.0
 42
6.0
 43
6.0
 50
90.0
  0
POINT
  5
7D9
330
480
100
AcDbEntity
  8
Defpoints
 62
     0
440
 16777216
100
AcDbPoint
 10
4296.171184477409
 20
1795.962375527977
 30
0.0
  0
POINT
  5
7DA
330
480
100
AcDbEntity
  8
Defpoints
 62
     0
440
 16777216
100
AcDbPoint
 10
4296.171184477409
 20
1945.962375527977
 30
0.0
  0
POINT
  5
7DB
330
480
100
AcDbEntity
  8
Defpoints
 62
     0
440
 16777216
100
AcDbPoint
 10
4412.222881477415
 20
1945.962375527977
 30
0.0
  0
ENDBLK
  5
482
330
480
100
AcDbEntity
  8
0
100
AcDbBlockEnd
  0
BLOCK
  5
48D
330
48C
100
AcDbEntity
  8
0
100
AcDbBlockBegin
  2
*D23
 70
     1
 10
0.0
 20
0.0
 30
0.0
  3
*D23
  1

  0
LINE
  5
7C1
330
48C
100
AcDbEntity
  8
SIZE
 62
     1
440
 16777216
370
    -2
100
AcDbLine
 10
3877.980938477407
 20
1742.962375527976
 30
0.0
 11
3877.980938477407
 21
1644.791141527976
 31
0.0
  0
LINE
  5
7C2
330
48C
100
AcDbEntity
  8
SIZE
 62
     1
440
 16777216
370
    -2
100
AcDbLine
 10
3977.980938477407
 20
1742.962375527976
 30
0.0
 11
3977.980938477407
 21
1644.791141527976
 31
0.0
  0
LINE
  5
7C3
330
48C
100
AcDbEntity
  8
SIZE
 62
     1
440
 16777216
370
    -2
100
AcDbLine
 10
3883.980938477407
 20
1647.791141527976
 30
0.0
 11
3971.980938477408
 21
1647.791141527976
 31
0.0
  0
MTEXT
  5
7C4
330
48C
100
AcDbEntity
  8
SIZE
 62
     1
440
 16777216
100
AcDbMText
 10
3927.980938477407
 20
1652.791141527976
 30
0.0
 40
6.236220799999999
 41
0.0
 46
0.0
 71
     5
 72
     1
  1
100
  7
EXCADDIM1
 73
     1
 44
1.0
  0
INSERT
  5
7C5
330
48C
100
AcDbEntity
  8
SIZE
 62
     1
440
 16777216
370
    -2
100
AcDbBlockReference
  2
EX_BNORM
 10
3877.980938477407
 20
1647.791141527976
 30
0.0
 41
6.0
 42
6.0
 43
6.0
 50
180.0
  0
INSERT
  5
7C6
330
48C
100
AcDbEntity
  8
SIZE
 62
     1
440
 16777216
370
    -2
100
AcDbBlockReference
  2
EX_BNORM
 10
3977.980938477407
 20
1647.791141527976
 30
0.0
 41
6.0
 42
6.0
 43
6.0
  0
POINT
  5
7C7
330
48C
100
AcDbEntity
  8
Defpoints
 62
     0
440
 16777216
100
AcDbPoint
 10
3877.980938477407
 20
1745.962375527976
 30
0.0
  0
POINT
  5
7C8
330
48C
100
AcDbEntity
  8
Defpoints
 62
     0
440
 16777216
100
AcDbPoint
 10
3977.980938477407
 20
1745.962375527976
 30
0.0
  0
POINT
  5
7C9
330
48C
100
AcDbEntity
  8
Defpoints
 62
     0
440
 16777216
100
AcDbPoint
 10
3977.980938477407
 20
1647.791141527976
 30
0.0
  0
ENDBLK
  5
48E
330
48C
100
AcDbEntity
  8
0
100
AcDbBlockEnd
  0
BLOCK
  5
499
330
498
100
AcDbEntity
  8
0
100
AcDbBlockBegin
  2
*D24
 70
     1
 10
0.0
 20
0.0
 30
0.0
  3
*D24
  1

  0
LINE
  5
7B8
330
498
100
AcDbEntity
  8
SIZE
 62
     1
440
 16777216
370
    -2
100
AcDbLine
 10
4082.980938477407
 20
1742.962375527976
 30
0.0
 11
4082.980938477407
 21
1639.281108527976
 31
0.0
  0
LINE
  5
7B9
330
498
100
AcDbEntity
  8
SIZE
 62
     1
440
 16777216
370
    -2
100
AcDbLine
 10
4322.980938477407
 20
1742.962375527976
 30
0.0
 11
4322.980938477407
 21
1639.281108527976
 31
0.0
  0
LINE
  5
7BA
330
498
100
AcDbEntity
  8
SIZE
 62
     1
440
 16777216
370
    -2
100
AcDbLine
 10
4088.980938477408
 20
1642.281108527976
 30
0.0
 11
4316.980938477406
 21
1642.281108527976
 31
0.0
  0
MTEXT
  5
7BB
330
498
100
AcDbEntity
  8
SIZE
 62
     1
440
 16777216
100
AcDbMText
 10
4202.980938477407
 20
1647.281108527976
 30
0.0
 40
6.236220799999999
 41
0.0
 46
0.0
 71
     5
 72
     1
  1
240
  7
EXCADDIM1
 73
     1
 44
1.0
  0
INSERT
  5
7BC
330
498
100
AcDbEntity
  8
SIZE
 62
     1
440
 16777216
370
    -2
100
AcDbBlockReference
  2
EX_BNORM
 10
4082.980938477407
 20
1642.281108527976
 30
0.0
 41
6.0
 42
6.0
 43
6.0
 50
180.0
  0
INSERT
  5
7BD
330
498
100
AcDbEntity
  8
SIZE
 62
     1
440
 16777216
370
    -2
100
AcDbBlockReference
  2
EX_BNORM
 10
4322.980938477407
 20
1642.281108527976
 30
0.0
 41
6.0
 42
6.0
 43
6.0
  0
POINT
  5
7BE
330
498
100
AcDbEntity
  8
Defpoints
 62
     0
440
 16777216
100
AcDbPoint
 10
4082.980938477407
 20
1745.962375527976
 30
0.0
  0
POINT
  5
7BF
330
498
100
AcDbEntity
  8
Defpoints
 62
     0
440
 16777216
100
AcDbPoint
 10
4322.980938477407
 20
1745.962375527976
 30
0.0
  0
POINT
  5
7C0
330
498
100
AcDbEntity
  8
Defpoints
 62
     0
440
 16777216
100
AcDbPoint
 10
4322.980938477407
 20
1642.281108527976
 30
0.0
  0
ENDBLK
  5
49A
330
498
100
AcDbEntity
  8
0
100
AcDbBlockEnd
  0
BLOCK
  5
4A5
330
4A4
100
AcDbEntity
  8
0
100
AcDbBlockBegin
  2
*D25
 70
     1
 10
0.0
 20
0.0
 30
0.0
  3
*D25
  1

  0
LINE
  5
7AF
330
4A4
100
AcDbEntity
  8
SIZE
 62
     1
440
 16777216
370
    -2
100
AcDbLine
 10
4077.980938477407
 20
1742.962375527976
 30
0.0
 11
4077.980938477407
 21
1617.171558527976
 31
0.0
  0
LINE
  5
7B0
330
4A4
100
AcDbEntity
  8
SIZE
 62
     1
440
 16777216
370
    -2
100
AcDbLine
 10
4327.980938477407
 20
1742.962375527976
 30
0.0
 11
4327.980938477407
 21
1617.171558527976
 31
0.0
  0
LINE
  5
7B1
330
4A4
100
AcDbEntity
  8
SIZE
 62
     1
440
 16777216
370
    -2
100
AcDbLine
 10
4083.980938477407
 20
1620.171558527976
 30
0.0
 11
4321.980938477407
 21
1620.171558527976
 31
0.0
  0
MTEXT
  5
7B2
330
4A4
100
AcDbEntity
  8
SIZE
 62
     1
440
 16777216
100
AcDbMText
 10
4202.980938477407
 20
1625.171558527976
 30
0.0
 40
6.236220799999999
 41
0.0
 46
0.0
 71
     5
 72
     1
  1
250
  7
EXCADDIM1
 73
     1
 44
1.0
  0
INSERT
  5
7B3
330
4A4
100
AcDbEntity
  8
SIZE
 62
     1
440
 16777216
370
    -2
100
AcDbBlockReference
  2
EX_BNORM
 10
4077.980938477407
 20
1620.171558527976
 30
0.0
 41
6.0
 42
6.0
 43
6.0
 50
180.0
  0
INSERT
  5
7B4
330
4A4
100
AcDbEntity
  8
SIZE
 62
     1
440
 16777216
370
    -2
100
AcDbBlockReference
  2
EX_BNORM
 10
4327.980938477407
 20
1620.171558527976
 30
0.0
 41
6.0
 42
6.0
 43
6.0
  0
POINT
  5
7B5
330
4A4
100
AcDbEntity
  8
Defpoints
 62
     0
440
 16777216
100
AcDbPoint
 10
4077.980938477407
 20
1745.962375527976
 30
0.0
  0
POINT
  5
7B6
330
4A4
100
AcDbEntity
  8
Defpoints
 62
     0
440
 16777216
100
AcDbPoint
 10
4327.980938477407
 20
1745.962375527976
 30
0.0
  0
POINT
  5
7B7
330
4A4
100
AcDbEntity
  8
Defpoints
 62
     0
440
 16777216
100
AcDbPoint
 10
4327.980938477407
 20
1620.171558527976
 30
0.0
  0
ENDBLK
  5
4A6
330
4A4
100
AcDbEntity
  8
0
100
AcDbBlockEnd
  0
BLOCK
  5
4B1
330
4B0
100
AcDbEntity
  8
0
100
AcDbBlockBegin
  2
*D26
 70
     1
 10
0.0
 20
0.0
 30
0.0
  3
*D26
  1

  0
LINE
  5
7A4
330
4B0
100
AcDbEntity
  8
SIZE
 62
     1
440
 16777216
370
    -2
100
AcDbLine
 10
4077.980938477407
 20
1742.962375527976
 30
0.0
 11
4077.980938477407
 21
1639.281108527976
 31
0.0
  0
LINE
  5
7A5
330
4B0
100
AcDbEntity
  8
SIZE
 62
     1
440
 16777216
370
    -2
100
AcDbLine
 10
4082.980938477407
 20
1742.962375527976
 30
0.0
 11
4082.980938477407
 21
1639.281108527976
 31
0.0
  0
LINE
  5
7A6
330
4B0
100
AcDbEntity
  8
SIZE
 62
     1
440
 16777216
370
    -2
100
AcDbLine
 10
4071.980938477407
 20
1642.281108527976
 30
0.0
 11
4065.980938477407
 21
1642.281108527976
 31
0.0
  0
LINE
  5
7A7
330
4B0
100
AcDbEntity
  8
SIZE
 62
     1
440
 16777216
370
    -2
100
AcDbLine
 10
4088.980938477408
 20
1642.281108527976
 30
0.0
 11
4094.980938477407
 21
1642.281108527976
 31
0.0
  0
MTEXT
  5
7A8
330
4B0
100
AcDbEntity
  8
SIZE
 62
     1
440
 16777216
100
AcDbMText
 10
4061.980938477407
 20
1647.281108527976
 30
0.0
 40
6.236220799999999
 41
0.0
 46
0.0
 71
     5
 72
     1
  1
5,0
  7
EXCADDIM1
 73
     1
 44
1.0
  0
LINE
  5
7A9
330
4B0
100
AcDbEntity
  8
SIZE
 62
     1
440
 16777216
370
    -2
100
AcDbLine
 10
4077.980938477407
 20
1642.281108527976
 30
0.0
 11
4082.980938477407
 21
1642.281108527976
 31
0.0
  0
INSERT
  5
7AA
330
4B0
100
AcDbEntity
  8
SIZE
 62
     1
440
 16777216
370
    -2
100
AcDbBlockReference
  2
EX_BNORM
 10
4077.980938477407
 20
1642.281108527976
 30
0.0
 41
6.0
 42
6.0
 43
6.0
  0
INSERT
  5
7AB
330
4B0
100
AcDbEntity
  8
SIZE
 62
     1
440
 16777216
370
    -2
100
AcDbBlockReference
  2
EX_BNORM
 10
4082.980938477407
 20
1642.281108527976
 30
0.0
 41
6.0
 42
6.0
 43
6.0
 50
180.0
  0
POINT
  5
7AC
330
4B0
100
AcDbEntity
  8
Defpoints
 62
     0
440
 16777216
100
AcDbPoint
 10
4077.980938477407
 20
1745.962375527976
 30
0.0
  0
POINT
  5
7AD
330
4B0
100
AcDbEntity
  8
Defpoints
 62
     0
440
 16777216
100
AcDbPoint
 10
4082.980938477407
 20
1745.962375527976
 30
0.0
  0
POINT
  5
7AE
330
4B0
100
AcDbEntity
  8
Defpoints
 62
     0
440
 16777216
100
AcDbPoint
 10
4082.980938477407
 20
1642.281108527976
 30
0.0
  0
ENDBLK
  5
4B2
330
4B0
100
AcDbEntity
  8
0
100
AcDbBlockEnd
  0
BLOCK
  5
4BF
330
4BE
100
AcDbEntity
  8
0
100
AcDbBlockBegin
  2
*D27
 70
     1
 10
0.0
 20
0.0
 30
0.0
  3
*D27
  1

  0
LINE
  5
799
330
4BE
100
AcDbEntity
  8
SIZE
 62
     1
440
 16777216
370
    -2
100
AcDbLine
 10
4322.980938477407
 20
1742.962375527976
 30
0.0
 11
4322.980938477407
 21
1639.281108527976
 31
0.0
  0
LINE
  5
79A
330
4BE
100
AcDbEntity
  8
SIZE
 62
     1
440
 16777216
370
    -2
100
AcDbLine
 10
4327.980938477407
 20
1742.962375527976
 30
0.0
 11
4327.980938477407
 21
1639.281108527976
 31
0.0
  0
LINE
  5
79B
330
4BE
100
AcDbEntity
  8
SIZE
 62
     1
440
 16777216
370
    -2
100
AcDbLine
 10
4316.980938477406
 20
1642.281108527976
 30
0.0
 11
4310.980938477407
 21
1642.281108527976
 31
0.0
  0
LINE
  5
79C
330
4BE
100
AcDbEntity
  8
SIZE
 62
     1
440
 16777216
370
    -2
100
AcDbLine
 10
4333.980938477407
 20
1642.281108527976
 30
0.0
 11
4339.980938477407
 21
1642.281108527976
 31
0.0
  0
MTEXT
  5
79D
330
4BE
100
AcDbEntity
  8
SIZE
 62
     1
440
 16777216
100
AcDbMText
 10
4343.980938477407
 20
1647.281108527976
 30
0.0
 40
6.236220799999999
 41
0.0
 46
0.0
 71
     5
 72
     1
  1
5,0
  7
EXCADDIM1
 73
     1
 44
1.0
  0
LINE
  5
79E
330
4BE
100
AcDbEntity
  8
SIZE
 62
     1
440
 16777216
370
    -2
100
AcDbLine
 10
4322.980938477407
 20
1642.281108527976
 30
0.0
 11
4327.980938477407
 21
1642.281108527976
 31
0.0
  0
INSERT
  5
79F
330
4BE
100
AcDbEntity
  8
SIZE
 62
     1
440
 16777216
370
    -2
100
AcDbBlockReference
  2
EX_BNORM
 10
4322.980938477407
 20
1642.281108527976
 30
0.0
 41
6.0
 42
6.0
 43
6.0
  0
INSERT
  5
7A0
330
4BE
100
AcDbEntity
  8
SIZE
 62
     1
440
 16777216
370
    -2
100
AcDbBlockReference
  2
EX_BNORM
 10
4327.980938477407
 20
1642.281108527976
 30
0.0
 41
6.0
 42
6.0
 43
6.0
 50
180.0
  0
POINT
  5
7A1
330
4BE
100
AcDbEntity
  8
Defpoints
 62
     0
440
 16777216
100
AcDbPoint
 10
4322.980938477407
 20
1745.962375527976
 30
0.0
  0
POINT
  5
7A2
330
4BE
100
AcDbEntity
  8
Defpoints
 62
     0
440
 16777216
100
AcDbPoint
 10
4327.980938477407
 20
1745.962375527976
 30
0.0
  0
POINT
  5
7A3
330
4BE
100
AcDbEntity
  8
Defpoints
 62
     0
440
 16777216
100
AcDbPoint
 10
4327.980938477407
 20
1642.281108527976
 30
0.0
  0
ENDBLK
  5
4C0
330
4BE
100
AcDbEntity
  8
0
100
AcDbBlockEnd
  0
BLOCK
  5
4CD
330
4CC
100
AcDbEntity
  8
0
100
AcDbBlockBegin
  2
*D28
 70
     1
 10
0.0
 20
0.0
 30
0.0
  3
*D28
  1

  0
LINE
  5
790
330
4CC
100
AcDbEntity
  8
SIZE
 62
     1
440
 16777216
370
    -2
100
AcDbLine
 10
3889.980938477407
 20
1745.962375527976
 30
0.0
 11
3889.980938477407
 21
1673.550296527976
 31
0.0
  0
LINE
  5
791
330
4CC
100
AcDbEntity
  8
SIZE
 62
     1
440
 16777216
370
    -2
100
AcDbLine
 10
3965.980938477407
 20
1745.962375527976
 30
0.0
 11
3965.980938477407
 21
1673.550296527976
 31
0.0
  0
LINE
  5
792
330
4CC
100
AcDbEntity
  8
SIZE
 62
     1
440
 16777216
370
    -2
100
AcDbLine
 10
3895.980938477407
 20
1676.550296527976
 30
0.0
 11
3959.980938477407
 21
1676.550296527976
 31
0.0
  0
MTEXT
  5
793
330
4CC
100
AcDbEntity
  8
SIZE
 62
     1
440
 16777216
100
AcDbMText
 10
3927.980938477407
 20
1681.550296527976
 30
0.0
 40
6.236220799999999
 41
0.0
 46
0.0
 71
     5
 72
     1
  1
76
  7
EXCADDIM1
 73
     1
 44
1.0
  0
INSERT
  5
794
330
4CC
100
AcDbEntity
  8
SIZE
 62
     1
440
 16777216
370
    -2
100
AcDbBlockReference
  2
EX_BNORM
 10
3889.980938477407
 20
1676.550296527976
 30
0.0
 41
6.0
 42
6.0
 43
6.0
 50
180.0
  0
INSERT
  5
795
330
4CC
100
AcDbEntity
  8
SIZE
 62
     1
440
 16777216
370
    -2
100
AcDbBlockReference
  2
EX_BNORM
 10
3965.980938477407
 20
1676.550296527976
 30
0.0
 41
6.0
 42
6.0
 43
6.0
  0
POINT
  5
796
330
4CC
100
AcDbEntity
  8
Defpoints
 62
     0
440
 16777216
100
AcDbPoint
 10
3889.980938477407
 20
1745.962375527976
 30
0.0
  0
POINT
  5
797
330
4CC
100
AcDbEntity
  8
Defpoints
 62
     0
440
 16777216
100
AcDbPoint
 10
3965.980938477407
 20
1745.962375527976
 30
0.0
  0
POINT
  5
798
330
4CC
100
AcDbEntity
  8
Defpoints
 62
     0
440
 16777216
100
AcDbPoint
 10
3965.980938477407
 20
1676.550296527976
 30
0.0
  0
ENDBLK
  5
4CE
330
4CC
100
AcDbEntity
  8
0
100
AcDbBlockEnd
  0
BLOCK
  5
4D9
330
4D8
100
AcDbEntity
  8
0
100
AcDbBlockBegin
  2
*D29
 70
     1
 10
0.0
 20
0.0
 30
0.0
  3
*D29
  1

  0
LINE
  5
788
330
4D8
100
AcDbEntity
  8
SIZE
 62
     1
440
 16777216
370
    -2
100
AcDbLine
 10
3877.980938477407
 20
1745.962375527976
 30
0.0
 11
3877.980938477407
 21
1673.550296527976
 31
0.0
  0
LINE
  5
789
330
4D8
100
AcDbEntity
  8
SIZE
 62
     1
440
 16777216
370
    -2
100
AcDbLine
 10
3889.980938477407
 20
1745.962375527976
 30
0.0
 11
3889.980938477407
 21
1673.550296527976
 31
0.0
  0
MTEXT
  5
78A
330
4D8
100
AcDbEntity
  8
SIZE
 62
     1
440
 16777216
100
AcDbMText
 10
3863.980938477407
 20
1681.550296527976
 30
0.0
 40
6.236220799999999
 41
0.0
 46
0.0
 71
     5
 72
     1
  1
12
  7
EXCADDIM1
 73
     1
 44
1.0
  0
INSERT
  5
78B
330
4D8
100
AcDbEntity
  8
SIZE
 62
     1
440
 16777216
370
    -2
100
AcDbBlockReference
  2
EX_BNORM
 10
3877.980938477407
 20
1676.550296527976
 30
0.0
 41
6.0
 42
6.0
 43
6.0
 50
180.0
  0
INSERT
  5
78C
330
4D8
100
AcDbEntity
  8
SIZE
 62
     1
440
 16777216
370
    -2
100
AcDbBlockReference
  2
EX_BNORM
 10
3889.980938477407
 20
1676.550296527976
 30
0.0
 41
6.0
 42
6.0
 43
6.0
  0
POINT
  5
78D
330
4D8
100
AcDbEntity
  8
Defpoints
 62
     0
440
 16777216
100
AcDbPoint
 10
3877.980938477407
 20
1745.962375527976
 30
0.0
  0
POINT
  5
78E
330
4D8
100
AcDbEntity
  8
Defpoints
 62
     0
440
 16777216
100
AcDbPoint
 10
3889.980938477407
 20
1745.962375527976
 30
0.0
  0
POINT
  5
78F
330
4D8
100
AcDbEntity
  8
Defpoints
 62
     0
440
 16777216
100
AcDbPoint
 10
3889.980938477407
 20
1676.550296527976
 30
0.0
  0
ENDBLK
  5
4DA
330
4D8
100
AcDbEntity
  8
0
100
AcDbBlockEnd
  0
BLOCK
  5
4E4
330
4E3
100
AcDbEntity
  8
0
100
AcDbBlockBegin
  2
*D30
 70
     1
 10
0.0
 20
0.0
 30
0.0
  3
*D30
  1

  0
LINE
  5
780
330
4E3
100
AcDbEntity
  8
SIZE
 62
     1
440
 16777216
370
    -2
100
AcDbLine
 10
3965.980938477407
 20
1745.962375527976
 30
0.0
 11
3965.980938477407
 21
1673.550296527976
 31
0.0
  0
LINE
  5
781
330
4E3
100
AcDbEntity
  8
SIZE
 62
     1
440
 16777216
370
    -2
100
AcDbLine
 10
3977.980938477407
 20
1745.962375527976
 30
0.0
 11
3977.980938477407
 21
1673.550296527976
 31
0.0
  0
MTEXT
  5
782
330
4E3
100
AcDbEntity
  8
SIZE
 62
     1
440
 16777216
100
AcDbMText
 10
3991.980938477407
 20
1681.550296527976
 30
0.0
 40
6.236220799999999
 41
0.0
 46
0.0
 71
     5
 72
     1
  1
12
  7
EXCADDIM1
 73
     1
 44
1.0
  0
INSERT
  5
783
330
4E3
100
AcDbEntity
  8
SIZE
 62
     1
440
 16777216
370
    -2
100
AcDbBlockReference
  2
EX_BNORM
 10
3965.980938477407
 20
1676.550296527976
 30
0.0
 41
6.0
 42
6.0
 43
6.0
 50
180.0
  0
INSERT
  5
784
330
4E3
100
AcDbEntity
  8
SIZE
 62
     1
440
 16777216
370
    -2
100
AcDbBlockReference
  2
EX_BNORM
 10
3977.980938477407
 20
1676.550296527976
 30
0.0
 41
6.0
 42
6.0
 43
6.0
  0
POINT
  5
785
330
4E3
100
AcDbEntity
  8
Defpoints
 62
     0
440
 16777216
100
AcDbPoint
 10
3965.980938477407
 20
1745.962375527976
 30
0.0
  0
POINT
  5
786
330
4E3
100
AcDbEntity
  8
Defpoints
 62
     0
440
 16777216
100
AcDbPoint
 10
3977.980938477407
 20
1745.962375527976
 30
0.0
  0
POINT
  5
787
330
4E3
100
AcDbEntity
  8
Defpoints
 62
     0
440
 16777216
100
AcDbPoint
 10
3977.980938477407
 20
1676.550296527976
 30
0.0
  0
ENDBLK
  5
4E5
330
4E3
100
AcDbEntity
  8
0
100
AcDbBlockEnd
  0
BLOCK
  5
800
330
7FF
100
AcDbEntity
  8
0
 48
0.5
100
AcDbBlockBegin
  2
A3
 70
    36
 10
-0.4902241396560783
 20
1.18765677424415
 30
0.0
  3
A3
  1
..\..\..\..\..\EXCAD8\Data\DRWFILE\KAMATA\A3.dwg
  0
ENDBLK
  5
801
330
7FF
100
AcDbEntity
  8
0
 48
0.5
100
AcDbBlockEnd
  0
ENDSEC
  0
SECTION
  2
ENTITIES
  0
LINE
  5
3D6
330
1F
100
AcDbEntity
  8
BODY
  6
Continuous
 62
     7
100
AcDbLine
 10
3527.980938477407
 20
1995.962375527976
 30
0.0
 11
3527.980938477407
 21
1745.962375527976
 31
0.0
  0
LINE
  5
3D7
330
1F
100
AcDbEntity
  8
BODY
  6
Continuous
 62
     7
100
AcDbLine
 10
3777.980938477408
 20
1995.962375527976
 30
0.0
 11
3777.980938477408
 21
1745.962375527976
 31
0.0
  0
LINE
  5
3D8
330
1F
100
AcDbEntity
  8
BODY
  6
Continuous
 62
     7
100
AcDbLine
 10
3877.980938477407
 20
1995.962375527976
 30
0.0
 11
3877.980938477407
 21
1745.962375527976
 31
0.0
  0
LINE
  5
3D9
330
1F
100
AcDbEntity
  8
BODY
  6
Continuous
 62
     7
100
AcDbLine
 10
3977.980938477407
 20
1995.962375527976
 30
0.0
 11
3977.980938477407
 21
1745.962375527976
 31
0.0
  0
LINE
  5
3DA
330
1F
100
AcDbEntity
  8
BODY
  6
Continuous
 62
     7
100
AcDbLine
 10
4077.980938477407
 20
1995.962375527976
 30
0.0
 11
4077.980938477407
 21
1745.962375527976
 31
0.0
  0
LINE
  5
3DB
330
1F
100
AcDbEntity
  8
BODY
  6
Continuous
 62
     7
100
AcDbLine
 10
4327.980938477407
 20
1995.962375527976
 30
0.0
 11
4327.980938477407
 21
1745.962375527976
 31
0.0
  0
LINE
  5
3DC
330
1F
100
AcDbEntity
  8
BODY
  6
Continuous
 62
     7
100
AcDbLine
 10
3877.980938477407
 20
1745.962375527976
 30
0.0
 11
3977.980938477407
 21
1745.962375527976
 31
0.0
  0
LINE
  5
3DD
330
1F
100
AcDbEntity
  8
BODY
  6
Continuous
 62
     7
100
AcDbLine
 10
3877.980938477407
 20
1995.962375527976
 30
0.0
 11
3977.980938477407
 21
1995.962375527976
 31
0.0
  0
LINE
  5
3DE
330
1F
100
AcDbEntity
  8
CENTER
100
AcDbLine
 10
4202.980938477407
 20
2017.449375527976
 30
0.0
 11
4202.980938477407
 21
1724.748905527976
 31
0.0
  0
LINE
  5
3DF
330
1F
100
AcDbEntity
  8
CENTER
100
AcDbLine
 10
3652.980938477408
 20
1721.883975527976
 30
0.0
 11
3652.980938477408
 21
2014.584415527977
 31
0.0
  0
LINE
  5
3E0
330
1F
100
AcDbEntity
  8
CENTER
100
AcDbLine
 10
3738.845562477408
 20
1940.962375527976
 30
0.0
 11
3706.733624477408
 21
1940.962375527976
 31
0.0
  0
LINE
  5
3E1
330
1F
100
AcDbEntity
  8
CENTER
100
AcDbLine
 10
3722.980938477408
 20
1925.790012527976
 30
0.0
 11
3722.980938477408
 21
1957.687168527976
 31
0.0
  0
CIRCLE
  5
3E2
330
1F
100
AcDbEntity
  8
BODY
  6
Continuous
 62
     7
100
AcDbCircle
 10
3722.980938477408
 20
1940.962406527976
 30
0.0
 40
12.50000000000001
  0
LINE
  5
3E3
330
1F
100
AcDbEntity
  8
CENTER
100
AcDbLine
 10
3582.400585477407
 20
1956.805301527976
 30
0.0
 11
3582.400585477407
 21
1924.693363527976
 31
0.0
  0
LINE
  5
3E4
330
1F
100
AcDbEntity
  8
CENTER
100
AcDbLine
 10
3597.572949477407
 20
1940.940677527976
 30
0.0
 11
3565.675793477407
 21
1940.940677527976
 31
0.0
  0
CIRCLE
  5
3E5
330
1F
100
AcDbEntity
  8
BODY
  6
Continuous
 62
     7
100
AcDbCircle
 10
3582.400555477408
 20
1940.940677527976
 30
0.0
 40
12.50000000000001
  0
LINE
  5
3E6
330
1F
100
AcDbEntity
  8
CENTER
100
AcDbLine
 10
3566.535961477408
 20
1800.940677527976
 30
0.0
 11
3598.647900477408
 21
1800.940677527976
 31
0.0
  0
LINE
  5
3E7
330
1F
100
AcDbEntity
  8
CENTER
100
AcDbLine
 10
3582.400585477407
 20
1816.113040527976
 30
0.0
 11
3582.400585477407
 21
1784.215885527976
 31
0.0
  0
CIRCLE
  5
3E8
330
1F
100
AcDbEntity
  8
BODY
  6
Continuous
 62
     7
100
AcDbCircle
 10
3582.400585477407
 20
1800.940647527976
 30
0.0
 40
12.50000000000001
  0
LINE
  5
3E9
330
1F
100
AcDbEntity
  8
CENTER
100
AcDbLine
 10
3722.400585477407
 20
1785.076053527976
 30
0.0
 11
3722.400585477407
 21
1817.187992527976
 31
0.0
  0
LINE
  5
3EA
330
1F
100
AcDbEntity
  8
CENTER
100
AcDbLine
 10
3707.228222477407
 20
1800.940677527976
 30
0.0
 11
3739.125378477407
 21
1800.940677527976
 31
0.0
  0
CIRCLE
  5
3EB
330
1F
100
AcDbEntity
  8
BODY
  6
Continuous
 62
     7
100
AcDbCircle
 10
3722.400616477408
 20
1800.940677527976
 30
0.0
 40
12.50000000000001
  0
DIMENSION
  5
3EC
330
1F
100
AcDbEntity
  8
SIZE
100
AcDbDimension
280
     0
  2
*D18
 10
3447.285381477415
 20
1800.940677527977
 30
0.0
 11
3442.285381477408
 21
1870.940677527976
 31
0.0
 70
   160
 71
     5
 42
140.0
 73
     0
 74
     0
 75
     0
 53
90.00000000000003
  3
ISO-25
100
AcDbAlignedDimension
 13
3569.900555477408
 23
1940.940677527976
 33
0.0
 14
3569.900585477407
 24
1800.940677527976
 34
0.0
 50
90.0
100
AcDbRotatedDimension
1001
ACAD
1000
DSTYLE
1002
{
1070
   270
1070
     2
1070
     6
1000
EX_BNORM
1070
     7
1000
EX_BNORM
1070
    41
1040
6.0
1070
    42
1040
3.0
1070
    44
1040
3.0
1070
    73
1070
     0
1070
    74
1070
     0
1070
    75
1070
     0
1070
    76
1070
     0
1070
    77
1070
     1
1070
    78
1070
     0
1070
   140
1040
6.236220799999999
1070
   147
1040
0.0
1070
   173
1070
     1
1070
   176
1070
     1
1070
   177
1070
     1
1070
   178
1070
     1
1070
   271
1070
     0
1070
   277
1070
     2
1070
   279
1070
     2
1070
   280
1070
     0
1070
   287
1070
     5
1070
   340
1005
35F
1002
}
  0
DIMENSION
  5
3ED
330
1F
100
AcDbEntity
  8
SIZE
100
AcDbDimension
280
     0
  2
*D19
 10
4448.578777477415
 20
1745.962375527977
 30
0.0
 11
4443.578777477407
 21
1870.962375527976
 31
0.0
 70
   160
 71
     5
 42
250.0
 73
     0
 74
     0
 75
     0
 53
90.00000000000003
  3
ISO-25
100
AcDbAlignedDimension
 13
4327.980938477407
 23
1995.962375527976
 33
0.0
 14
4327.980938477407
 24
1745.962375527976
 34
0.0
 50
90.0
100
AcDbRotatedDimension
1001
ACAD
1000
DSTYLE
1002
{
1070
   270
1070
     2
1070
     6
1000
EX_BNORM
1070
     7
1000
EX_BNORM
1070
    41
1040
6.0
1070
    42
1040
3.0
1070
    44
1040
3.0
1070
    73
1070
     0
1070
    74
1070
     0
1070
    75
1070
     0
1070
    76
1070
     0
1070
    77
1070
     1
1070
    78
1070
     0
1070
   140
1040
6.236220799999999
1070
   147
1040
0.0
1070
   173
1070
     1
1070
   176
1070
     1
1070
   177
1070
     1
1070
   178
1070
     1
1070
   271
1070
     0
1070
   277
1070
     2
1070
   279
1070
     2
1070
   280
1070
     0
1070
   287
1070
     5
1070
   340
1005
35F
1002
}
  0
DIMENSION
  5
3EE
330
1F
100
AcDbEntity
  8
SIZE
100
AcDbDimension
280
     0
  2
*D20
 10
3722.400585477407
 20
1668.405261527976
 30
0.0
 11
3652.400585477407
 21
1673.405261527976
 31
0.0
 70
   160
 71
     5
 42
140.0
 73
     0
 74
     0
 75
     0
  3
ISO-25
100
AcDbAlignedDimension
 13
3582.400585477407
 23
1784.215900527976
 33
0.0
 14
3722.400585477407
 24
1785.076053527976
 34
0.0
100
AcDbRotatedDimension
1001
ACAD
1000
DSTYLE
1002
{
1070
   270
1070
     2
1070
     6
1000
EX_BNORM
1070
     7
1000
EX_BNORM
1070
    41
1040
6.0
1070
    42
1040
3.0
1070
    44
1040
3.0
1070
    73
1070
     0
1070
    74
1070
     0
1070
    75
1070
     0
1070
    76
1070
     0
1070
    77
1070
     1
1070
    78
1070
     0
1070
   140
1040
6.236220799999999
1070
   147
1040
0.0
1070
   173
1070
     1
1070
   176
1070
     1
1070
   177
1070
     1
1070
   178
1070
     1
1070
   271
1070
     0
1070
   277
1070
     2
1070
   279
1070
     2
1070
   280
1070
     0
1070
   287
1070
     5
1070
   340
1005
35F
1002
}
  0
DIMENSION
  5
3EF
330
1F
100
AcDbEntity
  8
SIZE
100
AcDbDimension
280
     0
  2
*D21
 10
4379.276180477415
 20
1920.962375527977
 30
0.0
 11
4374.276180477408
 21
1870.962375527976
 31
0.0
 70
   160
 71
     5
 42
100.0
 73
     0
 74
     0
 75
     0
 53
90.00000000000003
  3
ISO-25
100
AcDbAlignedDimension
 13
4295.877178477407
 23
1820.962375527976
 33
0.0
 14
4295.877178477407
 24
1920.962375527976
 34
0.0
 50
90.0
100
AcDbRotatedDimension
1001
ACAD
1000
DSTYLE
1002
{
1070
   270
1070
     2
1070
     6
1000
EX_BNORM
1070
     7
1000
EX_BNORM
1070
    41
1040
6.0
1070
    42
1040
3.0
1070
    44
1040
3.0
1070
    73
1070
     0
1070
    74
1070
     0
1070
    75
1070
     0
1070
    76
1070
     0
1070
    77
1070
     1
1070
    78
1070
     0
1070
   140
1040
6.236220799999999
1070
   147
1040
0.0
1070
   173
1070
     1
1070
   176
1070
     1
1070
   177
1070
     1
1070
   178
1070
     1
1070
   271
1070
     0
1070
   277
1070
     2
1070
   279
1070
     2
1070
   280
1070
     0
1070
   287
1070
     5
1070
   340
1005
35F
1002
}
  0
DIMENSION
  5
3F0
330
1F
100
AcDbEntity
  8
SIZE
100
AcDbDimension
280
     0
  2
*D22
 10
4412.222881477415
 20
1945.962375527977
 30
0.0
 11
4407.222881477407
 21
1870.962375527976
 31
0.0
 70
   160
 71
     5
 42
150.0
 73
     0
 74
     0
 75
     0
 53
90.00000000000003
  3
ISO-25
100
AcDbAlignedDimension
 13
4296.171184477407
 23
1795.962375527976
 33
0.0
 14
4296.171184477407
 24
1945.962375527976
 34
0.0
 50
90.0
100
AcDbRotatedDimension
1001
ACAD
1000
DSTYLE
1002
{
1070
   270
1070
     2
1070
     6
1000
EX_BNORM
1070
     7
1000
EX_BNORM
1070
    41
1040
6.0
1070
    42
1040
3.0
1070
    44
1040
3.0
1070
    73
1070
     0
1070
    74
1070
     0
1070
    75
1070
     0
1070
    76
1070
     0
1070
    77
1070
     1
1070
    78
1070
     0
1070
   140
1040
6.236220799999999
1070
   147
1040
0.0
1070
   173
1070
     1
1070
   176
1070
     1
1070
   177
1070
     1
1070
   178
1070
     1
1070
   271
1070
     0
1070
   277
1070
     2
1070
   279
1070
     2
1070
   280
1070
     0
1070
   287
1070
     5
1070
   340
1005
35F
1002
}
  0
DIMENSION
  5
3F1
330
1F
100
AcDbEntity
  8
SIZE
100
AcDbDimension
280
     0
  2
*D23
 10
3977.980938477407
 20
1647.791141527976
 30
0.0
 11
3927.980938477407
 21
1652.791141527976
 31
0.0
 70
   160
 71
     5
 42
100.0
 73
     0
 74
     0
 75
     0
  3
ISO-25
100
AcDbAlignedDimension
 13
3877.980938477407
 23
1745.962375527976
 33
0.0
 14
3977.980938477407
 24
1745.962375527976
 34
0.0
100
AcDbRotatedDimension
1001
ACAD
1000
DSTYLE
1002
{
1070
   270
1070
     2
1070
     6
1000
EX_BNORM
1070
     7
1000
EX_BNORM
1070
    41
1040
6.0
1070
    42
1040
3.0
1070
    44
1040
3.0
1070
    73
1070
     0
1070
    74
1070
     0
1070
    75
1070
     0
1070
    76
1070
     0
1070
    77
1070
     1
1070
    78
1070
     0
1070
   140
1040
6.236220799999999
1070
   147
1040
0.0
1070
   173
1070
     1
1070
   176
1070
     1
1070
   177
1070
     1
1070
   178
1070
     1
1070
   271
1070
     0
1070
   277
1070
     2
1070
   279
1070
     2
1070
   280
1070
     0
1070
   287
1070
     5
1070
   340
1005
35F
1002
}
  0
TEXT
  5
3F2
330
1F
100
AcDbEntity
  8
SIZE
100
AcDbText
 10
3893.259686477408
 20
2123.835382527976
 30
0.0
 40
7.795275999999999
  1
ＤＰ－２５０
 41
1.112631204685079
  7
EXCADSTD
 72
     5
 11
3951.659686477407
 21
2123.835382527976
 31
0.0
100
AcDbText
  0
LINE
  5
3F3
330
1F
100
AcDbEntity
  8
CENTER
100
AcDbLine
 10
3858.880474477408
 20
1870.962375527976
 30
0.0
 11
3996.397137477408
 21
1870.962375527976
 31
0.0
  0
LINE
  5
3F4
330
1F
100
AcDbEntity
  8
CENTER
100
AcDbLine
 10
3897.365643477408
 20
1800.940677527976
 30
0.0
 11
3870.721417477407
 21
1800.940677527976
 31
0.0
  0
LINE
  5
3F5
330
1F
100
AcDbEntity
  8
CENTER
100
AcDbLine
 10
3984.764629477408
 20
1795.962375527976
 30
0.0
 11
3958.120342477407
 21
1795.962375527976
 31
0.0
  0
LINE
  5
3F6
330
1F
100
AcDbEntity
  8
CENTER
100
AcDbLine
 10
3983.154278477407
 20
1945.962375527976
 30
0.0
 11
3958.559551477407
 21
1945.962375527976
 31
0.0
  0
LINE
  5
3F7
330
1F
100
AcDbEntity
  8
CENTER
100
AcDbLine
 10
3895.420025477407
 20
1940.962375527976
 30
0.0
 11
3870.282208477408
 21
1940.962375527976
 31
0.0
  0
LINE
  5
3F8
330
1F
100
AcDbEntity
  8
DASHE
100
AcDbLine
 10
3889.980938477407
 20
1953.462375527976
 30
0.0
 11
3877.980938477407
 21
1953.462375527976
 31
0.0
  0
LINE
  5
3F9
330
1F
100
AcDbEntity
  8
DASHE
100
AcDbLine
 10
3889.980938477407
 20
1928.462375527976
 30
0.0
 11
3877.980938477407
 21
1928.462375527976
 31
0.0
  0
LINE
  5
3FA
330
1F
100
AcDbEntity
  8
DASHE
100
AcDbLine
 10
3965.980938477407
 20
1958.462375527976
 30
0.0
 11
3977.980938477407
 21
1958.462375527976
 31
0.0
  0
LINE
  5
3FB
330
1F
100
AcDbEntity
  8
DASHE
100
AcDbLine
 10
3965.980938477407
 20
1933.462375527976
 30
0.0
 11
3977.980877477408
 21
1933.462375527976
 31
0.0
  0
LINE
  5
3FC
330
1F
100
AcDbEntity
  8
DASHE
100
AcDbLine
 10
3889.980938477407
 20
1813.440677527976
 30
0.0
 11
3877.980938477407
 21
1813.440677527976
 31
0.0
  0
LINE
  5
3FD
330
1F
100
AcDbEntity
  8
DASHE
100
AcDbLine
 10
3889.980938477407
 20
1788.440677527976
 30
0.0
 11
3877.980938477407
 21
1788.440677527976
 31
0.0
  0
LINE
  5
3FE
330
1F
100
AcDbEntity
  8
DASHE
100
AcDbLine
 10
3965.980938477407
 20
1808.462375527976
 30
0.0
 11
3977.980938477407
 21
1808.462375527976
 31
0.0
  0
LINE
  5
3FF
330
1F
100
AcDbEntity
  8
DASHE
100
AcDbLine
 10
3965.980938477407
 20
1783.462375527976
 30
0.0
 11
3977.980877477408
 21
1783.462375527976
 31
0.0
  0
DIMENSION
  5
400
330
1F
100
AcDbEntity
  8
SIZE
100
AcDbDimension
280
     0
  2
*D24
 10
4322.980938477407
 20
1642.281108527976
 30
0.0
 11
4202.980938477407
 21
1647.281108527976
 31
0.0
 70
   160
 71
     5
 42
240.0
 73
     0
 74
     0
 75
     0
  3
ISO-25
100
AcDbAlignedDimension
 13
4082.980938477407
 23
1745.962375527976
 33
0.0
 14
4322.980938477407
 24
1745.962375527976
 34
0.0
100
AcDbRotatedDimension
1001
ACAD
1000
DSTYLE
1002
{
1070
   270
1070
     2
1070
     6
1000
EX_BNORM
1070
     7
1000
EX_BNORM
1070
    41
1040
6.0
1070
    42
1040
3.0
1070
    44
1040
3.0
1070
    73
1070
     0
1070
    74
1070
     0
1070
    75
1070
     0
1070
    76
1070
     0
1070
    77
1070
     1
1070
    78
1070
     0
1070
   140
1040
6.236220799999999
1070
   147
1040
0.0
1070
   173
1070
     1
1070
   176
1070
     1
1070
   177
1070
     1
1070
   178
1070
     1
1070
   271
1070
     0
1070
   277
1070
     2
1070
   279
1070
     2
1070
   280
1070
     0
1070
   287
1070
     5
1070
   340
1005
35F
1002
}
  0
DIMENSION
  5
401
330
1F
100
AcDbEntity
  8
SIZE
100
AcDbDimension
280
     0
  2
*D25
 10
4327.980938477407
 20
1620.171558527976
 30
0.0
 11
4202.980938477407
 21
1625.171558527976
 31
0.0
 70
   160
 71
     5
 42
250.0
 73
     0
 74
     0
 75
     0
  3
ISO-25
100
AcDbAlignedDimension
 13
4077.980938477407
 23
1745.962375527976
 33
0.0
 14
4327.980938477407
 24
1745.962375527976
 34
0.0
100
AcDbRotatedDimension
1001
ACAD
1000
DSTYLE
1002
{
1070
   270
1070
     2
1070
     6
1000
EX_BNORM
1070
     7
1000
EX_BNORM
1070
    41
1040
6.0
1070
    42
1040
3.0
1070
    44
1040
3.0
1070
    73
1070
     0
1070
    74
1070
     0
1070
    75
1070
     0
1070
    76
1070
     0
1070
    77
1070
     1
1070
    78
1070
     0
1070
   140
1040
6.236220799999999
1070
   147
1040
0.0
1070
   173
1070
     1
1070
   176
1070
     1
1070
   177
1070
     1
1070
   178
1070
     1
1070
   271
1070
     0
1070
   277
1070
     2
1070
   279
1070
     2
1070
   280
1070
     0
1070
   287
1070
     5
1070
   340
1005
35F
1002
}
  0
DIMENSION
  5
402
330
1F
100
AcDbEntity
  8
SIZE
100
AcDbDimension
280
     0
  2
*D26
 10
4082.980938477407
 20
1642.281108527976
 30
0.0
 11
4061.980938477407
 21
1647.281108527976
 31
0.0
 70
   160
 71
     5
 42
5.0
 73
     0
 74
     0
 75
     0
  3
ISO-25
100
AcDbAlignedDimension
 13
4077.980938477407
 23
1745.962375527976
 33
0.0
 14
4082.980938477407
 24
1745.962375527976
 34
0.0
100
AcDbRotatedDimension
1001
ACAD
1000
DSTYLE
1002
{
1070
   270
1070
     2
1070
     6
1000
EX_BNORM
1070
     7
1000
EX_BNORM
1070
    41
1040
6.0
1070
    42
1040
3.0
1070
    44
1040
3.0
1070
    73
1070
     0
1070
    74
1070
     0
1070
    75
1070
     0
1070
    76
1070
     0
1070
    77
1070
     1
1070
    78
1070
     0
1070
   140
1040
6.236220799999999
1070
   147
1040
0.0
1070
   173
1070
     1
1070
   176
1070
     1
1070
   177
1070
     1
1070
   178
1070
     1
1070
   271
1070
     1
1070
   277
1070
     2
1070
   279
1070
     2
1070
   280
1070
     0
1070
   287
1070
     5
1070
   340
1005
35F
1002
}
  0
DIMENSION
  5
403
330
1F
100
AcDbEntity
  8
SIZE
100
AcDbDimension
280
     0
  2
*D27
 10
4327.980938477407
 20
1642.281108527976
 30
0.0
 11
4343.980938477407
 21
1647.281108527976
 31
0.0
 70
   160
 71
     5
 42
5.0
 73
     0
 74
     0
 75
     0
  3
ISO-25
100
AcDbAlignedDimension
 13
4322.980938477407
 23
1745.962375527976
 33
0.0
 14
4327.980938477407
 24
1745.962375527976
 34
0.0
100
AcDbRotatedDimension
1001
ACAD
1000
DSTYLE
1002
{
1070
   270
1070
     2
1070
     6
1000
EX_BNORM
1070
     7
1000
EX_BNORM
1070
    41
1040
6.0
1070
    42
1040
3.0
1070
    44
1040
3.0
1070
    73
1070
     0
1070
    74
1070
     0
1070
    75
1070
     0
1070
    76
1070
     0
1070
    77
1070
     1
1070
    78
1070
     0
1070
   140
1040
6.236220799999999
1070
   147
1040
0.0
1070
   173
1070
     1
1070
   176
1070
     1
1070
   177
1070
     1
1070
   178
1070
     1
1070
   271
1070
     1
1070
   277
1070
     2
1070
   279
1070
     2
1070
   280
1070
     0
1070
   287
1070
     5
1070
   340
1005
35F
1002
}
  0
LINE
  5
404
330
1F
100
AcDbEntity
  8
DASHE
100
AcDbLine
 10
4091.980938477407
 20
1995.962375527976
 30
0.0
 11
4091.980938477407
 21
1891.462375527976
 31
0.0
  0
ARC
  5
405
330
1F
100
AcDbEntity
  8
DASHE
100
AcDbCircle
 10
4107.980938477407
 20
1891.462375527976
 30
0.0
 40
16.0
100
AcDbArc
 50
180.0000198478011
 51
270.000001123887
  0
LINE
  5
406
330
1F
100
AcDbEntity
  8
DASHE
100
AcDbLine
 10
4091.980938477407
 20
1745.962375527976
 30
0.0
 11
4091.980938477407
 21
1850.462375527976
 31
0.0
  0
ARC
  5
407
330
1F
100
AcDbEntity
  8
DASHE
100
AcDbCircle
 10
4107.980938477407
 20
1850.462375527976
 30
0.0
 40
16.0
100
AcDbArc
 50
89.99998127602065
 51
180.0000198478011
  0
ARC
  5
408
330
1F
100
AcDbEntity
  8
DASHE
100
AcDbCircle
 10
4297.980938477407
 20
1891.462375527976
 30
0.0
 40
16.0
100
AcDbArc
 50
270.000001123887
 51
359.9999823998945
  0
ARC
  5
409
330
1F
100
AcDbEntity
  8
DASHE
100
AcDbCircle
 10
4297.980938477407
 20
1850.462375527976
 30
0.0
 40
16.0
100
AcDbArc
 50
359.9999823998945
 51
90.00002097172711
  0
LINE
  5
40A
330
1F
100
AcDbEntity
  8
DASHE
100
AcDbLine
 10
4313.980938477407
 20
1995.962375527976
 30
0.0
 11
4313.980938477407
 21
1891.462375527976
 31
0.0
  0
LINE
  5
40B
330
1F
100
AcDbEntity
  8
DASHE
100
AcDbLine
 10
4313.980938477407
 20
1745.962375527976
 30
0.0
 11
4313.980938477407
 21
1850.462375527976
 31
0.0
  0
LINE
  5
40C
330
1F
100
AcDbEntity
  8
DASHE
100
AcDbLine
 10
3541.980938477407
 20
1995.962375527976
 30
0.0
 11
3541.980938477407
 21
1891.462375527976
 31
0.0
  0
ARC
  5
40D
330
1F
100
AcDbEntity
  8
DASHE
100
AcDbCircle
 10
3557.980938477407
 20
1891.462375527976
 30
0.0
 40
16.0
100
AcDbArc
 50
180.0000198478011
 51
270.000001123887
  0
ARC
  5
40E
330
1F
100
AcDbEntity
  8
DASHE
100
AcDbCircle
 10
3557.980938477407
 20
1850.462375527976
 30
0.0
 40
16.0
100
AcDbArc
 50
89.99998127602065
 51
180.0000198478011
  0
LINE
  5
40F
330
1F
100
AcDbEntity
  8
DASHE
100
AcDbLine
 10
3541.980938477407
 20
1745.962375527976
 30
0.0
 11
3541.980938477407
 21
1850.462375527976
 31
0.0
  0
LINE
  5
410
330
1F
100
AcDbEntity
  8
DASHE
100
AcDbLine
 10
3763.980938477408
 20
1745.962375527976
 30
0.0
 11
3763.980938477408
 21
1850.462375527976
 31
0.0
  0
ARC
  5
411
330
1F
100
AcDbEntity
  8
DASHE
100
AcDbCircle
 10
3747.980938477408
 20
1850.462375527976
 30
0.0
 40
16.0
100
AcDbArc
 50
359.9999823998945
 51
90.00002097172711
  0
ARC
  5
412
330
1F
100
AcDbEntity
  8
DASHE
100
AcDbCircle
 10
3747.980938477408
 20
1891.462375527976
 30
0.0
 40
16.0
100
AcDbArc
 50
270.000001123887
 51
359.9999823998945
  0
LINE
  5
413
330
1F
100
AcDbEntity
  8
DASHE
100
AcDbLine
 10
3763.980938477408
 20
1995.962375527976
 30
0.0
 11
3763.980938477408
 21
1891.462375527976
 31
0.0
  0
LINE
  5
414
330
1F
100
AcDbEntity
  8
BODY
  6
Continuous
 62
     7
100
AcDbLine
 10
3889.980938477407
 20
1745.962375527976
 30
0.0
 11
3889.980938477407
 21
1995.962375527976
 31
0.0
  0
LINE
  5
415
330
1F
100
AcDbEntity
  8
BODY
  6
Continuous
 62
     7
100
AcDbLine
 10
3965.980938477407
 20
1745.962375527976
 30
0.0
 11
3965.980938477407
 21
1995.962375527976
 31
0.0
  0
DIMENSION
  5
416
330
1F
100
AcDbEntity
  8
SIZE
100
AcDbDimension
280
     0
  2
*D28
 10
3965.980938477407
 20
1676.550296527976
 30
0.0
 11
3927.980938477407
 21
1681.550296527976
 31
0.0
 70
   160
 71
     5
 42
76.0
 73
     0
 74
     0
 75
     0
  3
ISO-25
100
AcDbAlignedDimension
 13
3889.980938477407
 23
1745.962375527976
 33
0.0
 14
3965.980938477407
 24
1745.962375527976
 34
0.0
100
AcDbRotatedDimension
1001
ACAD
1000
DSTYLE
1002
{
1070
   270
1070
     2
1070
     6
1000
EX_BNORM
1070
     7
1000
EX_BNORM
1070
    41
1040
6.0
1070
    42
1040
0.0
1070
    44
1040
3.0
1070
    73
1070
     0
1070
    74
1070
     0
1070
    75
1070
     0
1070
    76
1070
     0
1070
    77
1070
     1
1070
    78
1070
     0
1070
   140
1040
6.236220799999999
1070
   147
1040
0.0
1070
   173
1070
     1
1070
   176
1070
     1
1070
   177
1070
     1
1070
   178
1070
     1
1070
   271
1070
     0
1070
   277
1070
     2
1070
   279
1070
     2
1070
   280
1070
     0
1070
   287
1070
     5
1070
   340
1005
35F
1002
}
  0
DIMENSION
  5
417
330
1F
100
AcDbEntity
  8
SIZE
100
AcDbDimension
280
     0
  2
*D29
 10
3889.980938477407
 20
1676.550296527976
 30
0.0
 11
3863.980938477407
 21
1681.550296527976
 31
0.0
 70
   160
 71
     5
 42
12.0
 73
     0
 74
     0
 75
     0
  3
ISO-25
100
AcDbAlignedDimension
 13
3877.980938477407
 23
1745.962375527976
 33
0.0
 14
3889.980938477407
 24
1745.962375527976
 34
0.0
100
AcDbRotatedDimension
1001
ACAD
1000
DSTYLE
1002
{
1070
   270
1070
     2
1070
     6
1000
EX_BNORM
1070
     7
1000
EX_BNORM
1070
    41
1040
6.0
1070
    42
1040
0.0
1070
    44
1040
3.0
1070
    73
1070
     0
1070
    74
1070
     0
1070
    75
1070
     0
1070
    76
1070
     0
1070
    77
1070
     1
1070
    78
1070
     0
1070
   140
1040
6.236220799999999
1070
   147
1040
0.0
1070
   173
1070
     1
1070
   176
1070
     1
1070
   177
1070
     1
1070
   178
1070
     1
1070
   271
1070
     0
1070
   277
1070
     2
1070
   279
1070
     2
1070
   280
1070
     0
1070
   287
1070
     5
1070
   340
1005
35F
1002
}
  0
DIMENSION
  5
418
330
1F
100
AcDbEntity
  8
SIZE
100
AcDbDimension
280
     0
  2
*D30
 10
3977.980938477407
 20
1676.550296527976
 30
0.0
 11
3991.980938477407
 21
1681.550296527976
 31
0.0
 70
   160
 71
     5
 42
12.0
 73
     0
 74
     0
 75
     0
  3
ISO-25
100
AcDbAlignedDimension
 13
3965.980938477407
 23
1745.962375527976
 33
0.0
 14
3977.980938477407
 24
1745.962375527976
 34
0.0
100
AcDbRotatedDimension
1001
ACAD
1000
DSTYLE
1002
{
1070
   270
1070
     2
1070
     6
1000
EX_BNORM
1070
     7
1000
EX_BNORM
1070
    41
1040
6.0
1070
    42
1040
0.0
1070
    44
1040
3.0
1070
    73
1070
     0
1070
    74
1070
     0
1070
    75
1070
     0
1070
    76
1070
     0
1070
    77
1070
     1
1070
    78
1070
     0
1070
   140
1040
6.236220799999999
1070
   147
1040
0.0
1070
   173
1070
     1
1070
   176
1070
     1
1070
   177
1070
     1
1070
   178
1070
     1
1070
   271
1070
     0
1070
   277
1070
     2
1070
   279
1070
     2
1070
   280
1070
     0
1070
   287
1070
     5
1070
   340
1005
35F
1002
}
  0
LINE
  5
419
330
1F
100
AcDbEntity
  8
DASHE
100
AcDbLine
 10
3557.980938477407
 20
1875.462375527976
 30
0.0
 11
3747.980938477408
 21
1875.462375527976
 31
0.0
  0
LINE
  5
41A
330
1F
100
AcDbEntity
  8
DASHE
100
AcDbLine
 10
3557.980938477407
 20
1866.462375527976
 30
0.0
 11
3747.980938477408
 21
1866.462375527976
 31
0.0
  0
LINE
  5
41B
330
1F
100
AcDbEntity
  8
DASHE
100
AcDbLine
 10
4107.980938477407
 20
1875.462375527976
 30
0.0
 11
4297.980938477407
 21
1875.462375527976
 31
0.0
  0
LINE
  5
41C
330
1F
100
AcDbEntity
  8
DASHE
100
AcDbLine
 10
4107.980938477407
 20
1866.462375527976
 30
0.0
 11
4297.980938477407
 21
1866.462375527976
 31
0.0
  0
TEXT
  5
41D
330
1F
100
AcDbEntity
  8
SIZE
100
AcDbText
 10
3657.180938477408
 20
2071.734204028014
 30
0.0
 40
6.236220799999999
  1
４－φ２５キリ
 50
0.0000000000023808
 41
1.115408261905961
  7
EXCADSTD
 72
     5
 11
3711.900938477408
 21
2071.734204028016
 31
0.0
100
AcDbText
  0
LEADER
  5
41E
330
1F
100
AcDbEntity
  8
SIZE
100
AcDbLeader
  3
ISO-25
 76
     3
 10
3588.650577977394
 20
1951.765982084877
 30
0.0
 10
3657.295998206159
 20
2070.663337628014
 30
0.0
 10
3713.180938477407
 20
2070.663337628016
 30
0.0
1001
ACAD
1000
DSTYLE
1002
{
1070
     5
1000
EX_BNORM
1070
    41
1040
6.0
1070
   341
1005
2A4
1002
}
  0
TEXT
  5
41F
330
1F
100
AcDbEntity
  8
SIZE
100
AcDbText
 10
3975.780938477407
 20
2075.476889166907
 30
0.0
 40
6.236220799999999
  1
Ｈ－２５０×２５０×９×１４
 50
359.9999999999976
 41
1.082581859865375
  7
EXCADSTD
 72
     5
 11
4086.500938477407
 21
2075.476889166902
 31
0.0
100
AcDbText
  0
LEADER
  5
420
330
1F
100
AcDbEntity
  8
SIZE
100
AcDbLeader
  3
ISO-25
 76
     3
 10
3931.480938477407
 20
1995.962375527976
 30
0.0
 10
3976.770399327023
 20
2074.406022766911
 30
0.0
 10
4087.780938477407
 20
2074.406022766906
 30
0.0
1001
ACAD
1000
DSTYLE
1002
{
1070
     5
1000
EX_BNORM
1070
    41
1040
6.0
1070
   341
1005
2A4
1002
}
  0
TEXT
  5
421
330
1F
100
AcDbEntity
  8
SIZE
100
AcDbText
 10
4202.761291477407
 20
2076.755902028014
 30
0.0
 40
6.236220799999999
  1
８－φ２５キリ
 50
0.0000000000019046
 41
1.11540826190597
  7
EXCADSTD
 72
     5
 11
4257.481291477407
 21
2076.755902028016
 31
0.0
100
AcDbText
  0
LEADER
  5
422
330
1F
100
AcDbEntity
  8
SIZE
100
AcDbLeader
  3
ISO-25
 76
     3
 10
4134.230930977394
 20
1956.787680084877
 30
0.0
 10
4202.876351206159
 20
2075.685035628014
 30
0.0
 10
4258.761291477407
 20
2075.685035628016
 30
0.0
1001
ACAD
1000
DSTYLE
1002
{
1070
     5
1000
EX_BNORM
1070
    41
1040
6.0
1070
   341
1005
2A4
1002
}
  0
LINE
  5
423
330
1F
100
AcDbEntity
  8
CENTER
  6
EXLTYPE2
 62
     1
100
AcDbLine
 10
4277.980938477407
 20
1904.259799527976
 30
0.0
 11
4277.980938477407
 21
1963.646579527976
 31
0.0
  0
LINE
  5
424
330
1F
100
AcDbEntity
  8
CENTER
  6
EXLTYPE2
 62
     1
100
AcDbLine
 10
4261.185894477407
 20
1920.962375527976
 30
0.0
 11
4295.877178477407
 21
1920.962375527976
 31
0.0
  0
LINE
  5
425
330
1F
100
AcDbEntity
  8
CENTER
  6
EXLTYPE2
 62
     1
100
AcDbLine
 10
4296.171184477407
 20
1945.962375527976
 30
0.0
 11
4261.132549477407
 21
1945.962375527976
 31
0.0
  0
CIRCLE
  5
426
330
1F
100
AcDbEntity
  8
BODY
  6
Continuous
 62
     7
100
AcDbCircle
 10
4277.980968477407
 20
1920.962375527976
 30
0.0
 40
12.50000000000001
  0
CIRCLE
  5
427
330
1F
100
AcDbEntity
  8
BODY
  6
Continuous
 62
     7
100
AcDbCircle
 10
4277.980938477407
 20
1945.962375527976
 30
0.0
 40
12.50000000000001
  0
LINE
  5
428
330
1F
100
AcDbEntity
  8
CENTER
100
AcDbLine
 10
4277.980938477407
 20
1837.664951527976
 30
0.0
 11
4277.980938477407
 21
1778.278171527976
 31
0.0
  0
LINE
  5
429
330
1F
100
AcDbEntity
  8
CENTER
100
AcDbLine
 10
4261.185894477407
 20
1820.962375527976
 30
0.0
 11
4295.877178477407
 21
1820.962375527976
 31
0.0
  0
LINE
  5
42A
330
1F
100
AcDbEntity
  8
CENTER
100
AcDbLine
 10
4296.171184477407
 20
1795.962375527976
 30
0.0
 11
4261.132549477407
 21
1795.962375527976
 31
0.0
  0
CIRCLE
  5
42B
330
1F
100
AcDbEntity
  8
BODY
  6
Continuous
 62
     7
100
AcDbCircle
 10
4277.980968477407
 20
1820.962375527976
 30
0.0
 40
12.50000000000001
  0
CIRCLE
  5
42C
330
1F
100
AcDbEntity
  8
BODY
  6
Continuous
 62
     7
100
AcDbCircle
 10
4277.980938477407
 20
1795.962375527976
 30
0.0
 40
12.50000000000001
  0
LINE
  5
42D
330
1F
100
AcDbEntity
  8
CENTER
100
AcDbLine
 10
4127.980938477406
 20
1904.259799527976
 30
0.0
 11
4127.980938477406
 21
1963.646579527976
 31
0.0
  0
LINE
  5
42E
330
1F
100
AcDbEntity
  8
CENTER
100
AcDbLine
 10
4144.775982477407
 20
1920.962375527976
 30
0.0
 11
4110.084698477407
 21
1920.962375527976
 31
0.0
  0
LINE
  5
42F
330
1F
100
AcDbEntity
  8
CENTER
100
AcDbLine
 10
4109.790691477408
 20
1945.962375527976
 30
0.0
 11
4144.829327477408
 21
1945.962375527976
 31
0.0
  0
CIRCLE
  5
430
330
1F
100
AcDbEntity
  8
BODY
  6
Continuous
 62
     7
100
AcDbCircle
 10
4127.980907477407
 20
1920.962375527976
 30
0.0
 40
12.50000000000001
  0
CIRCLE
  5
431
330
1F
100
AcDbEntity
  8
BODY
  6
Continuous
 62
     7
100
AcDbCircle
 10
4127.980938477406
 20
1945.962375527976
 30
0.0
 40
12.50000000000001
  0
LINE
  5
432
330
1F
100
AcDbEntity
  8
CENTER
100
AcDbLine
 10
4127.980938477406
 20
1837.664951527976
 30
0.0
 11
4127.980938477406
 21
1778.278171527976
 31
0.0
  0
LINE
  5
433
330
1F
100
AcDbEntity
  8
CENTER
100
AcDbLine
 10
4144.775982477407
 20
1820.962375527976
 30
0.0
 11
4110.084698477407
 21
1820.962375527976
 31
0.0
  0
LINE
  5
434
330
1F
100
AcDbEntity
  8
CENTER
100
AcDbLine
 10
4109.790691477408
 20
1795.962375527976
 30
0.0
 11
4144.829327477408
 21
1795.962375527976
 31
0.0
  0
CIRCLE
  5
435
330
1F
100
AcDbEntity
  8
BODY
  6
Continuous
 62
     7
100
AcDbCircle
 10
4127.980907477407
 20
1820.962375527976
 30
0.0
 40
12.50000000000001
  0
CIRCLE
  5
436
330
1F
100
AcDbEntity
  8
BODY
  6
Continuous
 62
     7
100
AcDbCircle
 10
4127.980938477406
 20
1795.962375527976
 30
0.0
 40
12.50000000000001
  0
DIMENSION
  5
437
330
1F
100
AcDbEntity
  8
SIZE
100
AcDbDimension
280
     0
  2
*D17
 10
4277.980938477407
 20
1676.818442527976
 30
0.0
 11
4202.980938477407
 21
1681.818442527976
 31
0.0
 70
   160
 71
     5
 42
150.0
 73
     0
 74
     0
 75
     0
  3
ISO-25
100
AcDbAlignedDimension
 13
4127.980938477406
 23
1778.278171527976
 33
0.0
 14
4277.980938477407
 24
1778.278171527976
 34
0.0
100
AcDbRotatedDimension
1001
ACAD
1000
DSTYLE
1002
{
1070
   270
1070
     2
1070
     6
1000
EX_BNORM
1070
     7
1000
EX_BNORM
1070
    41
1040
6.0
1070
    42
1040
3.0
1070
    44
1040
3.0
1070
    73
1070
     0
1070
    74
1070
     0
1070
    75
1070
     0
1070
    76
1070
     0
1070
    77
1070
     1
1070
    78
1070
     0
1070
   140
1040
6.236220799999999
1070
   147
1040
0.0
1070
   173
1070
     1
1070
   176
1070
     1
1070
   177
1070
     1
1070
   178
1070
     1
1070
   271
1070
     0
1070
   277
1070
     2
1070
   279
1070
     2
1070
   280
1070
     0
1070
   287
1070
     5
1070
   340
1005
35F
1002
}
  0
TEXT
  5
438
330
1F
100
AcDbEntity
  8
SIZE
100
AcDbText
 10
3644.980938477407
 20
2107.689308927976
 30
0.0
 40
6.236220799999999
  1
ジャッキ側
 41
1.08294567955212
  7
EXCADSTD
 72
     5
 11
3683.700938477408
 21
2107.689308927976
 31
0.0
100
AcDbText
  0
TEXT
  5
439
330
1F
100
AcDbEntity
  8
SIZE
100
AcDbText
 10
4196.980938477407
 20
2107.689308927976
 30
0.0
 40
6.236220799999999
  1
ストローク側
 41
1.080536073780706
  7
EXCADSTD
 72
     5
 11
4243.700938477407
 21
2107.689308927976
 31
0.0
100
AcDbText
  0
LINE
  5
43A
330
1F
100
AcDbEntity
  8
BODY
  6
Continuous
 62
     7
100
AcDbLine
 10
3532.980938477408
 20
1995.962375527976
 30
0.0
 11
3532.980938477408
 21
1745.962375527976
 31
0.0
  0
LINE
  5
43B
330
1F
100
AcDbEntity
  8
BODY
  6
Continuous
 62
     7
100
AcDbLine
 10
3772.980938477408
 20
1995.962375527976
 30
0.0
 11
3772.980938477408
 21
1745.962375527976
 31
0.0
  0
LINE
  5
43C
330
1F
100
AcDbEntity
  8
BODY
  6
Continuous
 62
     7
100
AcDbLine
 10
3527.980938477407
 20
1745.962375527976
 30
0.0
 11
3777.980938477408
 21
1745.962375527976
 31
0.0
  0
LINE
  5
43D
330
1F
100
AcDbEntity
  8
BODY
  6
Continuous
 62
     7
100
AcDbLine
 10
3527.980938477407
 20
1995.962375527976
 30
0.0
 11
3777.980938477408
 21
1995.962375527976
 31
0.0
  0
LINE
  5
43E
330
1F
100
AcDbEntity
  8
CENTER
100
AcDbLine
 10
3510.313854477408
 20
1870.962375527976
 30
0.0
 11
3799.671887477408
 21
1870.962375527976
 31
0.0
  0
LINE
  5
43F
330
1F
100
AcDbEntity
  8
BODY
  6
Continuous
 62
     7
100
AcDbLine
 10
4082.980938477407
 20
1995.962375527976
 30
0.0
 11
4082.980938477407
 21
1745.962375527976
 31
0.0
  0
LINE
  5
440
330
1F
100
AcDbEntity
  8
BODY
  6
Continuous
 62
     7
100
AcDbLine
 10
4322.980938477407
 20
1745.962375527976
 30
0.0
 11
4322.980938477407
 21
1995.962375527976
 31
0.0
  0
LINE
  5
441
330
1F
100
AcDbEntity
  8
BODY
  6
Continuous
 62
     7
100
AcDbLine
 10
4077.980938477407
 20
1745.962375527976
 30
0.0
 11
4327.980938477407
 21
1745.962375527976
 31
0.0
  0
LINE
  5
442
330
1F
100
AcDbEntity
  8
BODY
  6
Continuous
 62
     7
100
AcDbLine
 10
4077.980938477407
 20
1995.962375527976
 30
0.0
 11
4327.980938477407
 21
1995.962375527976
 31
0.0
  0
LINE
  5
443
330
1F
100
AcDbEntity
  8
CENTER
100
AcDbLine
 10
4058.948101477407
 20
1870.962375527976
 30
0.0
 11
4346.396221477408
 21
1870.962375527976
 31
0.0
  0
VIEWPORT
  5
7F8
102
{ACAD_XDICTIONARY
360
7F9
102
}
330
D2
100
AcDbEntity
 67
     1
  8
0
 48
0.5
100
AcDbViewport
 10
205.9441273761535
 20
163.95861516202
 30
0.0
 40
661.846468703348
 41
284.8802413491222
 68
     1
 69
     1
 12
205.9441273761535
 22
163.95861516202
 13
0.0
 23
0.0
 14
10.0
 24
10.0
 15
10.0
 25
10.0
 16
0.0
 26
0.0
 36
1.0
 17
0.0
 27
0.0
 37
0.0
 42
50.0
 43
0.0
 44
0.0
 45
284.8802413491222
 50
0.0
 51
0.0
 72
  1000
 90
   557088
  1

281
     0
 71
     1
 74
     0
110
0.0
120
0.0
130
0.0
111
1.0
121
0.0
131
0.0
112
0.0
122
1.0
132
0.0
 79
     0
146
0.0
170
     0
 61
     5
348
F5
292
     1
282
     1
141
0.0
142
0.0
 63
   250
421
  3355443
  0
INSERT
  5
81B
330
D2
100
AcDbEntity
 67
     1
  8
FREAME
 48
0.5
100
AcDbBlockReference
  2
A3
 10
4.428975861203525
 20
22.54447374801998
 30
0.0
  0
VIEWPORT
  5
836
102
{ACAD_XDICTIONARY
360
837
102
}
330
D2
100
AcDbEntity
 67
     1
  8
VIEW
 48
0.5
100
AcDbViewport
 10
205.9441273761535
 20
167.49396869737
 30
0.0
 40
403.0303030298999
 41
275.7575757573
 68
     2
 69
     3
 12
3945.373024277412
 22
1874.141265994643
 13
0.0
 23
0.0
 14
10.0
 24
10.0
 15
10.0
 25
10.0
 16
0.0
 26
0.0
 36
1.0
 17
0.0
 27
0.0
 37
0.0
 42
50.0
 43
0.0
 44
0.0
 45
827.2727272719
 50
0.0
 51
0.0
 72
  1000
 90
   819296
  1

281
     0
 71
     1
 74
     0
110
0.0
120
0.0
130
0.0
111
1.0
121
0.0
131
0.0
112
0.0
122
1.0
132
0.0
 79
     0
146
0.0
170
     0
 61
     5
348
F5
292
     1
282
     1
141
0.0
142
0.0
 63
   250
421
  3355443
  0
MTEXT
  5
84D
330
D2
100
AcDbEntity
 67
     1
  8
SIZE
 48
0.5
100
AcDbMText
 10
343.1158445477335
 20
26.07982728336998
 30
0.0
 40
2.5
 41
56.56565656560008
 46
0.0
 71
     5
 72
     5
  1
DP-250
 73
     1
 44
1.0
1001
ACAD
1000
ACAD_MTEXT_COLUMN_INFO_BEGIN
1070
    75
1070
     2
1070
    79
1070
     0
1070
    76
1070
     1
1070
    78
1070
     0
1070
    48
1040
56.56565656560008
1070
    49
1040
12.5
1070
    50
1070
     1
1040
0.0
1000
ACAD_MTEXT_COLUMN_INFO_END
  0
ENDSEC
  0
SECTION
  2
OBJECTS
  0
DICTIONARY
  5
C
330
0
100
AcDbDictionary
281
     1
  3
ACAD_CIP_PREVIOUS_PRODUCT_INFO
350
216
  3
ACAD_COLOR
350
6B
  3
ACAD_DETAILVIEWSTYLE
350
21B
  3
ACAD_GROUP
350
D
  3
ACAD_LAYOUT
350
1A
  3
ACAD_MATERIAL
350
6A
  3
ACAD_MLEADERSTYLE
350
12D
  3
ACAD_MLINESTYLE
350
17
  3
ACAD_PLOTSETTINGS
350
19
  3
ACAD_PLOTSTYLENAME
350
E
  3
ACAD_SCALELIST
350
10C
  3
ACAD_SECTIONVIEWSTYLE
350
219
  3
ACAD_TABLESTYLE
350
7E
  3
ACAD_VISUALSTYLE
350
EF
  3
ACDB_RECOMPOSE_DATA
350
873
  3
AcDbVariableDictionary
350
5E
  3
AcDsDecomposeData
350
879
  0
DICTIONARY
  5
1FF
330
2
100
AcDbDictionary
280
     1
281
     1
  3
ACAD_LAYERSTATES
360
200
  0
DICTIONARY
  5
13C
330
10
100
AcDbDictionary
280
     1
281
     1
  0
DICTIONARY
  5
35C
330
35B
100
AcDbDictionary
280
     1
281
     1
  0
DICTIONARY
  5
803
330
802
100
AcDbDictionary
280
     1
281
     1
  0
DICTIONARY
  5
805
330
804
100
AcDbDictionary
280
     1
281
     1
  0
DICTIONARY
  5
1CE
330
1F
100
AcDbDictionary
280
     1
281
     1
  0
DICTIONARY
  5
7F9
330
7F8
100
AcDbDictionary
280
     1
281
     1
  3
ASDK_XREC_ANNOTATION_SCALE_INFO
360
7FA
  0
DICTIONARY
  5
837
330
836
100
AcDbDictionary
280
     1
281
     1
  3
ASDK_XREC_ANNOTATION_SCALE_INFO
360
838
  0
XRECORD
  5
216
102
{ACAD_REACTORS
330
C
102
}
330
C
100
AcDbXrecord
280
     1
300
ACDLT
300
2021
300

  0
DICTIONARY
  5
6B
102
{ACAD_REACTORS
330
C
102
}
330
C
100
AcDbDictionary
281
     1
  0
DICTIONARY
  5
21B
102
{ACAD_REACTORS
330
C
102
}
330
C
100
AcDbDictionary
281
     1
  3
Metric50
350
21C
  0
DICTIONARY
  5
D
102
{ACAD_REACTORS
330
C
102
}
330
C
100
AcDbDictionary
281
     1
  0
DICTIONARY
  5
1A
102
{ACAD_REACTORS
330
C
102
}
330
C
100
AcDbDictionary
281
     1
  3
DP-250
350
D3
  3
Model
350
22
  0
DICTIONARY
  5
6A
102
{ACAD_REACTORS
330
C
102
}
330
C
100
AcDbDictionary
281
     1
  3
ByBlock
350
ED
  3
ByLayer
350
EC
  3
Global
350
EE
  0
DICTIONARY
  5
12D
102
{ACAD_REACTORS
330
C
102
}
330
C
100
AcDbDictionary
281
     1
  3
Annotative
350
13B
  3
Standard
350
12E
  0
DICTIONARY
  5
17
102
{ACAD_REACTORS
330
C
102
}
330
C
100
AcDbDictionary
281
     1
  3
Standard
350
18
  0
DICTIONARY
  5
19
102
{ACAD_REACTORS
330
C
102
}
330
C
100
AcDbDictionary
281
     1
  0
ACDBDICTIONARYWDFLT
  5
E
102
{ACAD_REACTORS
330
C
102
}
330
C
100
AcDbDictionary
281
     1
  3
Color_7
350
360
  3
Normal
350
F
100
AcDbDictionaryWithDefault
340
F
  0
DICTIONARY
  5
10C
102
{ACAD_REACTORS
330
C
102
}
330
C
100
AcDbDictionary
281
     1
  3
A0
350
10D
  3
A1
350
839
  3
A2
350
83A
  3
A3
350
1BF
  3
A4
350
83B
  3
A5
350
83C
  3
A6
350
83D
  3
A7
350
83E
  3
A8
350
83F
  3
A9
350
840
  3
B0
350
841
  3
B1
350
842
  3
B2
350
843
  3
B3
350
844
  3
B4
350
845
  3
B5
350
846
  3
B6
350
847
  3
B7
350
848
  0
DICTIONARY
  5
219
102
{ACAD_REACTORS
330
C
102
}
330
C
100
AcDbDictionary
281
     1
  3
Metric50
350
21A
  0
DICTIONARY
  5
7E
102
{ACAD_REACTORS
330
C
102
}
330
C
100
AcDbDictionary
281
     1
  3
Standard
350
7F
  0
DICTIONARY
  5
EF
102
{ACAD_REACTORS
330
C
102
}
330
C
100
AcDbDictionary
281
     1
  3
2dWireframe
350
F5
  3
Basic
350
F4
  3
Brighten
350
FB
  3
ColorChange
350
FF
  3
Conceptual
350
F8
  3
Dim
350
FA
  3
EdgeColorOff
350
1E6
  3
Facepattern
350
FE
  3
Flat
350
F0
  3
FlatWithEdges
350
F1
  3
Gouraud
350
F2
  3
GouraudWithEdges
350
F3
  3
Hidden
350
F7
  3
JitterOff
350
1E4
  3
Linepattern
350
FD
  3
OverhangOff
350
1E5
  3
Realistic
350
F9
  3
Shaded
350
1F3
  3
Shaded with edges
350
1F2
  3
Shades of Gray
350
1EF
  3
Sketchy
350
1F0
  3
Thicken
350
FC
  3
Wireframe
350
F6
  3
X-Ray
350
1F1
  0
XRECORD
  5
873
102
{ACAD_REACTORS
330
C
102
}
330
C
100
AcDbXrecord
280
     1
 90
        1
330
7F
330
3EC
330
3ED
330
3EE
330
3EF
330
3F0
330
3F1
330
400
330
401
330
402
330
403
330
416
330
417
330
418
330
437
330
84D
  0
DICTIONARY
  5
5E
102
{ACAD_REACTORS
330
C
102
}
330
C
100
AcDbDictionary
281
     1
  3
CANNOSCALE
350
146
  3
CENTEREXE
350
259
  3
CENTERLTYPEFILE
350
25A
  3
CMLEADERSTYLE
350
145
  3
CTABLESTYLE
350
84
  3
CVIEWDETAILSTYLE
350
227
  3
CVIEWSECTIONSTYLE
350
228
  3
DIMASSOC
350
5F
  3
HIDETEXT
350
63
  3
LAYEREVAL
350
1AE
  3
LAYERNOTIFY
350
1AF
  0
DICTIONARY
  5
879
102
{ACAD_REACTORS
330
C
102
}
330
C
100
AcDbDictionary
281
     1
  3
AcDsRecords
350
87B
  3
AcDsSchemas
350
87A
1001
ACAD
1070
     2
  0
DICTIONARY
  5
200
102
{ACAD_REACTORS
330
1FF
102
}
330
1FF
100
AcDbDictionary
281
     1
  3
LT2021_DAIWA
350
29F
  0
XRECORD
  5
7FA
102
{ACAD_REACTORS
330
7F9
102
}
330
7F9
100
AcDbXrecord
280
     1
 90
        1
340
10D
  0
XRECORD
  5
838
102
{ACAD_REACTORS
330
837
102
}
330
837
100
AcDbXrecord
280
     1
 90
        1
340
83A
  0
ACDBDETAILVIEWSTYLE
  5
21C
102
{ACAD_XDICTIONARY
360
87E
102
}
102
{ACAD_REACTORS
330
21B
102
}
330
21B
100
AcDbModelDocViewStyle
 70
     0
  3
Metric50
290
     0
100
AcDbDetailViewStyle
 70
     0
 71
     0
 90
        3
 71
     1
340
11
 62
   256
 40
5.0
340
0
 62
   256
 40
5.0
300

 40
0.0
280
     1
 71
     2
340
16
 90
       25
 62
   256
 71
     3
340
11
 62
   256
 40
5.0
 90
        0
 40
15.0
 90
        1
300
%<\AcVar ViewDetailId>% (%<\AcVar ViewScale \f "%sn">%)
 71
     4
340
16
 90
       25
 62
   256
340
16
 90
       25
 62
   256
280
     0
  0
LAYOUT
  5
D3
102
{ACAD_REACTORS
330
1A
102
}
330
1A
100
AcDbPlotSettings
  1

  2
RICOH MP C3004 JPN RPCS
  4
A3
  6

 40
5.079999923706054
 41
5.13336181640625
 42
5.154022216796875
 43
5.079986572265625
 44
297.0
 45
420.0
 46
0.0
 47
0.572566580772417
 48
4.428975861203525
 49
22.54447374801998
140
407.4592788911035
141
305.37275657602
142
1.0
143
0.9862686115665145
 70
   692
 72
     1
 73
     1
 74
     4
  7
DAIWA_monochrome.ctb
 75
     0
147
1.013922564575664
 76
     0
 77
     2
 78
   300
148
-4.428975861203525
149
-22.54447374801998
100
AcDbLayout
  1
DP-250
 70
     1
 71
     1
 10
-1.145959888849227
 20
17.53422927650841
 11
413.0868569690868
 21
310.4560069117632
 12
0.0
 22
0.0
 32
0.0
 14
4.428975861203525
 24
22.54447374801998
 34
0.0
 15
407.4592788911035
 25
305.37275657602
 35
0.0
146
0.0
 13
0.0
 23
0.0
 33
0.0
 16
1.0
 26
0.0
 36
0.0
 17
0.0
 27
1.0
 37
0.0
 76
     0
330
D2
331
7F8
1001
ACAD_PSEXT
1000
RICOH MP C3004 JPN RPCS
1000
RICOH MP C3004 JPN RPCS
1000
IP_192.168.1.206
1000
RPCS Driver (For Windows)
1070
     0
  0
LAYOUT
  5
22
102
{ACAD_XDICTIONARY
360
205
102
}
102
{ACAD_REACTORS
330
1A
102
}
330
1A
100
AcDbPlotSettings
  1

  2
none_device
  4
ISO_A4_(210.00_x_297.00_MM)
  6

 40
7.5
 41
20.0
 42
7.5
 43
20.0
 44
210.0
 45
297.0
 46
11.54999923706054
 47
-13.65000009536743
 48
0.0
 49
0.0
140
0.0
141
0.0
142
1.0
143
8.704084754739808
 70
 11952
 72
     1
 73
     0
 74
     0
  7

 75
     0
147
0.1148885871608098
 76
     0
 77
     2
 78
   300
148
0.0
149
0.0
100
AcDbLayout
  1
Model
 70
     1
 71
     0
 10
0.0
 20
0.0
 11
12.0
 21
9.0
 12
0.0
 22
0.0
 32
0.0
 14
0.0
 24
0.0
 34
0.0
 15
0.0
 25
0.0
 35
0.0
146
0.0
 13
0.0
 23
0.0
 33
0.0
 16
1.0
 26
0.0
 36
0.0
 17
0.0
 27
1.0
 37
0.0
 76
     0
330
1F
331
EA
1001
ACAD_PSEXT
1000
None
1000
None
1000
Not applicable
1000
The layout will not be plotted unless a new plotter configuration name is selected.
1070
     0
  0
MATERIAL
  5
ED
102
{ACAD_XDICTIONARY
360
1F9
102
}
102
{ACAD_REACTORS
330
6A
102
}
330
6A
100
AcDbMaterial
  1
ByBlock
 94
       63
  0
MATERIAL
  5
EC
102
{ACAD_XDICTIONARY
360
1F7
102
}
102
{ACAD_REACTORS
330
6A
102
}
330
6A
100
AcDbMaterial
  1
ByLayer
 94
       63
  0
MATERIAL
  5
EE
102
{ACAD_XDICTIONARY
360
173
102
}
102
{ACAD_REACTORS
330
6A
102
}
330
6A
100
AcDbMaterial
  1
Global
 43
0.0007999999797903
 43
0.0
 43
0.0
 43
0.0
 43
0.0
 43
0.0007999999797903
 43
0.0
 43
0.0
 43
0.0
 43
0.0
 43
1.0
 43
0.0
 43
0.0
 43
0.0
 43
0.0
 43
1.0
 49
0.0007999999797903
 49
0.0
 49
0.0
 49
0.0
 49
0.0
 49
0.0007999999797903
 49
0.0
 49
0.0
 49
0.0
 49
0.0
 49
1.0
 49
0.0
 49
0.0
 49
0.0
 49
0.0
 49
1.0
142
0.0007999999797903
142
0.0
142
0.0
142
0.0
142
0.0
142
0.0007999999797903
142
0.0
142
0.0
142
0.0
142
0.0
142
1.0
142
0.0
142
0.0
142
0.0
142
0.0
142
1.0
144
0.0007999999797903
144
0.0
144
0.0
144
0.0
144
0.0
144
0.0007999999797903
144
0.0
144
0.0
144
0.0
144
0.0
144
1.0
144
0.0
144
0.0
144
0.0
144
0.0
144
1.0
 94
       63
1001
ACAD
1070
    -1
1070
     3
1070
     0
1000

1071
        0
1070
     0
  0
MLEADERSTYLE
  5
13B
102
{ACAD_REACTORS
330
12D
102
}
330
12D
100
AcDbMLeaderStyle
179
     2
170
     2
171
     1
172
     0
 90
        2
 40
0.0
 41
0.0
173
     1
 91
-1056964608
340
14
 92
       -2
290
     1
 42
2.0
291
     1
 43
8.0
  3
Standard
 44
4.0
300

342
11
174
     1
178
     1
175
     1
176
     0
 93
-1056964608
 45
4.0
292
     0
297
     0
 46
4.0
 94
-1056964608
 47
1.0
 49
1.0
140
1.0
293
     1
141
0.0
294
     1
177
     0
142
1.0
295
     0
296
     1
143
3.75
271
     0
272
     9
273
     9
298
     0
  0
MLEADERSTYLE
  5
12E
102
{ACAD_REACTORS
330
12D
102
}
330
12D
100
AcDbMLeaderStyle
179
     2
170
     2
171
     1
172
     0
 90
        2
 40
0.0
 41
0.0
173
     1
 91
-1056964608
340
14
 92
       -2
290
     1
 42
2.0
291
     1
 43
8.0
  3
Standard
 44
4.0
300

342
11
174
     1
178
     1
175
     1
176
     0
 93
-1056964608
 45
4.0
292
     0
297
     0
 46
4.0
 94
-1056964608
 47
1.0
 49
1.0
140
1.0
293
     1
141
0.0
294
     1
177
     0
142
1.0
295
     0
296
     0
143
3.75
271
     0
272
     9
273
     9
298
     0
  0
MLINESTYLE
  5
18
102
{ACAD_REACTORS
330
17
102
}
330
17
100
AcDbMlineStyle
  2
STANDARD
 70
     0
  3

 62
   256
 51
90.0
 52
90.0
 71
     2
 49
0.5
 62
   256
  6
BYLAYER
 49
-0.5
 62
   256
  6
BYLAYER
  0
ACDBPLACEHOLDER
  5
360
102
{ACAD_REACTORS
330
E
102
}
330
E
  0
ACDBPLACEHOLDER
  5
F
102
{ACAD_REACTORS
330
E
102
}
330
E
  0
SCALE
  5
10D
102
{ACAD_REACTORS
330
10C
102
}
330
10C
100
AcDbScale
 70
     0
300
1:1
140
1.0
141
1.0
290
     1
  0
SCALE
  5
839
102
{ACAD_REACTORS
330
10C
102
}
330
10C
100
AcDbScale
 70
     0
300
1:2
140
1.0
141
2.0
290
     0
  0
SCALE
  5
83A
102
{ACAD_REACTORS
330
10C
102
}
330
10C
100
AcDbScale
 70
     0
300
1:3
140
1.0
141
3.0
290
     0
  0
SCALE
  5
1BF
102
{ACAD_REACTORS
330
10C
102
}
330
10C
100
AcDbScale
 70
     0
300
1:4
140
1.0
141
4.0
290
     0
  0
SCALE
  5
83B
102
{ACAD_REACTORS
330
10C
102
}
330
10C
100
AcDbScale
 70
     0
300
1:5
140
1.0
141
5.0
290
     0
  0
SCALE
  5
83C
102
{ACAD_REACTORS
330
10C
102
}
330
10C
100
AcDbScale
 70
     0
300
1:8
140
1.0
141
8.0
290
     0
  0
SCALE
  5
83D
102
{ACAD_REACTORS
330
10C
102
}
330
10C
100
AcDbScale
 70
     0
300
1:10
140
1.0
141
10.0
290
     0
  0
SCALE
  5
83E
102
{ACAD_REACTORS
330
10C
102
}
330
10C
100
AcDbScale
 70
     0
300
1:16
140
1.0
141
16.0
290
     0
  0
SCALE
  5
83F
102
{ACAD_REACTORS
330
10C
102
}
330
10C
100
AcDbScale
 70
     0
300
1:20
140
1.0
141
20.0
290
     0
  0
SCALE
  5
840
102
{ACAD_REACTORS
330
10C
102
}
330
10C
100
AcDbScale
 70
     0
300
1:30
140
1.0
141
30.0
290
     0
  0
SCALE
  5
841
102
{ACAD_REACTORS
330
10C
102
}
330
10C
100
AcDbScale
 70
     0
300
1:40
140
1.0
141
40.0
290
     0
  0
SCALE
  5
842
102
{ACAD_REACTORS
330
10C
102
}
330
10C
100
AcDbScale
 70
     0
300
1:50
140
1.0
141
50.0
290
     0
  0
SCALE
  5
843
102
{ACAD_REACTORS
330
10C
102
}
330
10C
100
AcDbScale
 70
     0
300
1:100
140
1.0
141
100.0
290
     0
  0
SCALE
  5
844
102
{ACAD_REACTORS
330
10C
102
}
330
10C
100
AcDbScale
 70
     0
300
2:1
140
2.0
141
1.0
290
     0
  0
SCALE
  5
845
102
{ACAD_REACTORS
330
10C
102
}
330
10C
100
AcDbScale
 70
     0
300
4:1
140
4.0
141
1.0
290
     0
  0
SCALE
  5
846
102
{ACAD_REACTORS
330
10C
102
}
330
10C
100
AcDbScale
 70
     0
300
8:1
140
8.0
141
1.0
290
     0
  0
SCALE
  5
847
102
{ACAD_REACTORS
330
10C
102
}
330
10C
100
AcDbScale
 70
     0
300
10:1
140
10.0
141
1.0
290
     0
  0
SCALE
  5
848
102
{ACAD_REACTORS
330
10C
102
}
330
10C
100
AcDbScale
 70
     0
300
100:1
140
100.0
141
1.0
290
     0
  0
ACDBSECTIONVIEWSTYLE
  5
21A
102
{ACAD_XDICTIONARY
360
87C
102
}
102
{ACAD_REACTORS
330
219
102
}
330
219
100
AcDbModelDocViewStyle
 70
     0
  3
Metric50
290
     0
100
AcDbSectionViewStyle
 70
     0
 71
     0
 90
      102
 71
     1
340
11
 62
   256
 40
5.0
340
0
340
0
 62
   256
 40
5.0
300
I, O, Q, S, X, Z
 40
10.0
 90
        0
 40
2.5
 90
        0
 71
     2
340
16
 90
       25
 62
   256
340
16
 90
       50
 62
   256
 40
5.0
 40
2.5
 40
5.0
 71
     3
340
11
 62
   256
 40
5.0
 90
        0
 40
15.0
 90
        1
300
%<\AcVar ViewSectionStartId>%-%<\AcVar ViewSectionEndId>% (%<\AcVar ViewScale \f "%sn">%)
 71
     4
 62
   256
 62
   257
300
ANSI31
 40
1.0
 90
        0
290
     0
290
     0
 90
        6
 40
0.0
 40
1.570796326794896
 40
0.2617993877991494
 40
1.308996938995747
 40
-0.2617993877991494
 40
1.832595714594046
  0
TABLESTYLE
  5
7F
102
{ACAD_XDICTIONARY
360
162
102
}
102
{ACAD_REACTORS
330
7E
102
}
330
7E
100
AcDbTableStyle
280
     0
  3
Standard
 70
     0
 71
     0
 40
1.5
 41
1.5
280
     0
281
     0
  7
Standard
140
4.5
170
     2
 62
     0
 63
     7
283
     0
 90
      512
 91
        0
  1

274
    -2
284
     1
 64
     0
275
    -2
285
     1
 65
     0
276
    -2
286
     1
 66
     0
277
    -2
287
     1
 67
     0
278
    -2
288
     1
 68
     0
279
    -2
289
     1
 69
     0
  7
Standard
140
6.0
170
     5
 62
     0
 63
     7
283
     0
 90
      512
 91
        0
  1

274
    -2
284
     1
 64
     0
275
    -2
285
     1
 65
     0
276
    -2
286
     1
 66
     0
277
    -2
287
     1
 67
     0
278
    -2
288
     1
 68
     0
279
    -2
289
     1
 69
     0
  7
Standard
140
4.5
170
     5
 62
     0
 63
     7
283
     0
 90
      512
 91
        0
  1

274
    -2
284
     1
 64
     0
275
    -2
285
     1
 65
     0
276
    -2
286
     1
 66
     0
277
    -2
287
     1
 67
     0
278
    -2
288
     1
 68
     0
279
    -2
289
     1
 69
     0
  0
VISUALSTYLE
  5
F5
102
{ACAD_REACTORS
330
EF
102
}
330
EF
100
AcDbVisualStyle
  2
2dWireframe
 70
     4
177
     3
291
     0
 70
    58
 90
        0
176
     1
 90
        2
176
     1
 90
        1
176
     1
 90
        0
176
     1
 40
0.6
176
     1
 40
30.0
176
     1
 62
     7
420
 16777215
176
     1
 90
        1
176
     1
 90
        4
176
     1
 62
     7
176
     1
 62
   257
176
     1
 90
        1
176
     1
 90
        1
176
     1
 40
1.0
176
     1
 90
        0
176
     1
 62
   257
176
     1
 40
1.0
176
     1
 90
        1
176
     1
 90
        6
176
     1
 90
        2
176
     1
 62
     7
176
     1
 90
        5
176
     1
 90
        0
176
     1
 90
        0
176
     1
290
     0
176
     1
 90
        1
176
     1
 40
0.0
176
     1
 90
        0
176
     1
290
     1
176
     1
290
     1
176
     1
290
     0
176
     1
290
     0
176
     1
290
     0
176
     1
290
     0
176
     1
290
     0
176
     1
290
     0
176
     1
290
     0
176
     1
 90
       50
176
     1
 40
0.0
176
     1
 40
1.0
176
     1
 90
        0
176
     1
 62
    18
420
        0
176
     1
 90
       50
176
     1
 90
        3
176
     1
 62
     5
420
      255
176
     1
290
     0
176
     1
 90
       50
176
     1
 90
       50
176
     1
 90
       50
176
     1
290
     0
176
     1
 90
       50
176
     1
 62
   256
176
     0
 40
1.0
176
     0
 90
        2
176
     1
  1
strokes_ogs.tif
176
     1
290
     0
176
     1
 40
1.0
176
     1
 40
1.0
176
     1
1001
ACAD
1000
AcDbSavedByObjectVersion
1070
     0
  0
VISUALSTYLE
  5
F4
102
{ACAD_REACTORS
330
EF
102
}
330
EF
100
AcDbVisualStyle
  2
Basic
 70
     7
177
     3
291
     1
 70
    58
 90
        1
176
     1
 90
        0
176
     1
 90
        1
176
     1
 90
        0
176
     1
 40
0.6
176
     1
 40
30.0
176
     1
 62
     7
420
 16777215
176
     1
 90
        0
176
     1
 90
        4
176
     1
 62
     7
176
     1
 62
   257
176
     1
 90
        1
176
     1
 90
        1
176
     1
 40
1.0
176
     1
 90
        8
176
     1
 62
     7
176
     1
 40
1.0
176
     1
 90
        1
176
     1
 90
        6
176
     1
 90
        2
176
     1
 62
     7
176
     1
 90
        5
176
     1
 90
        0
176
     1
 90
        0
176
     1
290
     0
176
     1
 90
        1
176
     1
 40
0.0
176
     1
 90
        0
176
     1
290
     0
176
     1
290
     1
176
     1
290
     1
176
     1
290
     0
176
     1
290
     0
176
     1
290
     0
176
     1
290
     0
176
     1
290
     0
176
     1
290
     0
176
     1
 90
       50
176
     1
 40
0.0
176
     1
 40
1.0
176
     1
 90
        0
176
     1
 62
    18
420
        0
176
     1
 90
       50
176
     1
 90
        3
176
     1
 62
     5
420
      255
176
     1
290
     0
176
     1
 90
       50
176
     1
 90
       50
176
     1
 90
       50
176
     1
290
     0
176
     1
 90
       50
176
     1
 62
   256
176
     0
 40
1.0
176
     0
 90
        2
176
     1
  1
strokes_ogs.tif
176
     1
290
     0
176
     1
 40
1.0
176
     1
 40
1.0
176
     1
1001
ACAD
1000
AcDbSavedByObjectVersion
1070
     0
  0
VISUALSTYLE
  5
FB
102
{ACAD_REACTORS
330
EF
102
}
330
EF
100
AcDbVisualStyle
  2
Brighten
 70
    12
177
     3
291
     1
 70
    58
 90
        2
176
     1
 90
        2
176
     1
 90
        1
176
     1
 90
        0
176
     1
 40
0.6
176
     1
 40
30.0
176
     1
 62
     7
420
 16777215
176
     1
 90
        1
176
     1
 90
        4
176
     1
 62
     7
176
     1
 62
   257
176
     1
 90
        1
176
     1
 90
        1
176
     1
 40
1.0
176
     1
 90
        8
176
     1
 62
     7
176
     1
 40
1.0
176
     1
 90
        1
176
     1
 90
        6
176
     1
 90
        2
176
     1
 62
     7
176
     1
 90
        5
176
     1
 90
        0
176
     1
 90
        0
176
     1
290
     0
176
     1
 90
        1
176
     1
 40
50.0
176
     1
 90
        0
176
     1
290
     0
176
     1
290
     1
176
     1
290
     1
176
     1
290
     0
176
     1
290
     0
176
     1
290
     0
176
     1
290
     0
176
     1
290
     0
176
     1
290
     0
176
     1
 90
       50
176
     1
 40
0.0
176
     1
 40
1.0
176
     1
 90
        0
176
     1
 62
    18
420
        0
176
     1
 90
       50
176
     1
 90
        3
176
     1
 62
     5
420
      255
176
     1
290
     0
176
     1
 90
       50
176
     1
 90
       50
176
     1
 90
       50
176
     1
290
     0
176
     1
 90
       50
176
     1
 62
   256
176
     0
 40
1.0
176
     0
 90
        2
176
     1
  1
strokes_ogs.tif
176
     1
290
     0
176
     1
 40
1.0
176
     1
 40
1.0
176
     1
1001
ACAD
1000
AcDbSavedByObjectVersion
1070
     0
  0
VISUALSTYLE
  5
FF
102
{ACAD_REACTORS
330
EF
102
}
330
EF
100
AcDbVisualStyle
  2
ColorChange
 70
    16
177
     3
291
     1
 70
    58
 90
        2
176
     1
 90
        2
176
     1
 90
        3
176
     1
 90
        0
176
     1
 40
0.6
176
     1
 40
30.0
176
     1
 62
     8
420
  8421504
176
     1
 90
        1
176
     1
 90
        4
176
     1
 62
     7
176
     1
 62
   257
176
     1
 90
        1
176
     1
 90
        1
176
     1
 40
1.0
176
     1
 90
        8
176
     1
 62
     8
420
  8421504
176
     1
 40
1.0
176
     1
 90
        1
176
     1
 90
        6
176
     1
 90
        2
176
     1
 62
     7
176
     1
 90
        5
176
     1
 90
        0
176
     1
 90
        0
176
     1
290
     0
176
     1
 90
        1
176
     1
 40
0.0
176
     1
 90
        0
176
     1
290
     0
176
     1
290
     1
176
     1
290
     1
176
     1
290
     0
176
     1
290
     0
176
     1
290
     0
176
     1
290
     0
176
     1
290
     0
176
     1
290
     0
176
     1
 90
       50
176
     1
 40
0.0
176
     1
 40
1.0
176
     1
 90
        0
176
     1
 62
    18
420
        0
176
     1
 90
       50
176
     1
 90
        3
176
     1
 62
     5
420
      255
176
     1
290
     0
176
     1
 90
       50
176
     1
 90
       50
176
     1
 90
       50
176
     1
290
     0
176
     1
 90
       50
176
     1
 62
   256
176
     0
 40
1.0
176
     0
 90
        2
176
     1
  1
strokes_ogs.tif
176
     1
290
     0
176
     1
 40
1.0
176
     1
 40
1.0
176
     1
1001
ACAD
1000
AcDbSavedByObjectVersion
1070
     0
  0
VISUALSTYLE
  5
F8
102
{ACAD_REACTORS
330
EF
102
}
330
EF
100
AcDbVisualStyle
  2
Conceptual
 70
     9
177
     3
291
     0
 70
    58
 90
        3
176
     1
 90
        2
176
     1
 90
        1
176
     1
 90
        0
176
     1
 40
0.6
176
     1
 40
30.0
176
     1
 62
     7
420
 16777215
176
     1
 90
        2
176
     1
 90
        2
176
     1
 62
     7
176
     1
 62
   257
176
     1
 90
        1
176
     1
 90
        1
176
     1
 40
40.0
176
     1
 90
        8
176
     1
 62
     7
176
     1
 40
1.0
176
     1
 90
        1
176
     1
 90
        6
176
     1
 90
        2
176
     1
 62
     7
176
     1
 90
        3
176
     1
 90
        0
176
     1
 90
        0
176
     1
290
     0
176
     1
 90
        1
176
     1
 40
0.0
176
     1
 90
        0
176
     1
290
     0
176
     1
290
     1
176
     1
290
     1
176
     1
290
     0
176
     1
290
     0
176
     1
290
     0
176
     1
290
     0
176
     1
290
     0
176
     1
290
     0
176
     1
 90
       50
176
     1
 40
0.0
176
     1
 40
1.0
176
     1
 90
        0
176
     1
 62
    18
420
        0
176
     1
 90
       50
176
     1
 90
        3
176
     1
 62
     5
420
      255
176
     1
290
     0
176
     1
 90
       50
176
     1
 90
       50
176
     1
 90
       50
176
     1
290
     0
176
     1
 90
       50
176
     1
 62
   256
176
     0
 40
1.0
176
     0
 90
        2
176
     1
  1
strokes_ogs.tif
176
     1
290
     0
176
     1
 40
1.0
176
     1
 40
1.0
176
     1
1001
ACAD
1000
AcDbSavedByObjectVersion
1070
     0
  0
VISUALSTYLE
  5
FA
102
{ACAD_REACTORS
330
EF
102
}
330
EF
100
AcDbVisualStyle
  2
Dim
 70
    11
177
     3
291
     1
 70
    58
 90
        2
176
     1
 90
        2
176
     1
 90
        1
176
     1
 90
        0
176
     1
 40
0.6
176
     1
 40
30.0
176
     1
 62
     7
420
 16777215
176
     1
 90
        1
176
     1
 90
        4
176
     1
 62
     7
176
     1
 62
   257
176
     1
 90
        1
176
     1
 90
        1
176
     1
 40
1.0
176
     1
 90
        8
176
     1
 62
     7
176
     1
 40
1.0
176
     1
 90
        1
176
     1
 90
        6
176
     1
 90
        2
176
     1
 62
     7
176
     1
 90
        5
176
     1
 90
        0
176
     1
 90
        0
176
     1
290
     0
176
     1
 90
        1
176
     1
 40
-50.0
176
     1
 90
        0
176
     1
290
     0
176
     1
290
     1
176
     1
290
     1
176
     1
290
     0
176
     1
290
     0
176
     1
290
     0
176
     1
290
     0
176
     1
290
     0
176
     1
290
     0
176
     1
 90
       50
176
     1
 40
0.0
176
     1
 40
1.0
176
     1
 90
        0
176
     1
 62
    18
420
        0
176
     1
 90
       50
176
     1
 90
        3
176
     1
 62
     5
420
      255
176
     1
290
     0
176
     1
 90
       50
176
     1
 90
       50
176
     1
 90
       50
176
     1
290
     0
176
     1
 90
       50
176
     1
 62
   256
176
     0
 40
1.0
176
     0
 90
        2
176
     1
  1
strokes_ogs.tif
176
     1
290
     0
176
     1
 40
1.0
176
     1
 40
1.0
176
     1
1001
ACAD
1000
AcDbSavedByObjectVersion
1070
     0
  0
VISUALSTYLE
  5
1E6
102
{ACAD_REACTORS
330
EF
102
}
330
EF
100
AcDbVisualStyle
  2
EdgeColorOff
 70
    22
177
     3
291
     1
 70
    58
 90
        2
176
     0
 90
        2
176
     0
 90
        0
176
     0
 90
        0
176
     0
 40
0.6
176
     0
 40
30.0
176
     0
 62
     7
420
 16777215
176
     0
 90
        1
176
     0
 90
        4
176
     0
 62
     7
176
     0
 62
   257
176
     0
 90
        1
176
     0
 90
        1
176
     0
 40
1.0
176
     0
 90
        8
176
     2
 62
     7
176
     0
 40
1.0
176
     0
 90
        1
176
     0
 90
        6
176
     0
 90
        2
176
     0
 62
     7
176
     0
 90
        5
176
     0
 90
        0
176
     0
 90
        0
176
     0
290
     0
176
     0
 90
        1
176
     0
 40
0.0
176
     0
 90
        0
176
     0
290
     0
176
     1
290
     1
176
     1
290
     1
176
     1
290
     0
176
     1
290
     0
176
     1
290
     0
176
     1
290
     0
176
     1
290
     0
176
     1
290
     0
176
     1
 90
       50
176
     1
 40
0.0
176
     1
 40
1.0
176
     1
 90
        0
176
     1
 62
    18
420
        0
176
     1
 90
       50
176
     1
 90
        3
176
     1
 62
     5
420
      255
176
     1
290
     0
176
     1
 90
       50
176
     1
 90
       50
176
     1
 90
       50
176
     1
290
     0
176
     1
 90
       50
176
     1
 62
   256
176
     0
 40
1.0
176
     0
 90
        2
176
     1
  1
strokes_ogs.tif
176
     1
290
     0
176
     1
 40
1.0
176
     1
 40
1.0
176
     1
1001
ACAD
1000
AcDbSavedByObjectVersion
1070
     0
  0
VISUALSTYLE
  5
FE
102
{ACAD_REACTORS
330
EF
102
}
330
EF
100
AcDbVisualStyle
  2
Facepattern
 70
    15
177
     3
291
     1
 70
    58
 90
        2
176
     1
 90
        2
176
     1
 90
        1
176
     1
 90
        0
176
     1
 40
0.6
176
     1
 40
30.0
176
     1
 62
     7
420
 16777215
176
     1
 90
        1
176
     1
 90
        4
176
     1
 62
     7
176
     1
 62
   257
176
     1
 90
        1
176
     1
 90
        1
176
     1
 40
1.0
176
     1
 90
        8
176
     1
 62
     7
176
     1
 40
1.0
176
     1
 90
        1
176
     1
 90
        6
176
     1
 90
        2
176
     1
 62
     7
176
     1
 90
        5
176
     1
 90
        0
176
     1
 90
        0
176
     1
290
     0
176
     1
 90
        1
176
     1
 40
0.0
176
     1
 90
        0
176
     1
290
     0
176
     1
290
     1
176
     1
290
     1
176
     1
290
     0
176
     1
290
     0
176
     1
290
     0
176
     1
290
     0
176
     1
290
     0
176
     1
290
     0
176
     1
 90
       50
176
     1
 40
0.0
176
     1
 40
1.0
176
     1
 90
        0
176
     1
 62
    18
420
        0
176
     1
 90
       50
176
     1
 90
        3
176
     1
 62
     5
420
      255
176
     1
290
     0
176
     1
 90
       50
176
     1
 90
       50
176
     1
 90
       50
176
     1
290
     0
176
     1
 90
       50
176
     1
 62
   256
176
     0
 40
1.0
176
     0
 90
        2
176
     1
  1
strokes_ogs.tif
176
     1
290
     0
176
     1
 40
1.0
176
     1
 40
1.0
176
     1
1001
ACAD
1000
AcDbSavedByObjectVersion
1070
     0
  0
VISUALSTYLE
  5
F0
102
{ACAD_REACTORS
330
EF
102
}
330
EF
100
AcDbVisualStyle
  2
Flat
 70
     0
177
     3
291
     1
 70
    58
 90
        2
176
     1
 90
        1
176
     1
 90
        1
176
     1
 90
        2
176
     1
 40
0.6
176
     1
 40
30.0
176
     1
 62
     7
420
 16777215
176
     1
 90
        0
176
     1
 90
        0
176
     1
 62
     7
176
     1
 62
   257
176
     1
 90
        1
176
     1
 90
        1
176
     1
 40
1.0
176
     1
 90
        8
176
     1
 62
     7
176
     1
 40
1.0
176
     1
 90
        1
176
     1
 90
        6
176
     1
 90
        2
176
     1
 62
     7
176
     1
 90
        5
176
     1
 90
        0
176
     1
 90
        0
176
     1
290
     0
176
     1
 90
       13
176
     1
 40
0.0
176
     1
 90
        0
176
     1
290
     0
176
     1
290
     1
176
     1
290
     1
176
     1
290
     0
176
     1
290
     0
176
     1
290
     0
176
     1
290
     0
176
     1
290
     0
176
     1
290
     0
176
     1
 90
       50
176
     1
 40
0.0
176
     1
 40
1.0
176
     1
 90
        0
176
     1
 62
    18
420
        0
176
     1
 90
       50
176
     1
 90
        3
176
     1
 62
     5
420
      255
176
     1
290
     0
176
     1
 90
       50
176
     1
 90
       50
176
     1
 90
       50
176
     1
290
     0
176
     1
 90
       50
176
     1
 62
   256
176
     0
 40
1.0
176
     0
 90
        2
176
     1
  1
strokes_ogs.tif
176
     1
290
     0
176
     1
 40
1.0
176
     1
 40
1.0
176
     1
1001
ACAD
1000
AcDbSavedByObjectVersion
1070
     0
  0
VISUALSTYLE
  5
F1
102
{ACAD_REACTORS
330
EF
102
}
330
EF
100
AcDbVisualStyle
  2
FlatWithEdges
 70
     1
177
     3
291
     1
 70
    58
 90
        2
176
     1
 90
        1
176
     1
 90
        1
176
     1
 90
        2
176
     1
 40
0.6
176
     1
 40
30.0
176
     1
 62
     7
420
 16777215
176
     1
 90
        1
176
     1
 90
        0
176
     1
 62
     7
176
     1
 62
   257
176
     1
 90
        1
176
     1
 90
        1
176
     1
 40
1.0
176
     1
 90
        0
176
     1
 62
   257
176
     1
 40
1.0
176
     1
 90
        1
176
     1
 90
        6
176
     1
 90
        2
176
     1
 62
     7
176
     1
 90
        5
176
     1
 90
        0
176
     1
 90
        0
176
     1
290
     0
176
     1
 90
       13
176
     1
 40
0.0
176
     1
 90
        0
176
     1
290
     0
176
     1
290
     1
176
     1
290
     1
176
     1
290
     0
176
     1
290
     0
176
     1
290
     0
176
     1
290
     0
176
     1
290
     0
176
     1
290
     0
176
     1
 90
       50
176
     1
 40
0.0
176
     1
 40
1.0
176
     1
 90
        0
176
     1
 62
    18
420
        0
176
     1
 90
       50
176
     1
 90
        3
176
     1
 62
     5
420
      255
176
     1
290
     0
176
     1
 90
       50
176
     1
 90
       50
176
     1
 90
       50
176
     1
290
     0
176
     1
 90
       50
176
     1
 62
   256
176
     0
 40
1.0
176
     0
 90
        2
176
     1
  1
strokes_ogs.tif
176
     1
290
     0
176
     1
 40
1.0
176
     1
 40
1.0
176
     1
1001
ACAD
1000
AcDbSavedByObjectVersion
1070
     0
  0
VISUALSTYLE
  5
F2
102
{ACAD_REACTORS
330
EF
102
}
330
EF
100
AcDbVisualStyle
  2
Gouraud
 70
     2
177
     3
291
     1
 70
    58
 90
        2
176
     1
 90
        2
176
     1
 90
        1
176
     1
 90
        2
176
     1
 40
0.6
176
     1
 40
30.0
176
     1
 62
     7
420
 16777215
176
     1
 90
        0
176
     1
 90
        0
176
     1
 62
     7
176
     1
 62
   257
176
     1
 90
        1
176
     1
 90
        1
176
     1
 40
1.0
176
     1
 90
        0
176
     1
 62
     7
176
     1
 40
1.0
176
     1
 90
        1
176
     1
 90
        6
176
     1
 90
        2
176
     1
 62
     7
176
     1
 90
        5
176
     1
 90
        0
176
     1
 90
        0
176
     1
290
     0
176
     1
 90
       13
176
     1
 40
0.0
176
     1
 90
        0
176
     1
290
     0
176
     1
290
     1
176
     1
290
     1
176
     1
290
     0
176
     1
290
     0
176
     1
290
     0
176
     1
290
     0
176
     1
290
     0
176
     1
290
     0
176
     1
 90
       50
176
     1
 40
0.0
176
     1
 40
1.0
176
     1
 90
        0
176
     1
 62
    18
420
        0
176
     1
 90
       50
176
     1
 90
        3
176
     1
 62
     5
420
      255
176
     1
290
     0
176
     1
 90
       50
176
     1
 90
       50
176
     1
 90
       50
176
     1
290
     0
176
     1
 90
       50
176
     1
 62
   256
176
     0
 40
1.0
176
     0
 90
        2
176
     1
  1
strokes_ogs.tif
176
     1
290
     0
176
     1
 40
1.0
176
     1
 40
1.0
176
     1
1001
ACAD
1000
AcDbSavedByObjectVersion
1070
     0
  0
VISUALSTYLE
  5
F3
102
{ACAD_REACTORS
330
EF
102
}
330
EF
100
AcDbVisualStyle
  2
GouraudWithEdges
 70
     3
177
     3
291
     1
 70
    58
 90
        2
176
     1
 90
        2
176
     1
 90
        1
176
     1
 90
        2
176
     1
 40
0.6
176
     1
 40
30.0
176
     1
 62
     7
420
 16777215
176
     1
 90
        1
176
     1
 90
        0
176
     1
 62
     7
176
     1
 62
   257
176
     1
 90
        1
176
     1
 90
        1
176
     1
 40
1.0
176
     1
 90
        0
176
     1
 62
   257
176
     1
 40
1.0
176
     1
 90
        1
176
     1
 90
        6
176
     1
 90
        2
176
     1
 62
     7
176
     1
 90
        5
176
     1
 90
        0
176
     1
 90
        0
176
     1
290
     0
176
     1
 90
       13
176
     1
 40
0.0
176
     1
 90
        0
176
     1
290
     0
176
     1
290
     1
176
     1
290
     1
176
     1
290
     0
176
     1
290
     0
176
     1
290
     0
176
     1
290
     0
176
     1
290
     0
176
     1
290
     0
176
     1
 90
       50
176
     1
 40
0.0
176
     1
 40
1.0
176
     1
 90
        0
176
     1
 62
    18
420
        0
176
     1
 90
       50
176
     1
 90
        3
176
     1
 62
     5
420
      255
176
     1
290
     0
176
     1
 90
       50
176
     1
 90
       50
176
     1
 90
       50
176
     1
290
     0
176
     1
 90
       50
176
     1
 62
   256
176
     0
 40
1.0
176
     0
 90
        2
176
     1
  1
strokes_ogs.tif
176
     1
290
     0
176
     1
 40
1.0
176
     1
 40
1.0
176
     1
1001
ACAD
1000
AcDbSavedByObjectVersion
1070
     0
  0
VISUALSTYLE
  5
F7
102
{ACAD_REACTORS
330
EF
102
}
330
EF
100
AcDbVisualStyle
  2
Hidden
 70
     6
177
     3
291
     0
 70
    58
 90
        1
176
     1
 90
        2
176
     1
 90
        2
176
     1
 90
        0
176
     1
 40
0.6
176
     1
 40
30.0
176
     1
 62
     7
420
 16777215
176
     1
 90
        2
176
     1
 90
        2
176
     1
 62
     7
176
     1
 62
   257
176
     1
 90
        2
176
     1
 90
        1
176
     1
 40
40.0
176
     1
 90
        0
176
     1
 62
   257
176
     1
 40
1.0
176
     1
 90
        1
176
     1
 90
        6
176
     1
 90
        2
176
     1
 62
     7
176
     1
 90
        3
176
     1
 90
        0
176
     1
 90
        0
176
     1
290
     0
176
     1
 90
        1
176
     1
 40
0.0
176
     1
 90
        0
176
     1
290
     0
176
     1
290
     1
176
     1
290
     1
176
     1
290
     0
176
     1
290
     0
176
     1
290
     0
176
     1
290
     0
176
     1
290
     0
176
     1
290
     0
176
     1
 90
       50
176
     1
 40
0.0
176
     1
 40
1.0
176
     1
 90
        0
176
     1
 62
    18
420
        0
176
     1
 90
       50
176
     1
 90
        3
176
     1
 62
     5
420
      255
176
     1
290
     0
176
     1
 90
       50
176
     1
 90
       50
176
     1
 90
       50
176
     1
290
     0
176
     1
 90
       50
176
     1
 62
   256
176
     0
 40
1.0
176
     0
 90
        2
176
     1
  1
strokes_ogs.tif
176
     1
290
     0
176
     1
 40
1.0
176
     1
 40
1.0
176
     1
1001
ACAD
1000
AcDbSavedByObjectVersion
1070
     0
  0
VISUALSTYLE
  5
1E4
102
{ACAD_REACTORS
330
EF
102
}
330
EF
100
AcDbVisualStyle
  2
JitterOff
 70
    20
177
     3
291
     1
 70
    58
 90
        2
176
     0
 90
        2
176
     0
 90
        0
176
     0
 90
        0
176
     0
 40
0.6
176
     0
 40
30.0
176
     0
 62
     7
420
 16777215
176
     0
 90
        1
176
     0
 90
        4
176
     0
 62
     7
176
     0
 62
   257
176
     0
 90
        1
176
     0
 90
        1
176
     0
 40
1.0
176
     0
 90
       10
176
     2
 62
     7
176
     0
 40
1.0
176
     0
 90
        1
176
     0
 90
        6
176
     0
 90
        2
176
     0
 62
     7
176
     0
 90
        5
176
     0
 90
        0
176
     0
 90
        0
176
     0
290
     0
176
     0
 90
        1
176
     0
 40
0.0
176
     0
 90
        0
176
     0
290
     0
176
     1
290
     1
176
     1
290
     1
176
     1
290
     0
176
     1
290
     0
176
     1
290
     0
176
     1
290
     0
176
     1
290
     0
176
     1
290
     0
176
     1
 90
       50
176
     1
 40
0.0
176
     1
 40
1.0
176
     1
 90
        0
176
     1
 62
    18
420
        0
176
     1
 90
       50
176
     1
 90
        3
176
     1
 62
     5
420
      255
176
     1
290
     0
176
     1
 90
       50
176
     1
 90
       50
176
     1
 90
       50
176
     1
290
     0
176
     1
 90
       50
176
     1
 62
   256
176
     0
 40
1.0
176
     0
 90
        2
176
     1
  1
strokes_ogs.tif
176
     1
290
     0
176
     1
 40
1.0
176
     1
 40
1.0
176
     1
1001
ACAD
1000
AcDbSavedByObjectVersion
1070
     0
  0
VISUALSTYLE
  5
FD
102
{ACAD_REACTORS
330
EF
102
}
330
EF
100
AcDbVisualStyle
  2
Linepattern
 70
    14
177
     3
291
     1
 70
    58
 90
        2
176
     1
 90
        2
176
     1
 90
        1
176
     1
 90
        0
176
     1
 40
0.6
176
     1
 40
30.0
176
     1
 62
     7
420
 16777215
176
     1
 90
        1
176
     1
 90
        4
176
     1
 62
     7
176
     1
 62
   257
176
     1
 90
        7
176
     1
 90
        7
176
     1
 40
1.0
176
     1
 90
        8
176
     1
 62
     7
176
     1
 40
1.0
176
     1
 90
        1
176
     1
 90
        6
176
     1
 90
        2
176
     1
 62
     7
176
     1
 90
        5
176
     1
 90
        0
176
     1
 90
        0
176
     1
290
     0
176
     1
 90
        1
176
     1
 40
0.0
176
     1
 90
        0
176
     1
290
     0
176
     1
290
     1
176
     1
290
     1
176
     1
290
     0
176
     1
290
     0
176
     1
290
     0
176
     1
290
     0
176
     1
290
     0
176
     1
290
     0
176
     1
 90
       50
176
     1
 40
0.0
176
     1
 40
1.0
176
     1
 90
        0
176
     1
 62
    18
420
        0
176
     1
 90
       50
176
     1
 90
        3
176
     1
 62
     5
420
      255
176
     1
290
     0
176
     1
 90
       50
176
     1
 90
       50
176
     1
 90
       50
176
     1
290
     0
176
     1
 90
       50
176
     1
 62
   256
176
     0
 40
1.0
176
     0
 90
        2
176
     1
  1
strokes_ogs.tif
176
     1
290
     0
176
     1
 40
1.0
176
     1
 40
1.0
176
     1
1001
ACAD
1000
AcDbSavedByObjectVersion
1070
     0
  0
VISUALSTYLE
  5
1E5
102
{ACAD_REACTORS
330
EF
102
}
330
EF
100
AcDbVisualStyle
  2
OverhangOff
 70
    21
177
     3
291
     1
 70
    58
 90
        2
176
     0
 90
        2
176
     0
 90
        0
176
     0
 90
        0
176
     0
 40
0.6
176
     0
 40
30.0
176
     0
 62
     7
420
 16777215
176
     0
 90
        1
176
     0
 90
        4
176
     0
 62
     7
176
     0
 62
   257
176
     0
 90
        1
176
     0
 90
        1
176
     0
 40
1.0
176
     0
 90
        9
176
     2
 62
     7
176
     0
 40
1.0
176
     0
 90
        1
176
     0
 90
        6
176
     0
 90
        2
176
     0
 62
     7
176
     0
 90
        5
176
     0
 90
        0
176
     0
 90
        0
176
     0
290
     0
176
     0
 90
        1
176
     0
 40
0.0
176
     0
 90
        0
176
     0
290
     0
176
     1
290
     1
176
     1
290
     1
176
     1
290
     0
176
     1
290
     0
176
     1
290
     0
176
     1
290
     0
176
     1
290
     0
176
     1
290
     0
176
     1
 90
       50
176
     1
 40
0.0
176
     1
 40
1.0
176
     1
 90
        0
176
     1
 62
    18
420
        0
176
     1
 90
       50
176
     1
 90
        3
176
     1
 62
     5
420
      255
176
     1
290
     0
176
     1
 90
       50
176
     1
 90
       50
176
     1
 90
       50
176
     1
290
     0
176
     1
 90
       50
176
     1
 62
   256
176
     0
 40
1.0
176
     0
 90
        2
176
     1
  1
strokes_ogs.tif
176
     1
290
     0
176
     1
 40
1.0
176
     1
 40
1.0
176
     1
1001
ACAD
1000
AcDbSavedByObjectVersion
1070
     0
  0
VISUALSTYLE
  5
F9
102
{ACAD_REACTORS
330
EF
102
}
330
EF
100
AcDbVisualStyle
  2
Realistic
 70
     8
177
     3
291
     0
 70
    58
 90
        2
176
     1
 90
        3
176
     1
 90
        0
176
     1
 90
        2
176
     1
 40
0.6
176
     1
 40
30.0
176
     1
 62
     7
420
 16777215
176
     1
 90
        0
176
     1
 90
        0
176
     1
 62
     7
176
     1
 62
   257
176
     1
 90
        1
176
     1
 90
        1
176
     1
 40
1.0
176
     1
 90
        8
176
     1
 62
   257
176
     1
 40
1.0
176
     1
 90
        1
176
     1
 90
        6
176
     1
 90
        2
176
     1
 62
     7
176
     1
 90
        3
176
     1
 90
        0
176
     1
 90
        0
176
     1
290
     0
176
     1
 90
       13
176
     1
 40
0.0
176
     1
 90
        0
176
     1
290
     0
176
     1
290
     1
176
     1
290
     1
176
     1
290
     0
176
     1
290
     0
176
     1
290
     0
176
     1
290
     0
176
     1
290
     0
176
     1
290
     0
176
     1
 90
       50
176
     1
 40
0.0
176
     1
 40
1.0
176
     1
 90
        0
176
     1
 62
    18
420
        0
176
     1
 90
       50
176
     1
 90
        3
176
     1
 62
     5
420
      255
176
     1
290
     0
176
     1
 90
       50
176
     1
 90
       50
176
     1
 90
       50
176
     1
290
     0
176
     1
 90
       50
176
     1
 62
   256
176
     0
 40
1.0
176
     0
 90
        2
176
     1
  1
strokes_ogs.tif
176
     1
290
     0
176
     1
 40
1.0
176
     1
 40
1.0
176
     1
1001
ACAD
1000
AcDbSavedByObjectVersion
1070
     0
  0
VISUALSTYLE
  5
1F3
102
{ACAD_REACTORS
330
EF
102
}
330
EF
100
AcDbVisualStyle
  2
Shaded
 70
    27
177
     3
291
     0
 70
    58
 90
        2
176
     1
 90
        2
176
     1
 90
        1
176
     1
 90
        2
176
     1
 40
0.6
176
     1
 40
30.0
176
     1
 62
     7
420
 16777215
176
     1
 90
        0
176
     1
 90
        4
176
     1
 62
     7
176
     1
 62
   257
176
     1
 90
        1
176
     1
 90
        1
176
     1
 40
1.0
176
     1
 90
        8
176
     1
 62
   257
176
     1
 40
1.0
176
     1
 90
        1
176
     1
 90
        6
176
     1
 90
        2
176
     1
 62
     8
420
  7895160
176
     1
 90
        3
176
     1
 90
        0
176
     1
 90
        0
176
     1
290
     0
176
     1
 90
        5
176
     1
 40
0.0
176
     1
 90
        0
176
     1
290
     0
176
     1
290
     1
176
     1
290
     1
176
     1
290
     0
176
     1
290
     0
176
     1
290
     0
176
     1
290
     0
176
     1
290
     0
176
     1
290
     0
176
     1
 90
       50
176
     1
 40
0.0
176
     1
 40
1.0
176
     1
 90
        0
176
     1
 62
    18
420
        0
176
     1
 90
       50
176
     1
 90
        3
176
     1
 62
     5
420
      255
176
     1
290
     0
176
     1
 90
       50
176
     1
 90
       50
176
     1
 90
       50
176
     1
290
     0
176
     1
 90
       50
176
     1
 62
   256
176
     0
 40
1.0
176
     0
 90
        2
176
     1
  1
strokes_ogs.tif
176
     1
290
     0
176
     1
 40
1.0
176
     1
 40
1.0
176
     1
1001
ACAD
1000
AcDbSavedByObjectVersion
1070
     0
  0
VISUALSTYLE
  5
1F2
102
{ACAD_REACTORS
330
EF
102
}
330
EF
100
AcDbVisualStyle
  2
Shaded with edges
 70
    26
177
     3
291
     0
 70
    58
 90
        2
176
     1
 90
        2
176
     1
 90
        1
176
     1
 90
        2
176
     1
 40
0.6
176
     1
 40
30.0
176
     1
 62
     7
420
 16777215
176
     1
 90
        1
176
     1
 90
        2
176
     1
 62
     7
176
     1
 62
   257
176
     1
 90
        2
176
     1
 90
        1
176
     1
 40
1.0
176
     1
 90
        8
176
     1
 62
   257
176
     1
 40
1.0
176
     1
 90
        1
176
     1
 90
        6
176
     1
 90
        2
176
     1
 62
     7
176
     1
 90
        3
176
     1
 90
        0
176
     1
 90
        0
176
     1
290
     0
176
     1
 90
        5
176
     1
 40
0.0
176
     1
 90
        0
176
     1
290
     0
176
     1
290
     1
176
     1
290
     1
176
     1
290
     0
176
     1
290
     0
176
     1
290
     0
176
     1
290
     0
176
     1
290
     0
176
     1
290
     0
176
     1
 90
       50
176
     1
 40
0.0
176
     1
 40
1.0
176
     1
 90
        0
176
     1
 62
    18
420
        0
176
     1
 90
       50
176
     1
 90
        3
176
     1
 62
     5
420
      255
176
     1
290
     0
176
     1
 90
       50
176
     1
 90
       50
176
     1
 90
       50
176
     1
290
     0
176
     1
 90
       50
176
     1
 62
   256
176
     0
 40
1.0
176
     0
 90
        2
176
     1
  1
strokes_ogs.tif
176
     1
290
     0
176
     1
 40
1.0
176
     1
 40
1.0
176
     1
1001
ACAD
1000
AcDbSavedByObjectVersion
1070
     0
  0
VISUALSTYLE
  5
1EF
102
{ACAD_REACTORS
330
EF
102
}
330
EF
100
AcDbVisualStyle
  2
Shades of Gray
 70
    23
177
     3
291
     0
 70
    58
 90
        2
176
     1
 90
        2
176
     1
 90
        3
176
     1
 90
        0
176
     1
 40
0.6
176
     1
 40
30.0
176
     1
 62
     7
420
 16777215
176
     1
 90
        2
176
     1
 90
        2
176
     1
 62
     7
176
     1
 62
     7
176
     1
 90
        1
176
     1
 90
        1
176
     1
 40
40.0
176
     1
 90
        8
176
     1
 62
     7
176
     1
 40
1.0
176
     1
 90
        1
176
     1
 90
        6
176
     1
 90
        2
176
     1
 62
     7
176
     1
 90
        3
176
     1
 90
        0
176
     1
 90
        0
176
     1
290
     0
176
     1
 90
        1
176
     1
 40
0.0
176
     1
 90
        0
176
     1
290
     0
176
     1
290
     1
176
     1
290
     1
176
     1
290
     0
176
     1
290
     0
176
     1
290
     0
176
     1
290
     0
176
     1
290
     0
176
     1
290
     0
176
     1
 90
       50
176
     1
 40
0.0
176
     1
 40
1.0
176
     1
 90
        0
176
     1
 62
    18
420
        0
176
     1
 90
       50
176
     1
 90
        3
176
     1
 62
     5
420
      255
176
     1
290
     0
176
     1
 90
       50
176
     1
 90
       50
176
     1
 90
       50
176
     1
290
     0
176
     1
 90
       50
176
     1
 62
   256
176
     0
 40
1.0
176
     0
 90
        2
176
     1
  1
strokes_ogs.tif
176
     1
290
     0
176
     1
 40
1.0
176
     1
 40
1.0
176
     1
1001
ACAD
1000
AcDbSavedByObjectVersion
1070
     0
  0
VISUALSTYLE
  5
1F0
102
{ACAD_REACTORS
330
EF
102
}
330
EF
100
AcDbVisualStyle
  2
Sketchy
 70
    24
177
     3
291
     0
 70
    58
 90
        1
176
     1
 90
        2
176
     1
 90
        2
176
     1
 90
        0
176
     1
 40
0.6
176
     1
 40
30.0
176
     1
 62
     7
420
 16777215
176
     1
 90
        2
176
     1
 90
        2
176
     1
 62
     7
176
     1
 62
     7
176
     1
 90
        1
176
     1
 90
        1
176
     1
 40
40.0
176
     1
 90
       11
176
     1
 62
     7
176
     1
 40
1.0
176
     1
 90
        1
176
     1
 90
        6
176
     1
 90
        2
176
     1
 62
     7
176
     1
 90
        6
176
     1
 90
        0
176
     1
 90
        0
176
     1
290
     0
176
     1
 90
        1
176
     1
 40
0.0
176
     1
 90
        0
176
     1
290
     0
176
     1
290
     1
176
     1
290
     1
176
     1
290
     0
176
     1
290
     0
176
     1
290
     0
176
     1
290
     0
176
     1
290
     0
176
     1
290
     0
176
     1
 90
       50
176
     1
 40
0.0
176
     1
 40
1.0
176
     1
 90
        0
176
     1
 62
    18
420
        0
176
     1
 90
       50
176
     1
 90
        3
176
     1
 62
     5
420
      255
176
     1
290
     0
176
     1
 90
       50
176
     1
 90
       50
176
     1
 90
       50
176
     1
290
     0
176
     1
 90
       50
176
     1
 62
   256
176
     0
 40
1.0
176
     0
 90
        2
176
     1
  1
strokes_ogs.tif
176
     1
290
     0
176
     1
 40
1.0
176
     1
 40
1.0
176
     1
1001
ACAD
1000
AcDbSavedByObjectVersion
1070
     0
  0
VISUALSTYLE
  5
FC
102
{ACAD_REACTORS
330
EF
102
}
330
EF
100
AcDbVisualStyle
  2
Thicken
 70
    13
177
     3
291
     1
 70
    58
 90
        2
176
     1
 90
        2
176
     1
 90
        1
176
     1
 90
        0
176
     1
 40
0.6
176
     1
 40
30.0
176
     1
 62
     7
420
 16777215
176
     1
 90
        1
176
     1
 90
        4
176
     1
 62
     7
176
     1
 62
   257
176
     1
 90
        1
176
     1
 90
        1
176
     1
 40
1.0
176
     1
 90
       12
176
     1
 62
     7
176
     1
 40
1.0
176
     1
 90
        1
176
     1
 90
        6
176
     1
 90
        2
176
     1
 62
     7
176
     1
 90
        5
176
     1
 90
        0
176
     1
 90
        0
176
     1
290
     0
176
     1
 90
        1
176
     1
 40
0.0
176
     1
 90
        0
176
     1
290
     0
176
     1
290
     1
176
     1
290
     1
176
     1
290
     0
176
     1
290
     0
176
     1
290
     0
176
     1
290
     0
176
     1
290
     0
176
     1
290
     0
176
     1
 90
       50
176
     1
 40
0.0
176
     1
 40
1.0
176
     1
 90
        0
176
     1
 62
    18
420
        0
176
     1
 90
       50
176
     1
 90
        3
176
     1
 62
     5
420
      255
176
     1
290
     0
176
     1
 90
       50
176
     1
 90
       50
176
     1
 90
       50
176
     1
290
     0
176
     1
 90
       50
176
     1
 62
   256
176
     0
 40
1.0
176
     0
 90
        2
176
     1
  1
strokes_ogs.tif
176
     1
290
     0
176
     1
 40
1.0
176
     1
 40
1.0
176
     1
1001
ACAD
1000
AcDbSavedByObjectVersion
1070
     0
  0
VISUALSTYLE
  5
F6
102
{ACAD_REACTORS
330
EF
102
}
330
EF
100
AcDbVisualStyle
  2
Wireframe
 70
     5
177
     3
291
     0
 70
    58
 90
        0
176
     1
 90
        2
176
     1
 90
        0
176
     1
 90
        0
176
     1
 40
0.6
176
     1
 40
30.0
176
     1
 62
     7
420
 16777215
176
     1
 90
        1
176
     1
 90
        4
176
     1
 62
     7
176
     1
 62
   257
176
     1
 90
        1
176
     1
 90
        1
176
     1
 40
1.0
176
     1
 90
        0
176
     1
 62
   257
176
     1
 40
1.0
176
     1
 90
        1
176
     1
 90
        6
176
     1
 90
        2
176
     1
 62
     7
176
     1
 90
        3
176
     1
 90
        0
176
     1
 90
        0
176
     1
290
     0
176
     1
 90
        1
176
     1
 40
0.0
176
     1
 90
        0
176
     1
290
     0
176
     1
290
     1
176
     1
290
     1
176
     1
290
     0
176
     1
290
     0
176
     1
290
     0
176
     1
290
     0
176
     1
290
     0
176
     1
290
     0
176
     1
 90
       50
176
     1
 40
0.0
176
     1
 40
1.0
176
     1
 90
        0
176
     1
 62
    18
420
        0
176
     1
 90
       50
176
     1
 90
        3
176
     1
 62
     5
420
      255
176
     1
290
     0
176
     1
 90
       50
176
     1
 90
       50
176
     1
 90
       50
176
     1
290
     0
176
     1
 90
       50
176
     1
 62
   256
176
     0
 40
1.0
176
     0
 90
        2
176
     1
  1
strokes_ogs.tif
176
     1
290
     0
176
     1
 40
1.0
176
     1
 40
1.0
176
     1
1001
ACAD
1000
AcDbSavedByObjectVersion
1070
     0
  0
VISUALSTYLE
  5
1F1
102
{ACAD_REACTORS
330
EF
102
}
330
EF
100
AcDbVisualStyle
  2
X-Ray
 70
    25
177
     3
291
     0
 70
    58
 90
        2
176
     1
 90
        2
176
     1
 90
        1
176
     1
 90
        1
176
     1
 40
0.5
176
     1
 40
30.0
176
     1
 62
     7
420
 16777215
176
     1
 90
        1
176
     1
 90
        0
176
     1
 62
     7
176
     1
 62
   257
176
     1
 90
        1
176
     1
 90
        1
176
     1
 40
1.0
176
     1
 90
        8
176
     1
 62
     7
176
     1
 40
1.0
176
     1
 90
        1
176
     1
 90
        6
176
     1
 90
        2
176
     1
 62
     7
176
     1
 90
        3
176
     1
 90
        0
176
     1
 90
        0
176
     1
290
     0
176
     1
 90
       13
176
     1
 40
0.0
176
     1
 90
        0
176
     1
290
     0
176
     1
290
     1
176
     1
290
     1
176
     1
290
     0
176
     1
290
     0
176
     1
290
     0
176
     1
290
     0
176
     1
290
     0
176
     1
290
     0
176
     1
 90
       50
176
     1
 40
0.0
176
     1
 40
1.0
176
     1
 90
        0
176
     1
 62
    18
420
        0
176
     1
 90
       50
176
     1
 90
        3
176
     1
 62
     5
420
      255
176
     1
290
     0
176
     1
 90
       50
176
     1
 90
       50
176
     1
 90
       50
176
     1
290
     0
176
     1
 90
       50
176
     1
 62
   256
176
     0
 40
1.0
176
     0
 90
        2
176
     1
  1
strokes_ogs.tif
176
     1
290
     0
176
     1
 40
1.0
176
     1
 40
1.0
176
     1
1001
ACAD
1000
AcDbSavedByObjectVersion
1070
     0
  0
DICTIONARYVAR
  5
146
102
{ACAD_REACTORS
330
5E
102
}
330
5E
100
DictionaryVariables
280
     0
  1
1:1
  0
DICTIONARYVAR
  5
259
102
{ACAD_REACTORS
330
5E
102
}
330
5E
100
DictionaryVariables
280
     0
  1
3.500000
  0
DICTIONARYVAR
  5
25A
102
{ACAD_REACTORS
330
5E
102
}
330
5E
100
DictionaryVariables
280
     0
  1
acadiso.lin
  0
DICTIONARYVAR
  5
145
102
{ACAD_REACTORS
330
5E
102
}
330
5E
100
DictionaryVariables
280
     0
  1
STANDARD
  0
DICTIONARYVAR
  5
84
102
{ACAD_REACTORS
330
5E
102
}
330
5E
100
DictionaryVariables
280
     0
  1
STANDARD
  0
DICTIONARYVAR
  5
227
102
{ACAD_REACTORS
330
5E
102
}
330
5E
100
DictionaryVariables
280
     0
  1
Metric50
  0
DICTIONARYVAR
  5
228
102
{ACAD_REACTORS
330
5E
102
}
330
5E
100
DictionaryVariables
280
     0
  1
Metric50
  0
DICTIONARYVAR
  5
5F
102
{ACAD_REACTORS
330
5E
102
}
330
5E
100
DictionaryVariables
280
     0
  1
2
  0
DICTIONARYVAR
  5
63
102
{ACAD_REACTORS
330
5E
102
}
330
5E
100
DictionaryVariables
280
     0
  1
1
  0
DICTIONARYVAR
  5
1AE
102
{ACAD_REACTORS
330
5E
102
}
330
5E
100
DictionaryVariables
280
     0
  1
0
  0
DICTIONARYVAR
  5
1AF
102
{ACAD_REACTORS
330
5E
102
}
330
5E
100
DictionaryVariables
280
     0
  1
0
  0
DICTIONARY
  5
87B
102
{ACAD_REACTORS
330
879
102
}
330
879
100
AcDbDictionary
281
     1
  0
DICTIONARY
  5
87A
102
{ACAD_REACTORS
330
879
102
}
330
879
100
AcDbDictionary
281
     1
  3
2472548034752
350
874
  3
2472548034768
350
875
  3
2472548034784
350
876
  3
2472548034800
350
877
  3
2472548034816
350
878
  0
XRECORD
  5
29F
102
{ACAD_REACTORS
330
200
102
}
330
200
100
AcDbXrecord
280
     1
 91
     2047
301

290
     0
302
0
  8
VIEW
 90
        0
 62
     3
370
    -3
331
16
  1
色_3
440
        0
  8
FREAME
 90
        8
 62
     4
370
    -3
331
16
  1
色_4
440
        0
  8
DASHE
 90
        8
 62
     2
370
    -3
331
16
  1
色_2
440
        0
  8
CENTER
 90
        8
 62
     1
370
    -3
331
16
  1
色_1
440
        0
  8
BODY
 90
        8
 62
     7
370
    -3
331
16
  1
色_7
440
        0
  8
0
 90
        8
 62
     7
370
    -3
331
16
  1
色_7
440
        0
  8
SIZE
 90
        8
 62
     1
370
    -3
331
16
  1
色_1
440
        0
  0
DICTIONARY
  5
87E
330
21C
100
AcDbDictionary
280
     1
281
     1
  3
ACAD_XREC_ROUNDTRIP
360
87F
  0
DICTIONARY
  5
205
330
22
100
AcDbDictionary
280
     1
281
     1
  0
DICTIONARY
  5
1F9
330
ED
100
AcDbDictionary
280
     1
281
     1
  3
FBXASSET
360
1FA
  0
DICTIONARY
  5
1F7
330
EC
100
AcDbDictionary
280
     1
281
     1
  3
FBXASSET
360
1F8
  0
DICTIONARY
  5
173
330
EE
100
AcDbDictionary
280
     1
281
     1
  3
BUMPTILE
360
175
  3
DIFFUSETILE
360
174
  3
FBXASSET
360
1FB
  3
OPACITYTILE
360
176
  3
REFLECTIONTILE
360
177
  0
DICTIONARY
  5
87C
330
21A
100
AcDbDictionary
280
     1
281
     1
  3
ACAD_XREC_ROUNDTRIP
360
87D
  0
DICTIONARY
  5
162
330
7F
100
AcDbDictionary
280
     1
281
     1
  3
ACAD_ROUNDTRIP_2008_TABLESTYLE_CELLSTYLEMAP
360
872
  0
XRECORD
  5
874
102
{ACAD_REACTORS
330
87A
102
}
330
87A
100
AcDbXrecord
280
     1
  1
AcDb_Thumbnail_Schema
102
{ATTRRECORD
341
875
  2
AcDbDs::TreatedAsObjectData
280
     1
291
     1
102
ATTRRECORD}
102
{ATTRRECORD
341
876
  2
AcDbDs::Legacy
280
     1
291
     1
102
ATTRRECORD}
  2
AcDbDs::ID
280
    10
 91
        8
102
{ATTRRECORD
341
877
  2
AcDs:Indexable
280
     1
291
     1
102
ATTRRECORD}
102
{ATTRRECORD
341
878
  2
AcDbDs::HandleAttribute
280
     7
282
     1
102
ATTRRECORD}
  2
Thumbnail_Data
280
    15
 91
        0
  0
XRECORD
  5
875
102
{ACAD_REACTORS
330
87A
102
}
330
87A
100
AcDbXrecord
280
     1
  1
AcDbDs::TreatedAsObjectDataSchema
  2
AcDbDs::TreatedAsObjectData
280
     1
 91
        0
  0
XRECORD
  5
876
102
{ACAD_REACTORS
330
87A
102
}
330
87A
100
AcDbXrecord
280
     1
  1
AcDbDs::LegacySchema
  2
AcDbDs::Legacy
280
     1
 91
        0
  0
XRECORD
  5
877
102
{ACAD_REACTORS
330
87A
102
}
330
87A
100
AcDbXrecord
280
     1
  1
AcDbDs::IndexedPropertySchema
  2
AcDs:Indexable
280
     1
 91
        0
  0
XRECORD
  5
878
102
{ACAD_REACTORS
330
87A
102
}
330
87A
100
AcDbXrecord
280
     1
  1
AcDbDs::HandleAttributeSchema
  2
AcDbDs::HandleAttribute
280
     7
 91
        1
284
     1
  0
XRECORD
  5
87F
102
{ACAD_REACTORS
330
87E
102
}
330
87E
100
AcDbXrecord
280
     1
102
DISPLAYNAME
  1
Metric50
102
FLAGS
 90
        0
  0
XRECORD
  5
1FA
102
{ACAD_REACTORS
330
1F9
102
}
330
1F9
100
AcDbXrecord
280
     1
 70
     1
 90
429727718
  1
D62C5603-E3A1-4AEA-B7FB-FE5D8D0755AF
310
504B03040A0000080000CC70623B3DEE336E79000000790000001B0000006175746F6465736B2D64657369676E2D7061636B6167652E786D6C3C3F786D6C2076657273696F6E3D22312E302220656E636F64696E673D227574662D3822203F3E3C666F726D6174733E3C666F726D61743E687474703A2F2F736368656D612E
310
6175746F6465736B2E636F6D2F64657369676E2D7061636B6167652F323030393C2F666F726D61743E3C2F666F726D6174733E504B0304140006080800CC70623BD486FD9CA0000000F4000000130000005B436F6E74656E745F54797065735D2E786D6C7D8EC10E82300C865F65E91D8A1E8C310C0EEA1BF002731658846E
310
D98AC1B77784ABF1D8FE5FBFBF75BBCE937A534CCEB38643598122B6FEE978D0B0485F9C41B54DDD7D022595594E1A469170414C76A4D9A4D207E29CF43ECE46F218070CC6BECC4078ACAA135ACF422C856C0E68EA1BF5669944DDD7BCDE7B1F8E415D77AECB980613C2E4AC91FC167A2B244592486606FC29C8FD7F045B9A
310
EF7053A7E60B504B0304140006080800CC70623B853B8169EB0000007C01000008000000636F72652E786D6C8D90416EC3201045AF62CDB6C206821CC7C244919D9CA01740401C94182C03558F5F9C3852BBEB6A467FFE9B197D7EFC9E1EC5975982F5AE035262288C535E5B377690E21535501C055FBC8FBF6C503839990E
310
5619041F179FE64D52DE45E362569DD7661365082642A11EB9E920A89B99642953CC8E702F67A9EE7234257977194EC9EAE275C4EABCCF5EAD5940D4AC6F0E35A568B8F43562CD7046CD199FD07E60174276A7BE677B5EADB0E0D14EEFFB6A31321A0D82627C4084204C3F096B71DD52F6819B16635EADF63F509AF53FA164
310
5DDCD1EDDD17164090FCC8732078B56691CB33A85CD7DCC40F504B0304140006080800CC70623B55019EA25F0000007C00000007000000636E782E786D6C4DCB3B0E80201045D1AD90E915ED2CF8AC45050C11660C8261F98AB1B07AC9C97D42D718D865D3E909258CFD00CCE24AC6E326A164D74DC0B4128928FF32603847
310
2BA13128B1252AC747C6BAB984FC68F0B87FE8960A5C09FE86CFB69FBA01504B0304140006080800CC70623BDBABAAF470010000D40300000C0000006662782F636F72652E786D6CC553D16E823014FD95A6AF4B694182CC941A83FA05FB810A9511A125A5257EFE2E82712ECEB8A7F100CD39F7F69E734AF9FADC366850B6
310
AF8DCE7018308C942E4C59EB2AC3DE1D498AD15A706B8CFB56869196ADCAF00863C12B6B7C374385D14E6907A836A59A41D9F7CA615434B0C8705F7CAA5606D23BA8E84F41278B93AC54100640439DE0BDB320004D43C63716C7C399D30917DCFBBA9CD9BA8469F5B156168B24CED3F7248AC8769F27244EB73B92EED8862C
310
B7F13E0C179B3C8F979C8ECD82BBBABDAA2BAC924E9558448CBD9330242CFA08E3154B5651FCC6D215639C8EE5774DBE2B5F6CF2B5768B68963BB5F5588420E442FC700B1139D4CB01F450C1E918227C2E09DF070D8140C84E1E9AAB8F1340832A9CB13130A5F1376A908D57309505ECF2A0DF179C4E9D30F5B239B87E3823
310
7A79C6F31DE1A8A5AEC08474B03C7837EAE4938639B44E5932B833D2C6B6B279CDC613877FA26EE21F4A2A4C63EC7F29A2F301D1F9F7A0E37D145F504B0304140006080800CC70623B9C113CC27E0000009D0000000B0000006662782F636E782E786D6C4DCCDF0A83201C86E15B91DFB94BFB330DD428C8FB886521330DA7
310
6397BF1A1DECE883878F57749FCDA1B7892F1BBC047A23808C7F84D9FA55424E0BE6803A256208E9EF06C84F9B91703228B1C690F78B66B34CD9A5439DF5CF0BFBF65E35BCA1B8D6A5C6F540381E886698B5741C695F9503EBA150A2F8958E3DC3EA0B504B0304140006080800CC70623B7DF2F77C2A010000120200003100
310
00006662782F41393633353835312D344632462D344230382D423046372D3739314545314133324237412F636F72652E786D6C8D51DB8EC22014FC15C2939B0D2DB4B45643319AE817EC0F6041255A68B86CFCFC856D4D76DF7CE190393373060EDB3DC707F856CE6B6B7A480A0C81328395DA5C7B18C3057510EC3873D686
310
3F34088C18550F330C39BB3A1BA7051AAC09CA84841A2BD5020AEF55806078A44B0FFD7053A328440C89E1EFC52486BBB8AA8214A99D789CF9E05200300FC927E4FB4D5B375D43103D5527440FB843077C5AA3F5861C8F645F5787F59E95B390B318B55CE45AA638FAA2957BD7248B390B7A7CC51F9C124149C82B8C378810
310
84AB2F42B7B8DD56F413775B8C5999E9FF4471926F8AA236A1AE96B8B3CC434E5839373893369E1FAF30EA395917409EB7F26AF8801C171837A4A6AC9C89E9F9C9B1A58BA30FD6A5EF5DDDCF894B9AD9B6A59C957943A9FCAE2FD5BC4DFE03504B0304140006080800CC70623BAD7543B64E01000033030000300000006662
310
782F41393633353835312D344632462D344230382D423046372D3739314545314133324237412F636E782E786D6CD593CD6EC32010845F0571AD6CE3D48AD20813A9873E410FBD12D82434182C7EAAE6EDBB2424CD25871E7B41D6EC30B3FA84F9E67BB2E40B4234DE8DB46F1925E094D7C6ED479AD3AE5951B2113C789FEE
310
6C943839C1488B4C05DF079FE72A69D8C96C13AAD6B8631503449F83828872B949AC57D26200B826A308D316B4064D6E46FCDA41C05550DC9E483A00797BFD207EFB092A45DE9514C1BBD22178396BD39D891265658C238DEA00936C654E5E433CB65A26D9F6EDB5EBC14EBF49A45CB856E66048291F6939A9A81BB5C89177
310
38143CA680F4AA299D66A042CEB3354A2684DC9D8D178FE0D9B8B41CAAD720F880EE7EF93C0C18769E099ECC04D5A102C8049A8A05632F4DDF376CF1DE0F6BB65C2F8627B65A33C6BB62177CEBBDAD973006829F89F22E814B54F4BC2BE347F8AA8F681390B50FA73F804400B5F542E796F19FF974E7F78DB802FE05E20750
310
4B0304140006080800CC70623BE75B7789680500003C100000340000006662782F41393633353835312D344632462D344230382D423046372D3739314545314133324237412F6F626A656374732E786D6CAD575B8F9B3818FD2B887D06C22499CB8AA1CA655245D5B455A356FB305264C061D8018C6C3393D95FBFC7600890
310
A4CD5EF210B0B1BFEBF98E3F7B1FF6596ABC522E1296DF9BAE3D320D9A872C4AF2F8DE2CE5CEBA358D0FBEC719939D65A691938CDE9B6ADAF4BD98B3B2D05311DD91329583D9D5FC0F438434A7A611A644887B5384CF34233629258BA878B12322891DEFF6B66BD70BFB62634E8AE781D082709A4B588AF91C528CDA28B73F
310
1C998EEF39EABBEFA97FBD6A7C7E9553F9D3D79FE442923C3C523610337627CB87ABE99D359D4CC6D6E4FACAB5E6ABF9D2726FC6A3C5F56271377BB88362213924694B38DD99FE47C48627A1E7D49F5A8BB5E1A74C0A599ED3B0F21F1E56366B89112D681E218F0915D0D6F17AD41FBA2A369DCF6335D62ABBD39779D5DDD1
310
11D4D8DE3CBB96B2E04FB8202E41051754A1AA8E8F76B4C6DFE810B580B1547F4B84911149794252234D024EF8BBE963A95AE27B3D310A9D5C215C7960FAEE415ED75694C6AFB17BCACA5D99A60A9AA65F217B0BFC53292ACB92BF283FAD0D3621576592CB5BED907C2FA8E9DF794E35E97BEA31BED21FEB401ABB94C44839
310
DCACBF0E1C5DA8DA5B2F4DFFD32AD86F543D9E565E7056502E157C00AD2671CD534549AB752FCA9CDA00677A313F04E51B22FF19E57B300579E3C97EB29F682D92935CEC18CF901B7B54FD8C51F362B56FC72FE0B3C1EAE335EDCCBF5AEC39ADB17DC238973F804BA5E6F6BFE7AF1FB32E523BE9F3BD571418E3631DCA4D48
310
5250CF639223210A9446CA30052EDF057BD35F8329C1ECD84552BF0DC8D18BE7BCE23BFE6BD960AB4A7DE79923A103BEBD80F911CBAA2C60DB19B01CF164A5583B772EE6D3FFA56666CBCDA74DC97724A48F9A58967497E489C4D979006FD7A05E227A1EBDD0F737C623387A9C844D3709995625106D157315F8B8392CD4E0
310
A0B9A720C4BE9829CEF37EA1E13111214D53925356365ADA634861B52519DD27A00AEB808EAF0628E6F435519D446F45CF2C9CF5214F0A15B2F6D06B79DA3EE3CBF7F56780D2F4E7EF73A0F5E5B02A38D07DC852C6B7C1FBB6664213E0C39E3EBA7FF4E1AD23EA2829407C85E586727488B751B2DB9502BC7B228A3FD68B6E
310
A65A22397E690AA8D158D7E404EC8CDA235CC3B7D1898680131CEC2CDF2638C65196279577750F15884AEE19F94199155B92B13297978469D4F8D358DF0AEF7631E28DC8F0D9F437D5D39A83B2231A1D52D543813A824EF8D44BCFF2FA6A31BD1E8DAD87F1CCB526B3879935BF59CDADD5C37479BB1CDD4CA7B3556B516589
310
EF352754B706114D9C885EC9131DE6EFEB43D99AFE2391C2F958179413D7CFEF6B1B6DB1E7600F00DE6E5C67454A339A4BA2E0FBA85ED26F045D454F463DBFCE484C2F90F2E5E3666003662ED8F755951A7D1BECD5B30B550B2785C8E7320B7292A4838DDA71BBC863ED7613CAF659337A3354231D4FF4A182A54904C2898C
310
98B28C4AD0CE056CCF332A80986E571EE9DBC305BB5FEB7E509220A58D25CF042D712A806AC0AD0C657FDEF80D2D9CEAA2EE4D1C76F60BFE74219A06527D6F82DF6412526107381E55E353090704D085B52408A8913C4ED159D79BDA71BB4BC506F4831350EB6F975CD22D69BF7AC49B91A2C0A9DDA3D5CA36AD20FC478E37
310
E61844E2352865EBCB61A275A65283CAAA9DD27703B4102F5AF51EF5F573B75CBB5AD38BC845F7A49F82A0966A49C2E3EA5EA0ECD326CD965F1DB402C6FA8B51A4658C5C5E2EC9E214602E55810345408596591009A82E7E7FFACA19EEA299B14A0081A705CB3296EBC14CDF658DCD336EA6D1136881AAEB87B81AB9EE53D5
310
F5EB8BC8362082DA24122F98680A4E7930C01A0079749CEA14382A0783E5EBA5A10F8C098456A03D6A4AEB6BB881E2513747552A5DB22C7EDAF83BD5528081A365F7FF06504B0304140006080000CC70623B000000000000000000000000350000006662782F41393633353835312D344632462D344230382D423046372D37
310
39314545314133324237412F76657274696365732E62696E504B0304140006080800CC70623BF270F1330600000004000000360000006662782F41393633353835312D344632462D344230382D423046372D3739314545314133324237412F747269616E676C65732E62696E636660600000504B0304140006080000CC7062
310
3B000000000000000000000000370000006662782F41393633353835312D344632462D344230382D423046372D3739314545314133324237412F617474726962757465732E62696E504B0304140006080800CC70623B08DA0BD19000000041010000360000006662782F41393633353835312D344632462D344230382D4230
310
46372D3739314545314133324237412F6469726563746F72792E786D6C858F410AC3201045AF22B36F53E9A60B35CBEEBAE80D244E44489C6234F4F835464A48035D0DF398FF9F8AF63D0E6CC63039F212F8F9020C7D47C6792B21C5FE7403D62A1188E2E60C98D7234A5830286103A55745067B9D86B8A3CF9C7F90C11DE6
310
07FB144396D7B6A82D282E9A152AD114D5EF2CB866EEE831B8EEA07A7BB5A8D7D61A2BAAEB7FD5F70921FF497D00504B0304140006080800CC70623BEDD1DC58FD000000A00100003B0000006662782F41393633353835312D344632462D344230382D423046372D3739314545314133324237412F7265736F75726365732F
310
636F72652E786D6C8D504B6E833010BD0A9A6D65B00922041947112427E8052C33A156828DFCA97AFC9A40A576D7CDCCE87D344F8F9FBFE667F689CE6B6B3A6039850C8DB2A336530731DC4903D95970676DF82583CCC8193B5861107C72362E3BA4AC096842428D1D7107A5F7182053CF7474E0D507CE32973124857FE48B
310
540F3961CEF244279DE03EB81420DB9EAC1384436FA353E879B1B182C7A8C75DA3C7F453DF353A1075D537A7BA6464B8F535A99AE14A9A2BBD90E350DD183B5CFABE3AF262350B1EF4FC9351399401471025A527C218A1E53BAB5A5AB765F5469B96525EACF23FA6B88CFF34456DC2A1DCE36E360F82A5202F42F062ED2BAD
310
579969AFDD8A6F504B010214000A0000080000CC70623B3DEE336E79000000790000001B00000000000000000000000000000000006175746F6465736B2D64657369676E2D7061636B6167652E786D6C504B01021400140006080800CC70623BD486FD9CA0000000F40000001300000000000000000000000000B20000005B
310
436F6E74656E745F54797065735D2E786D6C504B01021400140006080800CC70623B853B8169EB0000007C010000080000000000000000000000000083010000636F72652E786D6C504B01021400140006080800CC70623B55019EA25F0000007C000000070000000000000000000000000094020000636E782E786D6C504B
310
01021400140006080800CC70623BDBABAAF470010000D40300000C00000000000000000000000000180300006662782F636F72652E786D6C504B01021400140006080800CC70623B9C113CC27E0000009D0000000B00000000000000000000000000B20400006662782F636E782E786D6C504B01021400140006080800CC70
310
623B7DF2F77C2A010000120200003100000000000000000000000000590500006662782F41393633353835312D344632462D344230382D423046372D3739314545314133324237412F636F72652E786D6C504B01021400140006080800CC70623BAD7543B64E010000330300003000000000000000000000000000D2060000
310
6662782F41393633353835312D344632462D344230382D423046372D3739314545314133324237412F636E782E786D6C504B01021400140006080800CC70623BE75B7789680500003C10000034000000000000000000000000006E0800006662782F41393633353835312D344632462D344230382D423046372D3739314545
310
314133324237412F6F626A656374732E786D6C504B01021400140006080000CC70623B0000000000000000000000003500000000000000000000000000280E00006662782F41393633353835312D344632462D344230382D423046372D3739314545314133324237412F76657274696365732E62696E504B01021400140006
310
080800CC70623BF270F133060000000400000036000000000000000000000000007B0E00006662782F41393633353835312D344632462D344230382D423046372D3739314545314133324237412F747269616E676C65732E62696E504B01021400140006080000CC70623B0000000000000000000000003700000000000000
310
000000000000D50E00006662782F41393633353835312D344632462D344230382D423046372D3739314545314133324237412F617474726962757465732E62696E504B01021400140006080800CC70623B08DA0BD1900000004101000036000000000000000000000000002A0F00006662782F41393633353835312D344632
310
462D344230382D423046372D3739314545314133324237412F6469726563746F72792E786D6C504B01021400140006080800CC70623BEDD1DC58FD000000A00100003B000000000000000000000000000E1000006662782F41393633353835312D344632462D344230382D423046372D3739314545314133324237412F7265
310
736F75726365732F636F72652E786D6C504B0506000000000E000E0080040000641100000000
  0
XRECORD
  5
1F8
102
{ACAD_REACTORS
330
1F7
102
}
330
1F7
100
AcDbXrecord
280
     1
 70
     1
 90
429727718
  1
30362254-06B7-45E0-A893-8CFA70E3D6BC
310
504B03040A0000080000CC70623B3DEE336E79000000790000001B0000006175746F6465736B2D64657369676E2D7061636B6167652E786D6C3C3F786D6C2076657273696F6E3D22312E302220656E636F64696E673D227574662D3822203F3E3C666F726D6174733E3C666F726D61743E687474703A2F2F736368656D612E
310
6175746F6465736B2E636F6D2F64657369676E2D7061636B6167652F323030393C2F666F726D61743E3C2F666F726D6174733E504B0304140006080800CC70623BD486FD9CA0000000F4000000130000005B436F6E74656E745F54797065735D2E786D6C7D8EC10E82300C865F65E91D8A1E8C310C0EEA1BF002731658846E
310
D98AC1B77784ABF1D8FE5FBFBF75BBCE937A534CCEB38643598122B6FEE978D0B0485F9C41B54DDD7D022595594E1A469170414C76A4D9A4D207E29CF43ECE46F218070CC6BECC4078ACAA135ACF422C856C0E68EA1BF5669944DDD7BCDE7B1F8E415D77AECB980613C2E4AC91FC167A2B244592486606FC29C8FD7F045B9A
310
EF7053A7E60B504B0304140006080800CC70623B1EC5D7A3EB0000007C01000008000000636F72652E786D6C8D90416EC3201045AF82665B6103C6756C6122AB4D4ED00B204C5C94182C03558F5F9C3852BBEB6A467FFE9B197D71FC9E6FE8CBACC17AD7032D0820E3B41FAD9B7A48F1820F808E52ACDEC75F36404ECDA687
310
4D0629A6D5A76597B477D1B89855E747B38B2A041301E95B6E7A08FAD3CCAA50296647B8168BD2573599823EBB0CA76447F43862C7BCCF5EAC59410E4DDD9C7973C2755553CCCFA4C603E3040F1565ED3B1FDE4E432BCA0D9622DAF9795FAF464533826484B498524CD807E51D79ED187F21878E10516EF63F505AC67F42C9
310
BA58B1FDDD071640D2FCC87D2045B96591CB3DA85CB7DCE40F504B0304140006080800CC70623B55019EA25F0000007C00000007000000636E782E786D6C4DCB3B0E80201045D1AD90E915ED2CF8AC45050C11660C8261F98AB1B07AC9C97D42D718D865D3E909258CFD00CCE24AC6E326A164D74DC0B4128928FF32603847
310
2BA13128B1252AC747C6BAB984FC68F0B87FE8960A5C09FE86CFB69FBA01504B0304140006080800CC70623B8C9102E971010000D40300000C0000006662782F636F72652E786D6CC5535B6E833010BC8AE5DF0A6C08340F1947A84D4ED00B38C6A128602363A31CBFCB234A53A551FA553EC09AD9F5CE8C31DB9E9B1AF5CA
310
7695D1198E428A91D2D214952E33ECDD315861B4E5CC1AE3BE9561A445A3323CC098B3D21ADFCE9034DA29ED00D5A6503328BA4E398C640D8B0C77F253352214DE4145770A5B214FA2546114020D759C75CE8200340D19DE981F0F6746269C33EFAB6266AB02A655C74A59CCF365BADC27CB5D902ED22848F6340DF238A141
310
BE88E2F57B92BFEDF23523433367AE6A2EEAA455C2A902F398D2751045018D3FA264435F3771F242571B4A1919CA6F9A7C5B3CD9E42BED16F12C776AEB308F40C848FC700B1139D4891EF410CEC810227CC6846F8386402064270EF5C5C709A05E49676C024C61FC95EA45ED154CA5211D1FF4FB8291A913A68E9B83EBBB33
310
E2A7673CDE118E5AE8124C0807CB8377834E366998436B950D7A7746DAD846D4CFD978E0F04FD455FC5D49D2D4C6FE9722321F10997F0F32DC47FE05504B0304140006080800CC70623BFFEA85907E0000009D0000000B0000006662782F636E782E786D6C4DCCD10A83201886E15B91FFDC95D95A811AB6F23E625948A6C3
310
E9D8E5AF46073BFAE0E1E365ED67B3E8ADC3CB78C7815C7240DA3DFC64DCC221C519D7805AC182F7F1EF06C88D9BE6703008B6049F9E274D7A1E938DBB5AE3D6131B2589BA0D3D965551E0B2EA732C9B9A624AAEB41E3A557677029960D9AFB4EF11165F504B0304140006080800CC70623B4FEEA4082C0100001202000031
310
0000006662782F39464131463745442D413632322D343644302D413938332D3331353338454246344243312F636F72652E786D6C8D515B6EC32010BC0AE2AB55850DD871ED0813254D72825EC00192A2C460F1A872FC42ED48ED5F7E00CDCECCCEB26C731F6FE05B39AFADE921293004CA082BB5B9F43086336A21D870E6AC
310
0D7F68109861543DCC30E4ECE26C9C164858139409093556AA051CBC570102714B8F1E7AF1A5C6A11862480C7F2DA6415C878B2A4891CA89C7990F2E050073937C42DE1DB7E4F87ED8A36D4329AA9B3D46DBAEAD504556557BD81DEBDD0761E52CE42C462D17B996298E3E6BE59E35C962CE821E1FF18553435012728A7187
310
0841987E927A8D9B35ADDF70BBC6989599FE4F1427F9A4286A132ABAC49D651EF234CD5CE04CDA78BA3DC2A8FB645D00B9DF8B57E215725C60BCA2A463E54C4CE327C7A65E1C7DB02E7DEFCBF594B864C5CA6CDBD49C957943E9FA5D5FBAF336F90F504B0304140006080800CC70623BAD7543B64E01000033030000300000
310
006662782F39464131463745442D413632322D343644302D413938332D3331353338454246344243312F636E782E786D6CD593CD6EC32010845F0571AD6CE3D48AD20813A9873E410FBD12D82434182C7EAAE6EDBB2424CD25871E7B41D6EC30B3FA84F9E67BB2E40B4234DE8DB46F1925E094D7C6ED479AD3AE5951B2113C
310
789FEE6C943839C1488B4C05DF079FE72A69D8C96C13AAD6B8631503449F83828872B949AC57D26200B826A308D316B4064D6E46FCDA41C05550DC9E483A00797BFD207EFB092A45DE9514C1BBD22178396BD39D891265658C238DEA00936C654E5E433CB65A26D9F6EDB5EBC14EBF49A45CB856E66048291F6939A9A81BB5
310
C8917738143CA680F4AA299D66A042CEB3354A2684DC9D8D178FE0D9B8B41CAAD720F880EE7EF93C0C18769E099ECC04D5A102C8049A8A05632F4DDF376CF1DE0F6BB65C2F8627B65A33C6BB62177CEBBDAD973006829F89F22E814B54F4BC2BE347F8AA8F681390B50FA73F804400B5F542E796F19FF974E7F78DB802FE05
310
E207504B0304140006080800CC70623B16AB87BA640500003C100000340000006662782F39464131463745442D413632322D343644302D413938332D3331353338454246344243312F6F626A656374732E786D6CAD575B6FA33818FD2B887DE6924B3BED8A326A92B68A663B534DD4D13E548A0C38942D60649B369D5FBFC7
310
600890A493BDE42160637FD7F31D7FF63E6FB3D478A55C242CBF3247B66B1A340F5994E4F19559CA8D75611A9F7D8F33263BCB4C232719BD32D5B4E97B316765A1A722BA21652A07B3B7B33F0D11D29C9A46981221AE4C113ED38CD8A4942CA2E2C58E882476BCD9DA23BB5ED8171B73523C0F841684D35CC252CCE79062D4
310
468DFA43D7747CCF51DF7D4FFDEB5593E3AB9CCA9FBEFE241792E4E19EB28198C968BAB8199F5D5A67D3E9C49A9E8F47D6EC76B6B0469F26EEFC7C3EBFBCBEB98462213924694B38DD98FE1D62C393D073EA4FADC5DAF04326852CCF6958F90F0F2B9BB5C48816348F90C7840A68EB78EDF68723159BCEE7891A6B95DDE9D3
310
BCEAEEE8086A6C6F9E5D4B59F0175C10A7A0820BAA5055C7473B5AE3CFDD452D602CD5DF12616444529E90D448938013FE6EFA58AA96F85E4F8C42275708571E98FE6827AF6B2B4AE3D7D83D64E5A64C53054DD3AF90BD06FEA9149565C94FCA0F6B834DC85599E4F2423B24DF0B6AFA979E534DFA9E7A4CC6FA631D486393
310
921829879BF5D781A373557BCB85E97FB90DB62B558F8795179C15944B051F40AB495CF35451D26A4727654E6D8033BD98EF82F21D91FF8AF2DD9982BCF1643BDD4EB516C9492E368C67C88DED563FC36D5EACF66DFF057C3658BDBFA69DF9578B3DA735B64F18C7F20770A9D45CFCF7FCF563D6456A277DBEF78A02637CA2
310
43B90A490AEAB94F72244481D24819A6C0E59B606BFA4B3025981DBB48EAB701D97BF19C577CC77F2D1B6C55A9EF3C732474C0B727303F625995056C3B02963D9EAC146BE78EC5FCEC7FA999EBC5EACBAAE41B12D27B4D2C0BBA49F244E2ECDC81B76B502F113D8F5EE8FB1BE3111CDD4FC2AA9B844CAB1288B68AB90A7CDC
310
1C166AB0D3DC5310625FCC14E779BFD0709F8890A629C9292B1B2DED31A4B0DA928CEE135085754027E3018A397D4D5427D15BD1330B677DC8934285AC3DF45A9EB68FF8F2B8FC0A509AFEECFD0FF2DE25CC6047F7214B195F07EFEB9A094D800F7BFAE8FED187B78EA8A3A400F115961BCAD1215E47C966530AF0EE8128FE
310
58CEBB996A8964FFA529A046635D9353B0336A8F700DDF46271A024E70B0B37C9DE01847591E54DED53D54202AB947E4076556AC49C6CA5C9E1226B7F1A7B1BE15DEED62C41B91E1B3E9AFAAA735036547343A925075041DF0A9979E893B391F8FCFA6967B3EFB644DCF6E5CEBFAE272625DCC6FAF3FB93793C5F90CE1EF57
310
407342756B10D1C489E8953CD1617E5CEECAD6F4EF8914CE5D5D504E5C3F1F9736DA62CFC11E00BCDDB8CC8A9466349744C1F75EBDA4DF09BA8A9E8C7A7E9991989E20E5DBDD6A6003664ED8F7A04A8DBE0DF6EAD9B9AA858342E47399053949D2C146EDB85DE4B176BB0965FBAC19BD19AA918E27FA50C1D22402E144464C
310
59462568E704B6E71915404CB72B8FF4EDE184DDAF753F284990D2C6926782963815403548A70C657FDEF80D2D9CEAA2AE4C1C76F60BFE74219A06527D6582DF6412526107381E55E353090704D085B52408D0933C4ED159D79BDA71BB4BC506F4831350EB6F979CD22D69BF7AC49B91A2C0A9DDA3D5CA36AD20FC478E37E6
310
1844E2352865EBCB6EA275A652E3836BE04EFB400BF1A2556F515F1FBB35B2AB35BD889C744FFA1004B5544B121E57F70215746DD2F5E2C1412B602CBF19455AC6C8E5E9922C4E01E65215385004546899059180EAFCF7A707CE7017CD8CDB0410789AB32C63B91E5CEBBBACB17AC6CD347A022D5075FD106377347AAABA7E
310
7D11590744509B44E205134DC1290F06580320F78E537D3D73540E06CB970B431F185308AD40BBD794D6D77003C5A36E8EAA54BA64597CD8F83BD552A080A365F7FF06504B0304140006080000CC70623B000000000000000000000000350000006662782F39464131463745442D413632322D343644302D413938332D3331
310
353338454246344243312F76657274696365732E62696E504B0304140006080800CC70623BF270F1330600000004000000360000006662782F39464131463745442D413632322D343644302D413938332D3331353338454246344243312F747269616E676C65732E62696E636660600000504B0304140006080000CC70623B
310
000000000000000000000000370000006662782F39464131463745442D413632322D343644302D413938332D3331353338454246344243312F617474726962757465732E62696E504B0304140006080800CC70623B08DA0BD19000000041010000360000006662782F39464131463745442D413632322D343644302D413938
310
332D3331353338454246344243312F6469726563746F72792E786D6C858F410AC3201045AF22B36F53E9A60B35CBEEBAE80D244E44489C6234F4F835464A48035D0DF398FF9F8AF63D0E6CC63039F212F8F9020C7D47C6792B21C5FE7403D62A1188E2E60C98D7234A5830286103A55745067B9D86B8A3CF9C7F90C11DE607
310
FB144396D7B6A82D282E9A152AD114D5EF2CB866EEE831B8EEA07A7BB5A8D7D61A2BAAEB7FD5F70921FF497D00504B0304140006080800CC70623B0D6EF93BFE000000A00100003B0000006662782F39464131463745442D413632322D343644302D413938332D3331353338454246344243312F7265736F75726365732F63
310
6F72652E786D6C8D50596E833010BD0A9ADFCA60B334011947A8694ED00B586642AC041B79A97AFC9A40A5F6AF3F33A3B7689E1E3F7DCD8FEC139DD7D6F4C0720A191A65476DA61E62B892236427C19DB5E1970C322367EC618541F0C9D9B8EC90B226A009093576C41D94DE63804C3DD2D18357379C652E63480A7FCF17A9
310
EE72C29CE5894E3AC17D702940B63D59270887DE46A7D0F36263058F518FBB468FE9A7BE6A7420864373B8D4873369AA8691FA421B3294352543C5CAF65C0F6FEF43CB8BD52C78D0F34F46E550061C419494B6843142CB0F5677F4B52BEB177AEC28E5C52AFF638ACBF84F53D42654E51E77B379102C05791282176B5F693D
310
CB4C7BED567C03504B010214000A0000080000CC70623B3DEE336E79000000790000001B00000000000000000000000000000000006175746F6465736B2D64657369676E2D7061636B6167652E786D6C504B01021400140006080800CC70623BD486FD9CA0000000F40000001300000000000000000000000000B20000005B
310
436F6E74656E745F54797065735D2E786D6C504B01021400140006080800CC70623B1EC5D7A3EB0000007C010000080000000000000000000000000083010000636F72652E786D6C504B01021400140006080800CC70623B55019EA25F0000007C000000070000000000000000000000000094020000636E782E786D6C504B
310
01021400140006080800CC70623B8C9102E971010000D40300000C00000000000000000000000000180300006662782F636F72652E786D6C504B01021400140006080800CC70623BFFEA85907E0000009D0000000B00000000000000000000000000B30400006662782F636E782E786D6C504B01021400140006080800CC70
310
623B4FEEA4082C0100001202000031000000000000000000000000005A0500006662782F39464131463745442D413632322D343644302D413938332D3331353338454246344243312F636F72652E786D6C504B01021400140006080800CC70623BAD7543B64E010000330300003000000000000000000000000000D5060000
310
6662782F39464131463745442D413632322D343644302D413938332D3331353338454246344243312F636E782E786D6C504B01021400140006080800CC70623B16AB87BA640500003C1000003400000000000000000000000000710800006662782F39464131463745442D413632322D343644302D413938332D3331353338
310
454246344243312F6F626A656374732E786D6C504B01021400140006080000CC70623B0000000000000000000000003500000000000000000000000000270E00006662782F39464131463745442D413632322D343644302D413938332D3331353338454246344243312F76657274696365732E62696E504B01021400140006
310
080800CC70623BF270F133060000000400000036000000000000000000000000007A0E00006662782F39464131463745442D413632322D343644302D413938332D3331353338454246344243312F747269616E676C65732E62696E504B01021400140006080000CC70623B0000000000000000000000003700000000000000
310
000000000000D40E00006662782F39464131463745442D413632322D343644302D413938332D3331353338454246344243312F617474726962757465732E62696E504B01021400140006080800CC70623B08DA0BD190000000410100003600000000000000000000000000290F00006662782F39464131463745442D413632
310
322D343644302D413938332D3331353338454246344243312F6469726563746F72792E786D6C504B01021400140006080800CC70623B0D6EF93BFE000000A00100003B000000000000000000000000000D1000006662782F39464131463745442D413632322D343644302D413938332D3331353338454246344243312F7265
310
736F75726365732F636F72652E786D6C504B0506000000000E000E0080040000641100000000
  0
XRECORD
  5
175
102
{ACAD_REACTORS
330
173
102
}
330
173
100
AcDbXrecord
280
     1
270
     1
271
     1
  0
XRECORD
  5
174
102
{ACAD_REACTORS
330
173
102
}
330
173
100
AcDbXrecord
280
     1
270
     1
271
     1
  0
XRECORD
  5
1FB
102
{ACAD_REACTORS
330
173
102
}
330
173
100
AcDbXrecord
280
     1
 70
     0
 90
1673772943
  1
ECE7A1D2-D628-4531-984C-D00F80459256
310
504B03040A0000080000CC70623B3DEE336E79000000790000001B0000006175746F6465736B2D64657369676E2D7061636B6167652E786D6C3C3F786D6C2076657273696F6E3D22312E302220656E636F64696E673D227574662D3822203F3E3C666F726D6174733E3C666F726D61743E687474703A2F2F736368656D612E
310
6175746F6465736B2E636F6D2F64657369676E2D7061636B6167652F323030393C2F666F726D61743E3C2F666F726D6174733E504B0304140006080800CC70623BD486FD9CA0000000F4000000130000005B436F6E74656E745F54797065735D2E786D6C7D8EC10E82300C865F65E91D8A1E8C310C0EEA1BF002731658846E
310
D98AC1B77784ABF1D8FE5FBFBF75BBCE937A534CCEB38643598122B6FEE978D0B0485F9C41B54DDD7D022595594E1A469170414C76A4D9A4D207E29CF43ECE46F218070CC6BECC4078ACAA135ACF422C856C0E68EA1BF5669944DDD7BCDE7B1F8E415D77AECB980613C2E4AC91FC167A2B244592486606FC29C8FD7F045B9A
310
EF7053A7E60B504B0304140006080800CC70623BD9DDAED0EC0000007C01000008000000636F72652E786D6C8D90416EC3201045AF82665B61836D9CD8C2444DD39CA01740405C94182C03558F5F9C3852BBEB6A467FFE9B197D7EF89E6EE8CB2CC17A37002D0820E394D7D68D03A478C17B4007C117EFE32F1B20272733C0
310
2A83E0E3E2D3BC49CABB685CCCAAF3DA6CA20CC14440EA969B0182FA34932C648AD911AEC52CD5558EA6A0CF2EC329598D1E47ACCEFBECC59A050463A7EA5833865FEBDD0E37353BE3EE8DBDE3F6786A48D375FBF6CC78B9C282473B3DEFABC5C86834888A900E538A49F5419B9EB47DD5BC907D4F082F57FB1F28CDFA9F50
310
B22ED6D5F6EE030B20687EE43E10BC5CB3C8E51E54AE6B6EE207504B0304140006080800CC70623B55019EA25F0000007C00000007000000636E782E786D6C4DCB3B0E80201045D1AD90E915ED2CF8AC45050C11660C8261F98AB1B07AC9C97D42D718D865D3E909258CFD00CCE24AC6E326A164D74DC0B4128928FF326038
310
472BA13128B1252AC747C6BAB984FC68F0B87FE8960A5C09FE86CFB69FBA01504B0304140006080800CC70623BA24EB22D72010000D40300000C0000006662782F636F72652E786D6CC5535B6E833010BC8AE5DF0A6C5E49888CA3A6694ED00B38E05014B091B1518EDFE511A5A9D228FD2A1F60CDEC7A67C6986DCE4D8D7A
310
69BA4AAB0C073EC548AA5C17952A33ECECD15B61B4E1CC686DBF9561A44423333CC098B3D268D7CE50AE9595CA02AA74216750749DB418E5352C32DCE59FB211BE70162ABA93DF8AFC244AE9073ED050C759670D0840D390E18DF9F1706664C23973AE2A66B62A605A75ACA4C13C4976E1364A12EF355A2EBD384AF65EFA96
310
BC7B8BED2EA6719AAE16FB8491A199335B351775B991C2CA02F390D2D40B028F861F41BCA68B7518BFD0D59A524686F29B26D7164F36B94AD9289CE54E6D1DE6010819891F6E21228B3AD1831EC219194284CF98F06DD01008846CC5A1BEF83801D4CBDC6A1303536877A57A513B0953A94FC707FDBE6064EA84A9E3E6E0FA
310
EE8CF0E9198F7784A316AA0413C2C2F2E0ECA0934D1AE6D05A69BCDE9E91D2A611F573361E38FC1375157F5752AE6B6DFE4B11990F88CCBF0719EE23FF02504B0304140006080800CC70623B408A7D3B7C0000009D0000000B0000006662782F636E782E786D6C4DCCD10A83201886E15B91FFDC552A92A0064DBC8F581632
310
D3703A76F9ABD1C18E3E78F878E5F0D9027ABBFCF2292AE86E2D20171F69F6715550CB827B40839639A5F2770314A7CD293819B45C73AAFB45B35BA61ACAA1C1C7E7855C58C15BC331339661262CC762340413D68D77DA5B42298546CBE6573AF60CEB2F504B0304140006080800CC70623B449FB9BD290100001202000031
310
0000006662782F36394639363044362D344446342D343946362D394244322D3234314243333846323333332F636F72652E786D6C8D515B6EC32010BC0AE22B55850D98B871848994463E412FE002495162B07854397EA176A4F62F3F2C9A9D991D587EB84F37F0AD7D30CEF6905418026DA553C65E7A98E219ED203808EE9D
310
8B7F6810D871D23D2C3014FCE25D9A57483A1BB58D19B54EE9151C43D0110279CB971E06F9A5A7B11A53CC8C70ADE6515EC78BAE4895DB992778883E0700CB907242D17643D7E2538BD869608875438BBAE38922CAC8F1BDD90DB4691A5E2F42C153326A951B95E398B3D1FE599322163C9AE9115F7A3D46ADA0A018778810
310
84E907617BDCEE297BC5BB3DC6BC2EF47FA234AB2745C9D8D8D035EE220B50105E2F0DC1954B9FB747187D9F9D8FA0CCDB042D5FA0C015C65B42DF78BD10F3F3B363CB56C7109DCFDFBBB97E662ED92EB62D13BC2E1BCAE5777DB9966D8A1F504B0304140006080800CC70623BAD7543B64E01000033030000300000006662
310
782F36394639363044362D344446342D343946362D394244322D3234314243333846323333332F636E782E786D6CD593CD6EC32010845F0571AD6CE3D48AD20813A9873E410FBD12D82434182C7EAAE6EDBB2424CD25871E7B41D6EC30B3FA84F9E67BB2E40B4234DE8DB46F1925E094D7C6ED479AD3AE5951B2113C789FEE
310
6C943839C1488B4C05DF079FE72A69D8C96C13AAD6B8631503449F83828872B949AC57D26200B826A308D316B4064D6E46FCDA41C05550DC9E483A00797BFD207EFB092A45DE9514C1BBD22178396BD39D891265658C238DEA00936C654E5E433CB65A26D9F6EDB5EBC14EBF49A45CB856E66048291F6939A9A81BB5C89177
310
38143CA680F4AA299D66A042CEB3354A2684DC9D8D178FE0D9B8B41CAAD720F880EE7EF93C0C18769E099ECC04D5A102C8049A8A05632F4DDF376CF1DE0F6BB65C2F8627B65A33C6BB62177CEBBDAD973006829F89F22E814B54F4BC2BE347F8AA8F681390B50FA73F804400B5F542E796F19FF974E7F78DB802FE05E20750
310
4B0304140006080800CC70623B8D05915C650500003B100000340000006662782F36394639363044362D344446342D343946362D394244322D3234314243333846323333332F6F626A656374732E786D6CAD575B6FA33814FE2B887D06429276DA1565D4266D158D3A339A6846FB502932E050B66023DB74D2FDF5FB190C01
310
9276B2973C046C8ECFF53B17071F77456EBD502133CEAE6CDF9DD81665314F32965ED995DA3A17B6F5310C04E7AA47665B8C14F4CAD6DB7618A48257A5D94AE89654B91AEDDEDDFC61C998326A5B714EA4BCB265FC440BE2924AF184CA6737218AB8E976E7FA6E4338649B0A523E8D98964450A6A029F619B8588D52FE7039
310
B1BD30F0F4F730D0FF866AF6369557DB33949F31A9088B0F848DD8CCFCF9F2767A76E99CCDE733677E3EF59D9BBB9BA5E37F984D16E78BC5E5F5ED25044B25C0C96822E8D60EEFE11B91C581D77CEA34368A1F5329E68CD1B8B61F16D63A1B8E092D294B10C78C4A48EB593D192E7DED9BDEE7995E1B91FDEDD3ACEA9FE831
310
6A756F9F7D4D79F4274C90A7A04248AA51D5F8C718DAE06FB2F75AC4796EBE65D22A88A22223B995679120E2D50E41AA49C260C046A35368846B0BECD0DFF3EBEB8AD4F835768F69B9ADF25C43D30E6B646F807FAA64AD59F61715C7A54127C4AACA98BA3006A9D792DAE165E0D59B61A01FB3A9F9D838D2DAE62445C86166
310
F37564E842E7DE6A69879FEEA2DD5AE7E371E1A5E025154AC307D06A03D73EB5978C58FFA4C8E9033066E0F3BD53BEC1F39F91BE7B55103791EDE6BBB991A2046172CB4581D8B893FA674DDA17A77B3B7C413D1B511FD2743BFF8A38F03A658705E3ADF8015C3A3417FF3D7E439FF591DA0B5F18BC20C1B8981957AE6392A3
310
F43C640C01D1A0B4728E2DD4F26DB4B3C3152A252A3B4E913CEC1C72F012782FF88EFF8637AA552DBEF76408E8A8DE9E50F9E1CB3A2DA0DB1B6039A893B56063DC5B3E3FFB5F72E67AB9FEB4AEC496C4F4C1149625DD662C53E89D7BF0F6151A046260D1337DFDC94502430F83B0EE07A130A224BCAD7DAE1D9FB6CD422FF6
310
920702629C4BB9AE79C12F243C6432A6794E18E5552BA56B431AAB5D91317302B2B071E86C3A42B1A02F999E24061403B5D0EB639195DA655DD3EBEAB4FB862DDF579F014AD0E73C22F99E28DA57FB98E75C6CA2D74D53086D600F4786E0FE3144B771A8A7B900F03594DB8A633CBC49B2EDB69228BB479CF863B5E807AAAB
310
23872F6DFEB4129B949CA33823F58830E86D65621E10047D9DB34D862E8EAC3C2ABC2F7B2C40D67CDFE01F5545B92105AF983AC54D93D69E56FB8E797F88913F898A9FEC705D3F9D1B54EC8426FB500D40A03BD0119B06E1B95DDC7EB8F6975367793EBD70E66733DFB9BC982F9CE564727731999F5D4ECFCE3B8D6A4DC2A0
310
6D50FD148437D110834A64C6CDDF57FBACB5C307A2A477DFE4939736CFEF2B175371E0E10CF0DD1D5C15654E0BCA14D1E87DD02FF93782A162C0A3D95F1524A52770F972BF1EE9809D13CE7DD599467F8ECE9ADD85CE85A34CD45355448C64F9E8A031DC2D596ACC6E5DD93D9B82DE2EF5CAF81363A8E47996A0DE24564A79
310
4115AACE09C55E14540231FDA13C319787134EBF34E3A022514E5B4D9E0826E25C02D5805B15ABE1BEF51B26383D445DD9E875EE33FE4C22DA16427D65A3BCA92CA6D28DD01DF5DC53330704308475351050232CCD31583787BA75774AFB06E5070DD0C8EF484E19968C5D83BA5B90B244D31E54D55A372320FE4786B7EA58
310
44E135AA5467CB7EA333A61683CC6A8C3257034C10CF46F40EF9F5BE59BE5BD30C3C72D235E95D10345C1D45445A5F0BB47E46A5EBE5570F9380B5FA629579952296A773720405982B9DE04011506178964401AA8BDF1FBF0A8EAB6861DD6580C0E38217056766716DAEB2D6FA0917D3E4116581EADB879C4E7CFFB11EFACD
310
3D641311495D92C8676CB409A72D18610D803CE8A626049E8EC1887CB5B44CC39883690DDA8399B4B9855B481E7D71D4A9D22F96E5BB73BF5793020C02137BF837504B0304140006080000CC70623B000000000000000000000000350000006662782F36394639363044362D344446342D343946362D394244322D32343142
310
43333846323333332F76657274696365732E62696E504B0304140006080800CC70623BF270F1330600000004000000360000006662782F36394639363044362D344446342D343946362D394244322D3234314243333846323333332F747269616E676C65732E62696E636660600000504B0304140006080000CC70623B0000
310
00000000000000000000370000006662782F36394639363044362D344446342D343946362D394244322D3234314243333846323333332F617474726962757465732E62696E504B0304140006080800CC70623B08DA0BD19000000041010000360000006662782F36394639363044362D344446342D343946362D394244322D
310
3234314243333846323333332F6469726563746F72792E786D6C858F410AC3201045AF22B36F53E9A60B35CBEEBAE80D244E44489C6234F4F835464A48035D0DF398FF9F8AF63D0E6CC63039F212F8F9020C7D47C6792B21C5FE7403D62A1188E2E60C98D7234A5830286103A55745067B9D86B8A3CF9C7F90C11DE607FB14
310
4396D7B6A82D282E9A152AD114D5EF2CB866EEE831B8EEA07A7BB5A8D7D61A2BAAEB7FD5F70921FF497D00504B0304140006080800CC70623BCA768048FE000000A00100003B0000006662782F36394639363044362D344446342D343946362D394244322D3234314243333846323333332F7265736F75726365732F636F72
310
652E786D6C8D50596E833010BD0A9ADFCA60D600328E9AA639412F609909B1126CE4A5EAF16B0295DABFFECC8CDEA2797AECF8353F924FB44E193D409E5248504B332A3D0D10FC95B4901C39B3C6F85F3248B49871801506CE266BC2B243D2688FDA47549B11775038871E12F988C7004EDE7016A9083E2ADC3D5D84BC8B09
310
D33C8D74D471E6BC8D0192EDC93A815B742658898E651BCB59086ADC356A8C3FD555A1055ED7E7E254D615792D0F075295F585746FF53B694EE78A565DD736979A65AB9933AFE69F8CD2A2F038022F28ED489E135A7CE4554F9BBEA85E68DB53CAB255FEC71496F19FA6A0B42F8B3DEE6673C0F318E4497096AD7DC5F52C33
310
EEB55BFE0D504B010214000A0000080000CC70623B3DEE336E79000000790000001B00000000000000000000000000000000006175746F6465736B2D64657369676E2D7061636B6167652E786D6C504B01021400140006080800CC70623BD486FD9CA0000000F40000001300000000000000000000000000B20000005B436F
310
6E74656E745F54797065735D2E786D6C504B01021400140006080800CC70623BD9DDAED0EC0000007C010000080000000000000000000000000083010000636F72652E786D6C504B01021400140006080800CC70623B55019EA25F0000007C000000070000000000000000000000000095020000636E782E786D6C504B0102
310
1400140006080800CC70623BA24EB22D72010000D40300000C00000000000000000000000000190300006662782F636F72652E786D6C504B01021400140006080800CC70623B408A7D3B7C0000009D0000000B00000000000000000000000000B50400006662782F636E782E786D6C504B01021400140006080800CC70623B
310
449FB9BD290100001202000031000000000000000000000000005A0500006662782F36394639363044362D344446342D343946362D394244322D3234314243333846323333332F636F72652E786D6C504B01021400140006080800CC70623BAD7543B64E010000330300003000000000000000000000000000D20600006662
310
782F36394639363044362D344446342D343946362D394244322D3234314243333846323333332F636E782E786D6C504B01021400140006080800CC70623B8D05915C650500003B10000034000000000000000000000000006E0800006662782F36394639363044362D344446342D343946362D394244322D32343142433338
310
46323333332F6F626A656374732E786D6C504B01021400140006080000CC70623B0000000000000000000000003500000000000000000000000000250E00006662782F36394639363044362D344446342D343946362D394244322D3234314243333846323333332F76657274696365732E62696E504B010214001400060808
310
00CC70623BF270F13306000000040000003600000000000000000000000000780E00006662782F36394639363044362D344446342D343946362D394244322D3234314243333846323333332F747269616E676C65732E62696E504B01021400140006080000CC70623B00000000000000000000000037000000000000000000
310
00000000D20E00006662782F36394639363044362D344446342D343946362D394244322D3234314243333846323333332F617474726962757465732E62696E504B01021400140006080800CC70623B08DA0BD190000000410100003600000000000000000000000000270F00006662782F36394639363044362D344446342D
310
343946362D394244322D3234314243333846323333332F6469726563746F72792E786D6C504B01021400140006080800CC70623BCA768048FE000000A00100003B000000000000000000000000000B1000006662782F36394639363044362D344446342D343946362D394244322D3234314243333846323333332F7265736F
310
75726365732F636F72652E786D6C504B0506000000000E000E0080040000621100000000
  0
XRECORD
  5
176
102
{ACAD_REACTORS
330
173
102
}
330
173
100
AcDbXrecord
280
     1
270
     1
271
     1
  0
XRECORD
  5
177
102
{ACAD_REACTORS
330
173
102
}
330
173
100
AcDbXrecord
280
     1
270
     1
271
     1
  0
XRECORD
  5
87D
102
{ACAD_REACTORS
330
87C
102
}
330
87C
100
AcDbXrecord
280
     1
102
DISPLAYNAME
  1
Metric50
102
FLAGS
 90
        0
  0
CELLSTYLEMAP
  5
872
102
{ACAD_REACTORS
330
162
102
}
330
162
100
AcDbCellStyleMap
 90
        3
300
CELLSTYLE
  1
TABLEFORMAT_BEGIN
 90
        5
170
     1
 91
        0
 92
    32768
 62
   257
 93
        1
300
CONTENTFORMAT
  1
CONTENTFORMAT_BEGIN
 90
        0
 91
        0
 92
      512
 93
        0
300

 40
0.0
140
1.0
 94
        5
 62
     0
340
11
144
6.0
309
CONTENTFORMAT_END
171
     1
301
MARGIN
  1
CELLMARGIN_BEGIN
 40
1.5
 40
1.5
 40
1.5
 40
1.5
 40
4.5
 40
4.5
309
CELLMARGIN_END
 94
        6
 95
        1
302
GRIDFORMAT
  1
GRIDFORMAT_BEGIN
 90
        0
 91
        1
 62
     0
 92
       -2
340
14
 93
        0
 40
1.125
309
GRIDFORMAT_END
 95
        2
302
GRIDFORMAT
  1
GRIDFORMAT_BEGIN
 90
        0
 91
        1
 62
     0
 92
       -2
340
14
 93
        0
 40
1.125
309
GRIDFORMAT_END
 95
        4
302
GRIDFORMAT
  1
GRIDFORMAT_BEGIN
 90
        0
 91
        1
 62
     0
 92
       -2
340
14
 93
        0
 40
1.125
309
GRIDFORMAT_END
 95
        8
302
GRIDFORMAT
  1
GRIDFORMAT_BEGIN
 90
        0
 91
        1
 62
     0
 92
       -2
340
14
 93
        0
 40
1.125
309
GRIDFORMAT_END
 95
       16
302
GRIDFORMAT
  1
GRIDFORMAT_BEGIN
 90
        0
 91
        1
 62
     0
 92
       -2
340
14
 93
        0
 40
1.125
309
GRIDFORMAT_END
 95
       32
302
GRIDFORMAT
  1
GRIDFORMAT_BEGIN
 90
        0
 91
        1
 62
     0
 92
       -2
340
14
 93
        0
 40
1.125
309
GRIDFORMAT_END
309
TABLEFORMAT_END
  1
CELLSTYLE_BEGIN
 90
        1
 91
        1
300
_TITLE
309
CELLSTYLE_END
300
CELLSTYLE
  1
TABLEFORMAT_BEGIN
 90
        5
170
     1
 91
        0
 92
        0
 62
   257
 93
        1
300
CONTENTFORMAT
  1
CONTENTFORMAT_BEGIN
 90
        0
 91
        0
 92
      512
 93
        0
300

 40
0.0
140
1.0
 94
        5
 62
     0
340
11
144
4.5
309
CONTENTFORMAT_END
171
     1
301
MARGIN
  1
CELLMARGIN_BEGIN
 40
1.5
 40
1.5
 40
1.5
 40
1.5
 40
4.5
 40
4.5
309
CELLMARGIN_END
 94
        6
 95
        1
302
GRIDFORMAT
  1
GRIDFORMAT_BEGIN
 90
        0
 91
        1
 62
     0
 92
       -2
340
14
 93
        0
 40
1.125
309
GRIDFORMAT_END
 95
        2
302
GRIDFORMAT
  1
GRIDFORMAT_BEGIN
 90
        0
 91
        1
 62
     0
 92
       -2
340
14
 93
        0
 40
1.125
309
GRIDFORMAT_END
 95
        4
302
GRIDFORMAT
  1
GRIDFORMAT_BEGIN
 90
        0
 91
        1
 62
     0
 92
       -2
340
14
 93
        0
 40
1.125
309
GRIDFORMAT_END
 95
        8
302
GRIDFORMAT
  1
GRIDFORMAT_BEGIN
 90
        0
 91
        1
 62
     0
 92
       -2
340
14
 93
        0
 40
1.125
309
GRIDFORMAT_END
 95
       16
302
GRIDFORMAT
  1
GRIDFORMAT_BEGIN
 90
        0
 91
        1
 62
     0
 92
       -2
340
14
 93
        0
 40
1.125
309
GRIDFORMAT_END
 95
       32
302
GRIDFORMAT
  1
GRIDFORMAT_BEGIN
 90
        0
 91
        1
 62
     0
 92
       -2
340
14
 93
        0
 40
1.125
309
GRIDFORMAT_END
309
TABLEFORMAT_END
  1
CELLSTYLE_BEGIN
 90
        2
 91
        1
300
_HEADER
309
CELLSTYLE_END
300
CELLSTYLE
  1
TABLEFORMAT_BEGIN
 90
        5
170
     1
 91
        0
 92
        0
 62
   257
 93
        1
300
CONTENTFORMAT
  1
CONTENTFORMAT_BEGIN
 90
        0
 91
        0
 92
      512
 93
        0
300

 40
0.0
140
1.0
 94
        2
 62
     0
340
11
144
4.5
309
CONTENTFORMAT_END
171
     1
301
MARGIN
  1
CELLMARGIN_BEGIN
 40
1.5
 40
1.5
 40
1.5
 40
1.5
 40
4.5
 40
4.5
309
CELLMARGIN_END
 94
        6
 95
        1
302
GRIDFORMAT
  1
GRIDFORMAT_BEGIN
 90
        0
 91
        1
 62
     0
 92
       -2
340
14
 93
        0
 40
1.125
309
GRIDFORMAT_END
 95
        2
302
GRIDFORMAT
  1
GRIDFORMAT_BEGIN
 90
        0
 91
        1
 62
     0
 92
       -2
340
14
 93
        0
 40
1.125
309
GRIDFORMAT_END
 95
        4
302
GRIDFORMAT
  1
GRIDFORMAT_BEGIN
 90
        0
 91
        1
 62
     0
 92
       -2
340
14
 93
        0
 40
1.125
309
GRIDFORMAT_END
 95
        8
302
GRIDFORMAT
  1
GRIDFORMAT_BEGIN
 90
        0
 91
        1
 62
     0
 92
       -2
340
14
 93
        0
 40
1.125
309
GRIDFORMAT_END
 95
       16
302
GRIDFORMAT
  1
GRIDFORMAT_BEGIN
 90
        0
 91
        1
 62
     0
 92
       -2
340
14
 93
        0
 40
1.125
309
GRIDFORMAT_END
 95
       32
302
GRIDFORMAT
  1
GRIDFORMAT_BEGIN
 90
        0
 91
        1
 62
     0
 92
       -2
340
14
 93
        0
 40
1.125
309
GRIDFORMAT_END
309
TABLEFORMAT_END
  1
CELLSTYLE_BEGIN
 90
        3
 91
        2
300
_DATA
309
CELLSTYLE_END
  0
ENDSEC
  0
SECTION
  2
ACDSDATA
 70
     2
 71
     8
  0
ACDSSCHEMA
 90
        0
  1
AcDb_Thumbnail_Schema
  2
AcDbDs::ID
280
    10
 91
        8
  2
Thumbnail_Data
280
    15
 91
        0
101
ACDSRECORD
 95
        0
 90
        1
  2
AcDbDs::TreatedAsObjectData
280
     1
291
     1
101
ACDSRECORD
 95
        0
 90
        2
  2
AcDbDs::Legacy
280
     1
291
     1
101
ACDSRECORD
  1
AcDbDs::ID
 90
        3
  2
AcDs:Indexable
280
     1
291
     1
101
ACDSRECORD
  1
AcDbDs::ID
 90
        4
  2
AcDbDs::HandleAttribute
280
     7
282
     1
  0
ACDSSCHEMA
 90
        1
  1
AcDbDs::TreatedAsObjectDataSchema
  2
AcDbDs::TreatedAsObjectData
280
     1
 91
        0
  0
ACDSSCHEMA
 90
        2
  1
AcDbDs::LegacySchema
  2
AcDbDs::Legacy
280
     1
 91
        0
  0
ACDSSCHEMA
 90
        3
  1
AcDbDs::IndexedPropertySchema
  2
AcDs:Indexable
280
     1
 91
        0
  0
ACDSSCHEMA
 90
        4
  1
AcDbDs::HandleAttributeSchema
  2
AcDbDs::HandleAttribute
280
     7
 91
        1
284
     1
  0
ACDSRECORD
 90
        0
  2
AcDbDs::ID
280
    10
320
D3
  2
Thumbnail_Data
280
    15
 94
     1925
310
89504E470D0A1A0A0000000D4948445200000100000000B408030000004C80028300000300504C5445FFFFFFFFFFFFFFFFFF0000000000000000000000000000000000000000000000000000330000660000990000CC0000FF0033000033330033660033990033CC0033FF0066000066330066660066990066CC0066FF0099
310
000099330099660099990099CC0099FF00CC0000CC3300CC6600CC9900CCCC00CCFF00FF0000FF3300FF6600FF9900FFCC00FFFF3300003300333300663300993300CC3300FF3333003333333333663333993333CC3333FF3366003366333366663366993366CC3366FF3399003399333399663399993399CC3399FF33CC00
310
33CC3333CC6633CC9933CCCC33CCFF33FF0033FF3333FF6633FF9933FFCC33FFFF6600006600336600666600996600CC6600FF6633006633336633666633996633CC6633FF6666006666336666666666996666CC6666FF6699006699336699666699996699CC6699FF66CC0066CC3366CC6666CC9966CCCC66CCFF66FF0066
310
FF3366FF6666FF9966FFCC66FFFF9900009900339900669900999900CC9900FF9933009933339933669933999933CC9933FF9966009966339966669966999966CC9966FF9999009999339999669999999999CC9999FF99CC0099CC3399CC6699CC9999CCCC99CCFF99FF0099FF3399FF6699FF9999FFCC99FFFFCC0000CC00
310
33CC0066CC0099CC00CCCC00FFCC3300CC3333CC3366CC3399CC33CCCC33FFCC6600CC6633CC6666CC6699CC66CCCC66FFCC9900CC9933CC9966CC9999CC99CCCC99FFCCCC00CCCC33CCCC66CCCC99CCCCCCCCCCFFCCFF00CCFF33CCFF66CCFF99CCFFCCCCFFFFFF0000FF0033FF0066FF0099FF00CCFF00FFFF3300FF3333
310
FF3366FF3399FF33CCFF33FFFF6600FF6633FF6666FF6699FF66CCFF66FFFF9900FF9933FF9966FF9999FF99CCFF99FFFFCC00FFCC33FFCC66FFCC99FFCCCCFFCCFFFFFF00FFFF33FFFF66FFFF99FFFFCCFFFFFF0000000D0D0D1A1A1A2828283535354343435050505D5D5D6B6B6B787878868686939393A1A1A1AEAEAEBB
310
BBBBC9C9C9D6D6D6E4E4E4F1F1F1FFFFFF000000000000000000000000000000000000000000000000000000000000AD4AB4E4000004404944415478DAEDDC5B92AA301006E05ECE59DC94EB9AF299E75E499E789C721147010521970EB993BF6BCA5141133E920602428FBF8EE3F178D0833A0E00CC00FF3A8D15A0CFD50F
310
0000000000000000000000000000000000000000000000000000000000000000000000000000000040D2E06D740AB032A00BB40E30AF4DCAB72A9776135C643C80CC6D3956FE40170000000000804A005817C482B9EB0008AE111B22E99E7445009C70EE1C00C135EA1DA0CCF2C70368B401D4035068F9E31D0CE5ED40D501
310
B4DA01AA0128B6FC9100DA6D009500945BFE3800CD66C04800653A00D706C0991B403D00C1153A9701AA0108AE10534B00E389707C0F4B6714077B8C2CF80390D2AF3FFD1A5164582E1A9DEFE80A6457C33115484400A00400AE0A450660AA00C0F09D2CFBC40900BFF2F2B600672A8EDB0204993F6F1760A7453A00EE0E60
310
778AA03C80B542EC0FA094BDC091AD8B33664F82D60A8D8E9CA4946F127CEE30D916679D9CAB05582BF499286D01CCA37E4F6D2E709E3C9ABADC7BF233148FA65DC03300C7AF1A9F45ACCF0D5BA8B5B67A80C387053940D802740572400BE04C2D409004473A9B030200D80C60AFD09820099600B0B480FD24BFAD804F12AC
310
B40BD80122EF079C4E8229012823C0C9167029803339202B40F28321160D957D03D0955A8023E75C1F4036960A00005405A02833C07781C100ACDB157EEEC5295985A6F9228C096A0B64721638D7FEB33B140D60AA91923C441B14D57C396BDE531419E0FB43EBD5ABBCF981C4EE051B5E1CBE673C1C671FCEDD68BF8C842F
310
52B600256C01B1BA80B640761718A105903607889352AC1CE093742BDB0AE4DE0C2AEC070000074300B828C09901919C00A90744F64362D4D590589583A2DD0F8B77716284716ACC7E72547FCD8EF0E428B7D00528530B585258F424187A7ADCB6671A9403B226418ADB02C8672B40119220F9E400CA798D50C06630CFAE30
310
000000807C49904293A0EB5A61190092200052FF6022CE4F6678F34B99F72F67385681297F32635E052C19B2DC4C67E73BBBD526CD017E37F000000000D02800D50640000000000000000000C03D71BE4D22AF2F3E009AE31513C0F192B2B200FB1B1C3B01F4778FB40238A23000CB012ED30544EBC3A38BB07814C351AF36
310
9260FB0041B1EDD900301DE02ED7FFFA03B0FC263BC5000479C30A60BBDFAECF4DF78BB700DB104750540E90A847B79303E26C6B227CA459004B2B07C0B500D2E5BF360052070000000000000000000000000000000000000000000000000000000000000000000000D058FC9E8CEB00DC5FF13B3DBFDFB7FF3ED3A647FAFD
310
9E7E5180FB1180F600F70B02D00C403A80630BA01D40A7F101B8155F89371A96207AFD0DF3DFF07A31BDF17AFDAEE7303D0CC3FC38FD77C43AD376FE5B8D00CB32CD0BBC180CEFF76EF4B5E85A00ED95228D026C9F515A809FD271FB59001C731D63FF9905C034D3B68C15A08A98BB7EE6A809A0484C007F1DC704D079FC07
310
719D74987FF5DFCE0000000049454E44AE426082
  0
ACDSRECORD
 90
        0
  2
AcDbDs::ID
280
    10
320
22
  2
Thumbnail_Data
280
    15
 94
     1423
310
89504E470D0A1A0A0000000D49484452000001000000006E0803000000FF253DCA00000300504C5445000000FFFFFF0000000000000000000000000000000000000000000000000000000000330000660000990000CC0000FF0033000033330033660033990033CC0033FF0066000066330066660066990066CC0066FF0099
310
000099330099660099990099CC0099FF00CC0000CC3300CC6600CC9900CCCC00CCFF00FF0000FF3300FF6600FF9900FFCC00FFFF3300003300333300663300993300CC3300FF3333003333333333663333993333CC3333FF3366003366333366663366993366CC3366FF3399003399333399663399993399CC3399FF33CC00
310
33CC3333CC6633CC9933CCCC33CCFF33FF0033FF3333FF6633FF9933FFCC33FFFF6600006600336600666600996600CC6600FF6633006633336633666633996633CC6633FF6666006666336666666666996666CC6666FF6699006699336699666699996699CC6699FF66CC0066CC3366CC6666CC9966CCCC66CCFF66FF0066
310
FF3366FF6666FF9966FFCC66FFFF9900009900339900669900999900CC9900FF9933009933339933669933999933CC9933FF9966009966339966669966999966CC9966FF9999009999339999669999999999CC9999FF99CC0099CC3399CC6699CC9999CCCC99CCFF99FF0099FF3399FF6699FF9999FFCC99FFFFCC0000CC00
310
33CC0066CC0099CC00CCCC00FFCC3300CC3333CC3366CC3399CC33CCCC33FFCC6600CC6633CC6666CC6699CC66CCCC66FFCC9900CC9933CC9966CC9999CC99CCCC99FFCCCC00CCCC33CCCC66CCCC99CCCCCCCCCCFFCCFF00CCFF33CCFF66CCFF99CCFFCCCCFFFFFF0000FF0033FF0066FF0099FF00CCFF00FFFF3300FF3333
310
FF3366FF3399FF33CCFF33FFFF6600FF6633FF6666FF6699FF66CCFF66FFFF9900FF9933FF9966FF9999FF99CCFF99FFFFCC00FFCC33FFCC66FFCC99FFCCCCFFCCFFFFFF00FFFF33FFFF66FFFF99FFFFCCFFFFFF0000000D0D0D1A1A1A2828283535354343435050505D5D5D6B6B6B787878868686939393A1A1A1AEAEAEBB
310
BBBBC9C9C9D6D6D6E4E4E4F1F1F1FFFFFF0000000000000000000000000000000000000000000000000000000000003AE5ACE9000002454944415478DAED9C5B6E8330104567FF8BBA2B996DF8BF0951899F784CADE2C73D52A3245823733C6688818A1042082184903100F0FE7BBDEE2B002B0BC0678CFBA8EA17EBBFC777
310
B85884907F3C0C5AA72E22D6A8170DDDC6B5813905A05B5BCC3A017A35C5EAFBCF046002300176DE7F8300EC9E009872FFB199005727D71E48B71942554E1D9F11A097C3A61209F03E3B71F950C826491C6A8C1CF1044028A08F00C894026CC34601BE00D55C28C88C02601C36D55A067C4B03BC4DC30B38BB5DE9B5B7D370
310
61193B42BDBE74B1CBE33B40E1E20AF89400BF1F4E8FD7B3DB41AF1301EFA67D32E05901F733209802D963C0A40232472EDCA902B62930A000311EBAEB65B09E0190A505406AC944016B0BA8871A4D805EF45AA549802DD4E302100890B0DB883ADD22C016EA53041075E41901B01134FF9ECEB9649B29D648023E054ACB34
310
668029D4F302249A02E589ABDA38054CA166AA02DAAF0A28CB204F84F610B0F96F81697F0D5A17F2BA2D89CDBA20525F149D428071492CEDF5D1F4F7BD0BAF6D4DB426F88745D16557856F2D8965A740BD0CAE23E0E67900055000058C24A0ED0E9177493BEFF770680C35E01D22C958E07A78103440669DA5980163DF3444
310
011420A623548B00A1000AA080C5041CCF0D9FFB8AF0B9D0F420881505F89735901500CFD67C02D25E97D752A233B95340F1E2DAD0022E2E0996D32227A02DCDA603419EEC28A09024F9E726D31282F905E43F008D97DA17648F29D0B07BB929B0B680ADF3DF34BEFC6F1A8410420821841042082184104208218410420AFC
310
00951D644C94B7823D0000000049454E44AE42608244AE426082
  0
ENDSEC
  0
EOF
